<?xml version="1.0" standalone="no"?>
<!DOCTYPE svg PUBLIC "-//W3C//DTD SVG 1.1//EN" "http://www.w3.org/Graphics/SVG/1.1/DTD/svg11.dtd" >
<svg xmlns="http://www.w3.org/2000/svg" xmlns:xlink="http://www.w3.org/1999/xlink" version="1.1">
<metadata></metadata>
<defs>
<font id="yanone_kaffeesatzregular" horiz-adv-x="854" >
<font-face units-per-em="2048" ascent="1638" descent="-410" />
<missing-glyph horiz-adv-x="321" />
<glyph unicode="&#xfb01;" horiz-adv-x="823" d="M20 883q0 49 1.5 77.5t5.5 42t12 17.5t24 4h99v123q0 123 32.5 194.5t86 110.5t119 50t130.5 11q115 0 175.5 -25.5t60.5 -74.5q0 -20 -4 -47t-12 -49q-41 20 -98.5 32.5t-114.5 12.5q-41 0 -79 -6t-67 -27.5t-46 -63.5t-17 -114v-127h143q0 -49 -1 -77.5t-5 -42 t-10 -17.5t-19 -4h-108v-850q0 -8 -4 -17q-8 -16 -29 -16h-133v883h-142zM563 0v948q0 29 7.5 44.5t25.5 22.5t51 8t84 1v-991q0 -12 -3 -19.5t-18.5 -10.5t-49 -3h-97.5z" />
<glyph unicode="&#xfb02;" horiz-adv-x="843" d="M20 883q0 49 1.5 77.5t5.5 42t12 17.5t24 4h99v123q0 123 32.5 194.5t81 109.5t104.5 49t103 11q78 0 147.5 -19t119.5 -50v-1409q0 -8 -5 -17q-8 -16 -28 -16h-133v1360q-23 8 -47.5 11t-42.5 3q-27 0 -55.5 -5t-53.5 -25.5t-41 -60.5t-16 -109v-150h164 q0 -49 -1.5 -77.5t-4.5 -42t-10 -17.5t-19 -4h-129v-850q0 -8 -4 -17q-8 -16 -31 -16h-131v883h-142z" />
<glyph horiz-adv-x="0" />
<glyph unicode="&#xd;" horiz-adv-x="321" />
<glyph unicode=" "  horiz-adv-x="321" />
<glyph unicode="&#x09;" horiz-adv-x="321" />
<glyph unicode="&#xa0;" horiz-adv-x="321" />
<glyph unicode="!" horiz-adv-x="399" d="M86 102q0 47 29.5 83t83.5 36q63 0 88.5 -32.5t25.5 -86.5q0 -47 -30.5 -81.5t-83.5 -34.5q-66 0 -89.5 31.5t-23.5 84.5zM92 1397q0 18 8.5 27.5t33 14.5t69.5 6t116 1l-32 -930q-2 -29 -10.5 -44t-28 -22.5t-50 -9.5t-77.5 -2z" />
<glyph unicode="&#x22;" horiz-adv-x="540" d="M63 1567.5q0 29.5 7 34.5q8 4 24.5 6t38.5 2q27 0 52.5 -1t41.5 -5q0 -43 -5 -110t-11 -130.5t-13.5 -111.5t-13.5 -52q-2 -2 -16 -2t-31 -2q-20 -2 -45 -2q0 4 -4 36t-8 76t-8 94t-6.5 94t-2.5 73.5zM313 1567.5q0 29.5 6 34.5q8 4 25.5 6t40.5 2q27 0 52.5 -1t41.5 -5 q0 -43 -5 -110t-11 -130.5t-13.5 -111.5t-13.5 -52q-2 -2 -16 -2t-31 -2q-20 -2 -45 -2q-2 4 -5 36t-7 76t-9.5 94t-7.5 94t-2 73.5z" />
<glyph unicode="#" d="M55 389q0 78 4 104.5t31 26.5h86l10 217h-131q0 78 4 104.5t31 26.5h105l6 129q2 25 35.5 29t111.5 4l-8 -162h195l6 129q2 25 35.5 29t111.5 4l-8 -162h119q0 -78 -4 -104.5t-29 -26.5h-94l-10 -217h137q0 -78 -4 -104.5t-29 -26.5h-113l-6 -137q-2 -25 -35.5 -29 t-111.5 -4l8 170h-195l-6 -137q-2 -25 -35.5 -29t-111.5 -4l8 170h-113zM322 520h194l10 217h-194z" />
<glyph unicode="$" d="M106 76q0 6 3.5 23.5t9.5 38t14 40t19 31.5q31 -25 84 -42t133 -17q96 0 143 45t47 129q0 57 -24.5 103t-88.5 112l-229 233q-57 59 -82.5 115.5t-25.5 111.5q0 111 67.5 177.5t192.5 83.5v182q0 43 38.5 55t112.5 12v-247q117 -8 164 -33t47 -39q0 -18 -9 -53t-32 -64 q-20 14 -74.5 28.5t-126.5 14.5q-92 0 -145 -24.5t-53 -90.5q0 -43 21.5 -79.5t66.5 -83.5l248 -248q61 -61 88.5 -125t27.5 -143q0 -59 -12 -112.5t-43 -96.5t-80 -75t-123 -44v-178q0 -43 -36.5 -54.5t-114.5 -11.5v236q-119 6 -173.5 36.5t-54.5 53.5z" />
<glyph unicode="%" horiz-adv-x="1415" d="M90 1075q0 195 76 285t215 90q68 0 119 -17.5t84.5 -60.5t51 -114.5t17.5 -180.5q0 -199 -72.5 -291t-211.5 -92q-68 0 -120 14.5t-88 55.5t-53.5 115.5t-17.5 195.5zM238 47l825 1405q25 -10 47 -20q16 -10 31.5 -22.5t15.5 -29.5q0 -6 -35 -68.5t-93 -161.5t-132 -224 t-149 -254q-181 -305 -408 -688q-29 8 -51 18q-20 8 -35.5 19.5t-15.5 25.5zM250 1071q0 -78 8 -127t23.5 -75.5t38 -36t53.5 -9.5q27 0 50 12.5t39.5 41t27 76.5t10.5 122q0 76 -7.5 124t-22.5 74.5t-36.5 37t-52.5 10.5t-54.5 -11.5t-41 -40t-26.5 -76.5t-9 -122zM762 362 q0 195 75.5 285t215.5 90q68 0 119 -17.5t84.5 -60.5t51 -114.5t17.5 -179.5q0 -199 -72.5 -291t-212.5 -92q-68 0 -120 14t-87.5 55t-53 115.5t-17.5 195.5zM920 354q0 -78 8 -127t23.5 -75.5t38 -36t52.5 -9.5q55 0 92 53.5t37 198.5q0 76 -7 124t-22.5 75t-38 37 t-52.5 10q-31 0 -54.5 -11t-41 -39t-26.5 -77t-9 -123z" />
<glyph unicode="&#x26;" horiz-adv-x="1028" d="M53 348q0 63 18.5 120.5t50.5 107t74 89.5t87 68q-72 123 -116 234.5t-44 195.5q0 139 90 211t252 72q137 0 222 -30t85 -66q0 -29 -11 -65t-30 -58q-59 41 -117.5 56t-128.5 15q-39 0 -72.5 -5t-59 -21.5t-40 -47t-14.5 -81.5q0 -55 35 -141.5t92 -186.5t129 -204.5 t145 -198.5q10 53 13.5 101t3.5 83q0 162 -36 260t-87 160q27 6 60.5 9t66.5 4t61.5 2t46.5 1q47 0 85 -1t73 -5q2 -4 4 -21.5t2 -39.5q0 -31 -14 -52.5t-72 -21.5h-100q10 -18 22.5 -43t23.5 -61.5t18.5 -88t7.5 -123.5q0 -59 -10.5 -143t-41.5 -170q51 -57 95.5 -96 t74.5 -53q-2 -25 -14 -49.5t-27.5 -43t-34 -29.5t-32.5 -11q-16 0 -56 34.5t-94 94.5q-51 -57 -124.5 -93t-180.5 -36q-113 0 -186.5 30.5t-116.5 81.5t-60.5 117.5t-17.5 138.5zM225 344q0 -39 9.5 -76t33 -66.5t61.5 -47t95 -17.5q74 0 124 28t83 71q-68 82 -138.5 178 t-136.5 198q-59 -43 -95 -107.5t-36 -160.5z" />
<glyph unicode="'" horiz-adv-x="288" d="M63 1567.5q0 29.5 7 34.5q8 4 24.5 6t38.5 2q27 0 52.5 -1t41.5 -5q0 -43 -5 -110t-11 -130.5t-13.5 -111.5t-13.5 -52q-2 -2 -16 -2t-31 -2q-20 -2 -45 -2q0 4 -4 36t-8 76t-8 94t-6.5 94t-2.5 73.5z" />
<glyph unicode="(" horiz-adv-x="598" d="M133 655q0 256 47 442.5t106.5 308.5t112 180.5t64.5 58.5q41 0 59.5 -23t32.5 -84q-47 -61 -92 -144t-80 -192.5t-57.5 -243.5t-22.5 -296q0 -178 23.5 -330t61.5 -271.5t82 -205.5t85 -131q-10 -57 -30.5 -90t-61.5 -33q-14 0 -67.5 61.5t-112 190.5t-104.5 327.5 t-46 474.5z" />
<glyph unicode=")" horiz-adv-x="598" d="M43 -276q41 55 86 140t82 201.5t60.5 265.5t23.5 331q0 152 -20.5 284.5t-55.5 244.5t-81 200t-95 147q14 61 32.5 84t59.5 23q12 0 64.5 -56.5t112 -176.5t106.5 -307t47 -450q0 -260 -46 -456.5t-104.5 -329.5t-111.5 -200.5t-68 -67.5q-41 0 -61.5 32.5t-30.5 90.5z " />
<glyph unicode="*" horiz-adv-x="962" d="M33 1030q0 37 11 65.5t27.5 46t36 23.5t33.5 0l267 -168q4 -37 -11.5 -51t-38.5 -6zM135 614l248 252q37 37 76 -16l-180 -320q-14 -20 -34 -18t-41.5 17.5t-40 39t-28.5 45.5zM406 1366q-2 25 15 35t46 10q25 0 52.5 -7t49.5 -18l-41 -323q-4 -23 -17 -32t-58 1z M507 860q7 12 48 29l236 -277q14 -18 5.5 -35.5t-28.5 -33t-47 -26.5t-51 -15l-160 323q-10 23 -3 35zM550.5 984q4.5 17 27.5 30l303 164q23 -18 36 -50t13 -61q0 -23 -7.5 -38t-23.5 -19l-326 -78q-27 35 -22.5 52z" />
<glyph unicode="+" d="M70 504q0 78 4 111.5t30 33.5h252v252q0 27 34 31t112 4v-287h284q0 -78 -4 -111.5t-28 -33.5h-252v-252q0 -25 -34 -29t-112 -4v285h-286z" />
<glyph unicode="," horiz-adv-x="374" d="M78 -164q18 31 28.5 53.5t16.5 42t8 39t4 41.5q-47 29 -47 101q0 45 28.5 75.5t76.5 30.5q113 0 112 -123q0 -55 -20.5 -110.5t-47 -99.5t-53 -70.5t-41.5 -26.5q-23 0 -41 10.5t-24 36.5z" />
<glyph unicode="-" horiz-adv-x="569" d="M76 504q0 78 4 111.5t29 33.5h385q0 -78 -4.5 -111.5t-30.5 -33.5h-383z" />
<glyph unicode="." horiz-adv-x="374" d="M76 104q0 47 29.5 83t84.5 36q63 0 89 -32.5t26 -86.5q0 -49 -30.5 -82.5t-84.5 -33.5q-66 0 -90 30.5t-24 85.5z" />
<glyph unicode="/" horiz-adv-x="686" d="M20 -41l461 1563q4 14 10.5 23t25 14.5t53 6.5t96.5 1l-461 -1567q-4 -14 -10.5 -22.5t-24.5 -12.5t-53 -5t-97 -1z" />
<glyph unicode="0" d="M59 606q0 305 87 464t286 159t282 -142.5t83 -431.5q0 -166 -18.5 -292.5t-62.5 -210.5t-116 -127t-178 -43t-176 40.5t-112 119.5t-58.5 195.5t-16.5 268.5zM238 594q0 -127 9 -215t31.5 -142.5t58.5 -79t89 -24.5q104 0 150.5 124t46.5 400q0 211 -38 317.5t-145 106.5 q-117 0 -159.5 -129t-42.5 -358z" />
<glyph unicode="1" d="M57 115q0 12 29 21t72 13.5t95 6.5t99 2l23 899q-27 -2 -66 -7.5t-76 -11.5q-43 -8 -92 -18q-10 23 -17 50.5t-7 57.5q0 12 51 29t117.5 33t130 27.5t90.5 11.5q12 0 26.5 -3t20.5 -7l-27 -1061h152h45t39 2q20 2 35 4q0 -86 -4.5 -125t-30.5 -39h-701q-2 25 -3 57.5 t-1 57.5z" />
<glyph unicode="2" d="M59 51q0 20 2 36.5t8.5 32t15.5 34t24 43.5q68 113 149.5 209t152 184t119 170t48.5 168q0 66 -36 103.5t-122 37.5q-80 0 -164 -20.5t-135 -51.5q-14 33 -17.5 67t-3.5 56q0 18 29 38t78 35t115.5 25.5t140.5 10.5q88 0 146.5 -18.5t93 -54.5t49 -87t14.5 -119 q0 -106 -48 -200.5t-121 -186.5t-159 -190.5t-159 -214.5h274q41 0 84 1t78 5q41 4 80 8q0 -94 -4.5 -133t-30.5 -39h-694q-4 12 -5.5 27.5t-1.5 23.5z" />
<glyph unicode="3" d="M86 1118q0 41 95 76t259 35q82 0 136.5 -19.5t87 -53.5t47 -78t14.5 -93q0 -61 -18.5 -115.5t-50 -100.5t-71.5 -84t-83 -69q55 -6 104 -25.5t86 -56t58.5 -92t21.5 -131.5q0 -127 -35 -224t-96 -161.5t-146 -97.5t-186 -33q-115 0 -167 30t-52 71q0 45 8 72.5t15 49.5 q74 -63 200 -63q135 0 208 99.5t73 252.5q0 66 -27.5 107t-72.5 64.5t-103.5 31.5t-122.5 8l-4 107q131 61 202 143t71 168q0 23 -5.5 46.5t-20.5 42.5t-44 31.5t-78 12.5q-84 0 -155.5 -19.5t-124.5 -52.5v-2q-16 31 -19.5 66t-3.5 57z" />
<glyph unicode="4" d="M57 414q0 25 20.5 85t55.5 137t79 165t91 168t94 145.5t86 97.5q35 29 76 29q31 0 54.5 -7t39.5 -17l-6 -795h56.5t50.5 2q25 2 45 4q2 -6 4 -14t3 -18.5t1 -26.5q-2 -41 -14.5 -72t-40.5 -31h-105v-213q0 -20 -3 -30.5t-18.5 -15.5t-49 -6t-95.5 -1v266h-370 q-33 31 -43.5 72t-10.5 76zM201 422h280l23 590q-37 -43 -83 -115t-89 -155t-79 -166.5t-52 -153.5z" />
<glyph unicode="5" d="M70 -121q0 47 4 76t14 59q70 -63 199 -63q84 0 143 34.5t97 92t55.5 132.5t17.5 152q0 88 -22.5 144.5t-64.5 88.5t-100.5 44t-129.5 12q-63 0 -115.5 -9t-81.5 -17l59 604h627q0 -47 -3 -76t-12 -45t-26.5 -22.5t-46.5 -6.5q-25 0 -90.5 1t-132.5 3q-82 2 -174 4 l-31 -307q10 2 39 6.5t80 4.5q59 0 129.5 -11.5t131 -52.5t100.5 -119t40 -211q0 -137 -27.5 -247.5t-86 -189.5t-147.5 -122t-212 -43q-61 0 -106 9.5t-73 22.5t-41 27.5t-13 24.5z" />
<glyph unicode="6" d="M63 631q0 229 36 383.5t98.5 249t147.5 134.5t183 40q43 0 83 -3t72 -11.5t50.5 -21.5t18.5 -34q0 -25 -3.5 -57.5t-13.5 -61.5q-39 14 -87 22.5t-105 8.5q-68 0 -125.5 -29.5t-98 -93t-65.5 -164t-31 -241.5q47 74 115 110.5t166 36.5q131 0 214 -92t83 -305 q0 -264 -98.5 -391t-290.5 -127q-119 0 -187.5 45t-104.5 130t-46.5 204.5t-10.5 267.5zM223 582q-4 -240 45 -345.5t152 -105.5q53 0 93 25.5t67.5 70.5t42 106.5t14.5 133.5q0 135 -46 206.5t-136 71.5q-135 0 -232 -151v-12z" />
<glyph unicode="7" d="M90 1229h737q-94 -184 -175 -361.5t-144.5 -352.5t-108.5 -348t-65 -347q-94 0 -132 8t-38 37q20 162 68.5 338t109.5 341t130 306t128 235q-59 -4 -181 -5t-282 -1q-29 0 -38 46t-9 104z" />
<glyph unicode="8" d="M63 377q0 133 68 233.5t166 159.5q-39 27 -74 53.5t-59 55.5q-41 41 -63.5 97t-22.5 118q0 88 28.5 154.5t75.5 110.5t110.5 65.5t135.5 21.5q70 0 136.5 -14.5t116.5 -52.5t81 -102.5t31 -162.5q0 -68 -19.5 -121t-50.5 -96t-71 -78t-81 -63q29 -23 57.5 -46.5 t51.5 -47.5q59 -59 90 -128t31 -161q0 -80 -21.5 -151.5t-66.5 -124t-111.5 -83t-157.5 -30.5q-102 0 -173.5 30.5t-118 84t-68 125t-21.5 153.5zM219 385q0 -111 57.5 -176.5t157.5 -65.5q94 0 149.5 61.5t55.5 172.5q0 84 -27.5 129t-64.5 78q-25 25 -54.5 48t-62.5 46 q-88 -45 -149.5 -118t-61.5 -175zM246 1104q0 -102 80 -166q20 -23 52 -46.5t71 -49.5q78 51 134 115.5t56 150.5q0 47 -16.5 82t-42 56.5t-59 31.5t-70.5 10q-84 0 -144.5 -44t-60.5 -140z" />
<glyph unicode="9" d="M55 733q0 264 98.5 389t290.5 125q111 0 178.5 -32.5t105.5 -107.5t51.5 -198t17.5 -301q-4 -418 -126 -619.5t-388 -201.5q-76 0 -130.5 15.5t-54.5 52.5q0 25 5.5 57.5t9.5 54.5q69 -20 149 -20q98 0 165 38t110 107.5t64.5 163.5t29.5 209q-47 -72 -112.5 -107.5 t-164.5 -35.5q-63 0 -118.5 26.5t-95.5 78.5t-62.5 129t-22.5 177zM219 754q0 -135 49 -207t135 -72q66 0 124.5 35t109.5 113v12q0 115 -7 202t-27.5 145t-57.5 88t-99 30q-104 0 -165.5 -86t-61.5 -260z" />
<glyph unicode=":" horiz-adv-x="374" d="M76 104q0 47 30.5 83t83.5 36q63 0 89 -32.5t26 -86.5q0 -49 -30.5 -82.5t-84.5 -33.5q-66 0 -90 30.5t-24 85.5zM76 791q0 47 30.5 82.5t83.5 35.5q63 0 89 -32.5t26 -85.5q0 -49 -30.5 -83t-84.5 -34q-66 0 -90 31t-24 86z" />
<glyph unicode=";" horiz-adv-x="374" d="M70 -164q16 31 26 53.5t16.5 42t9.5 39t5 41.5q-47 29 -47 101q0 45 28.5 75.5t73.5 30.5q113 0 113 -123q0 -55 -19.5 -110.5t-46 -99.5t-53 -70.5t-41.5 -26.5q-23 0 -41 10.5t-24 36.5zM72 791q0 47 30.5 82.5t83.5 35.5q63 0 89 -32.5t26 -85.5q0 -49 -30.5 -83 t-84.5 -34q-66 0 -90 31t-24 86z" />
<glyph unicode="&#x3c;" horiz-adv-x="819" d="M80 528q0 29 12 52.5t41 37.5l541 265q29 -27 43 -57.5t16 -55.5q0 -35 -31 -49l-405 -199l440 -196q-2 -53 -25.5 -92t-47.5 -39q-18 0 -58 16l-500 221q-27 47 -26 96z" />
<glyph unicode="=" d="M70 313q0 78 4 112t30 34h682q0 -78 -4 -112t-28 -34h-684zM70 694q0 78 4 112t30 34h682q0 -78 -4 -112t-28 -34h-684z" />
<glyph unicode="&#x3e;" horiz-adv-x="819" d="M88 731q4 53 27.5 91t48.5 38q20 0 55 -14l500 -221q29 -45 29 -97q0 -63 -56 -90l-540 -264q-27 27 -41.5 56.5t-16.5 54.5q0 37 29 51l407 199z" />
<glyph unicode="?" horiz-adv-x="604" d="M39 1366q0 18 23.5 34.5t60.5 28t82 18.5t90 7q129 0 207 -70.5t78 -214.5q0 -92 -25 -161.5t-60.5 -126t-74.5 -104.5t-68 -99q-14 -25 -19 -49.5t-5 -46.5q0 -49 11 -87t1 -51q-6 -8 -24.5 -13t-40 -6t-44 -1t-41.5 4q-8 18 -16 41q-6 20 -10 46t-4 58q0 35 7 72t30 76 q33 61 68.5 111.5t66 96.5t50 94t19.5 105q0 47 -14 78t-36.5 48.5t-53.5 24.5t-64 7q-68 0 -109.5 -19.5t-60.5 -31.5q-10 31 -17 62.5t-7 68.5zM152 104q0 47 30.5 83t83.5 36q63 0 89 -32.5t26 -86.5q0 -49 -31 -82.5t-84 -33.5q-66 0 -90 30.5t-24 85.5z" />
<glyph unicode="@" horiz-adv-x="1511" d="M96 541q0 227 51.5 390t144.5 266t224 151.5t291 48.5q150 0 264.5 -35t191 -113t116.5 -203.5t40 -310.5q0 -168 -16.5 -286.5t-44 -200.5t-61 -130t-70.5 -74t-73 -33t-64 -7q-41 0 -72 13.5t-53 33.5q-23 -18 -79.5 -33.5t-144.5 -15.5q-55 0 -102 9t-81 43 t-53.5 96.5t-19.5 166.5q2 98 23.5 163t56.5 103t82 53t98 15q29 0 62 -4t57 -18q0 20 2 43q0 18 1 39.5t1 42.5q4 70 -29.5 94t-93.5 24q-66 0 -111.5 -12t-92.5 -39q-12 23 -15.5 53.5t-3.5 43.5q2 25 19 40q29 16 91 35t169 19q113 0 170 -50.5t55 -187.5l-10 -412 q-2 -66 -4 -115.5t-6 -86.5q31 -12 65 -13q29 0 59.5 28t57 92.5t43 167.5t16.5 257q0 156 -21.5 262.5t-73.5 172t-137 94t-212 28.5q-131 0 -231.5 -35.5t-168 -119.5t-102.5 -224.5t-35 -351.5q0 -231 32 -375.5t93.5 -227.5t152.5 -112.5t210 -29.5q162 0 273.5 24.5 t203.5 63.5q20 -27 32.5 -58.5t12.5 -60.5q0 -23 -35 -46.5t-100.5 -42t-159.5 -30.5t-213 -12q-141 0 -264 27.5t-213 123t-142.5 280.5t-52.5 499zM643 311q-2 -111 26.5 -147.5t84.5 -36.5q41 0 70.5 22.5t31.5 86.5l8 292q-10 2 -29.5 4.5t-41.5 2.5q-33 0 -59.5 -10.5 t-47 -35t-32 -67.5t-11.5 -111z" />
<glyph unicode="A" horiz-adv-x="894" d="M10 2l365 1409q6 29 63 29q47 0 78 -6l367 -1403q4 -16 -9.5 -25.5t-62.5 -9.5h-43t-55 4l-88 365h-353l-79 -336q-4 -16 -16.5 -24.5t-61.5 -8.5q-16 0 -46 1t-59 5zM307 516h283l-70 291q-12 51 -23.5 104.5t-20.5 105.5t-16 99t-11 84q-4 -37 -12.5 -84t-17.5 -98 t-19.5 -105.5t-22.5 -105.5z" />
<glyph unicode="B" horiz-adv-x="770" d="M88 0v1395q0 18 11.5 28.5t43.5 10.5h203q61 0 122.5 -12.5t111 -47.5t80 -97.5t30.5 -160.5q0 -84 -18.5 -144.5t-47 -100.5t-63.5 -60t-67 -25q35 -2 76.5 -14t78.5 -45t61.5 -90t24.5 -150q0 -129 -30.5 -221t-84 -151.5t-124 -87t-150.5 -27.5h-258zM258 145h92 q39 0 73 18.5t60.5 58.5t42 101.5t15.5 149.5q0 80 -14.5 126t-39 69.5t-59.5 30t-76 6.5h-94v-560zM258 848h100q66 0 108 56.5t42 178.5q0 63 -12.5 102.5t-34 62t-49 30.5t-56.5 8h-98v-438z" />
<glyph unicode="C" horiz-adv-x="694" d="M63 657q0 262 38 421t96.5 244t130 108.5t139.5 23.5q57 0 94 -10t58.5 -26.5t30.5 -36t9 -40.5q0 -29 -8 -55t-18 -45q-16 14 -51 32.5t-82 18.5q-49 0 -95.5 -22.5t-83 -88t-59 -189.5t-22.5 -326q0 -156 15 -255.5t42 -155.5t64.5 -73.5t82.5 -17.5q59 0 109.5 20.5 t79.5 42.5q10 -20 17 -46.5t7 -53.5q0 -59 -69.5 -103t-184.5 -44q-15 -1 -30 -1q-57 0 -105 18q-61 23 -107 95t-72 207t-26 358z" />
<glyph unicode="D" horiz-adv-x="804" d="M90 0v1395q0 18 10.5 28.5t44.5 10.5h199q100 0 176 -31t126 -104.5t74.5 -197.5t24.5 -310q0 -225 -26.5 -377t-77.5 -244t-126 -131t-169 -39h-256zM256 158h92q39 0 77 21.5t66.5 90t46 196.5t17.5 341q0 141 -12.5 233.5t-38 145.5t-64.5 73.5t-90 20.5h-94v-1122z " />
<glyph unicode="E" horiz-adv-x="655" d="M90 0v1399q0 8 4 16q4 6 11.5 12.5t19.5 6.5h489v-81t-3 -45.5t-9 -19.5t-18 -4h-326v-428h307v-77.5t-3 -47t-9 -23t-18 -6.5h-277v-552h350q0 -53 -1 -83t-4 -44.5t-9 -18.5t-19 -4h-485z" />
<glyph unicode="F" horiz-adv-x="638" d="M90 0v1399q0 8 4 16q4 6 11.5 12.5t19.5 6.5h489v-80t-3 -43.5t-9 -17.5t-18 -3h-326v-434h307q0 -94 -4 -122.5t-26 -28.5h-277v-672q0 -8 -4 -17q-8 -16 -29 -16h-135z" />
<glyph unicode="G" horiz-adv-x="788" d="M55 684q0 240 31 390.5t87 234.5t137.5 113.5t183.5 29.5q104 0 161.5 -30.5t57.5 -71.5q0 -29 -6.5 -55.5t-16.5 -49.5q-27 23 -68.5 36t-93.5 13q-78 0 -134 -29.5t-92 -98t-52.5 -184.5t-16.5 -288q0 -182 14.5 -290.5t41 -167t66.5 -76t89 -17.5q53 0 82 18.5 t37 31.5v507h-149v107q0 35 39 35h268l-2 -770q-35 -31 -103.5 -60.5t-175.5 -29.5q-102 0 -176 28.5t-120 106.5t-67.5 215t-21.5 352z" />
<glyph unicode="H" horiz-adv-x="837" d="M90 0v1399q0 12 2 19t17.5 10.5t49.5 4.5t97 1v-584h326v549q0 12 2 19t17 10.5t49 4.5t98 1v-1401q0 -12 -2.5 -19.5t-17.5 -10.5t-49 -3h-97v696h-326v-663q0 -12 -2 -19.5t-17.5 -10.5t-49 -3h-97.5z" />
<glyph unicode="I" horiz-adv-x="344" d="M88 0v1358q0 29 3 44t18.5 22.5t50.5 8.5t96 1v-1401q0 -12 -3 -19.5t-18.5 -10.5t-50 -3h-96.5z" />
<glyph unicode="J" horiz-adv-x="626" d="M41 102q0 33 9 55.5t18 39.5q29 -27 72.5 -47.5t95.5 -20.5q45 0 71.5 16.5t39.5 47t17.5 76.5t4.5 106v983q0 29 3 44t18.5 22.5t50 8.5t98.5 1v-1096q0 -76 -12.5 -141.5t-44 -112.5t-86 -74.5t-138.5 -27.5q-63 0 -105 10t-67 27.5t-35 39t-10 43.5z" />
<glyph unicode="K" horiz-adv-x="804" d="M86 0v1399q0 12 3 19t18.5 10.5t49 4.5t97.5 1v-619l326 608q29 6 56.5 9.5t49.5 3.5q73 0 73 -31q0 -8 -5 -19l-330 -571q123 -92 205 -287.5t123 -490.5q2 -23 -11.5 -32t-56.5 -9q-55 0 -117 6q-45 240 -94 397.5t-135 251.5q-18 18 -40 31.5t-44 24.5v-674 q0 -12 -3 -19.5t-18.5 -10.5t-49 -3h-97.5z" />
<glyph unicode="L" horiz-adv-x="649" d="M88 0v1386q0 18 3 27.5t19.5 14t50.5 5.5t95 1v-1278h352v-123q0 -20 -9 -26.5t-26 -6.5h-485z" />
<glyph unicode="M" horiz-adv-x="1001" d="M88 0v1399q0 25 10.5 30t24.5 5h121l194 -619q8 -31 19.5 -67.5t20.5 -71.5t16.5 -59.5t9.5 -30.5q0 2 6 27.5t15.5 59.5t18.5 70.5t19 65.5l180 590q4 16 10.5 25.5t22.5 9.5h135v-1401q0 -12 -3 -19.5t-18.5 -10.5t-50 -3h-98.5l7 498q2 74 7 168t11 183t11 158.5 t7 94.5q-16 -57 -36.5 -130t-39 -139.5t-34 -118.5t-21.5 -71l-108 -311q-4 -10 -10.5 -13.5t-12.5 -3.5h-71l-107 328q-6 16 -21.5 68.5t-35 120t-40 141.5t-36.5 133v-2q10 -109 18 -217q8 -92 13.5 -195.5t7.5 -185.5l4 -473q0 -12 -4 -19.5t-20.5 -10.5t-50.5 -3h-91z " />
<glyph unicode="N" horiz-adv-x="909" d="M88 0v1399q0 35 35 35h127l229 -553q14 -41 40 -114t54.5 -157t55 -167t45.5 -140v6q-6 45 -9 133t-6.5 181.5t-4.5 175.5t-1 119v481q0 12 3 19t19.5 10.5t50.5 4.5t95 1v-1401q0 -33 -35 -33h-124l-234 563q-14 35 -38.5 107.5t-53.5 157.5t-56.5 170t-46.5 145 q4 -49 8.5 -139.5t7.5 -184.5t4 -175t1 -114v-497q0 -12 -3 -19.5t-18.5 -10.5t-49 -3h-95.5z" />
<glyph unicode="O" horiz-adv-x="876" d="M61 725q0 205 24 344t73 224t122.5 122t172.5 37q100 0 169.5 -35t112.5 -117.5t62.5 -222t19.5 -346.5q0 -211 -22.5 -354.5t-69.5 -231.5t-121 -125.5t-174 -37.5q-98 0 -169 32.5t-115 117.5t-64.5 228.5t-20.5 364.5zM248 684q0 -143 9 -243.5t31.5 -165t58.5 -94 t91 -29.5t93 30.5t61.5 100t34 178t10.5 266.5q0 154 -9.5 259.5t-31 172t-57 95t-90.5 28.5q-53 0 -91.5 -31.5t-63 -102.5t-35.5 -184.5t-11 -279.5z" />
<glyph unicode="P" horiz-adv-x="737" d="M88 0v1399q0 35 35 35h203q195 0 285.5 -95.5t90.5 -310.5q0 -127 -29.5 -212t-81.5 -137t-121 -74.5t-144 -22.5h-72v-549q0 -12 -3 -19.5t-18.5 -10.5t-49 -3h-95.5zM254 735h90q86 0 130 71t44 241q0 109 -36 175t-126 66h-102v-553z" />
<glyph unicode="Q" horiz-adv-x="876" d="M61 725q0 205 24 344t73 224t122.5 122t172.5 37q100 0 169.5 -35t112.5 -117.5t62.5 -222t19.5 -346.5q0 -168 -14.5 -293t-43 -213t-74.5 -141t-107 -78q14 -82 38.5 -115.5t71.5 -33.5q31 0 64.5 7t62.5 27q12 -18 18.5 -44.5t6.5 -45.5q0 -25 -19.5 -41t-47.5 -25 t-59.5 -12.5t-58.5 -3.5q-106 0 -169.5 62.5t-98.5 202.5q-88 6 -149.5 44t-100.5 123t-57.5 225t-18.5 349zM248 684q0 -143 9 -243.5t31.5 -165t58.5 -94t91 -29.5t93 30.5t61.5 100t34 178t10.5 266.5q0 154 -9.5 259.5t-31 172t-57 95t-90.5 28.5q-53 0 -91.5 -31.5 t-63 -102.5t-35.5 -184.5t-11 -279.5z" />
<glyph unicode="R" horiz-adv-x="763" d="M88 0v1399q0 8 4 16q4 6 10.5 12.5t20.5 6.5h203q195 0 285.5 -95.5t90.5 -310.5q0 -166 -49 -261t-129 -140q25 -31 54.5 -82t58.5 -123t50.5 -168t29.5 -217q0 -23 -12.5 -32t-71.5 -9q-20 0 -45 1t-53 3q-8 129 -29 227.5t-45.5 169t-50 116.5t-43.5 71 q-10 -2 -20.5 -2h-20.5h-72v-549q0 -12 -3 -19.5t-18.5 -10.5t-49 -3h-95.5zM254 735h90q86 0 130 68.5t44 232.5q0 117 -34.5 184.5t-127.5 67.5h-102v-553z" />
<glyph unicode="S" horiz-adv-x="733" d="M51 102q0 25 10.5 58t32.5 61q33 -29 85 -50t126 -21q111 0 156 57t45 151q0 70 -25.5 129.5t-93.5 137.5l-207 239q-70 86 -98.5 154.5t-28.5 140.5q0 129 89.5 212t263.5 83q147 0 207.5 -29.5t60.5 -72.5q0 -23 -9.5 -48.5t-31.5 -48.5q-23 16 -76 34t-125 18 q-92 0 -145.5 -38t-53.5 -104q0 -57 24 -102t71 -100l221 -252q39 -47 65.5 -89t43 -84t22.5 -84t6 -89q0 -78 -18.5 -148t-60.5 -123t-112.5 -83.5t-175.5 -30.5q-139 0 -203.5 39.5t-64.5 82.5z" />
<glyph unicode="T" horiz-adv-x="763" d="M16 1278v121q0 35 35 35h697v-123q0 -33 -35 -33h-252v-1245q0 -12 -3 -19.5t-18.5 -10.5t-49.5 -3h-95v1278h-279z" />
<glyph unicode="U" horiz-adv-x="894" d="M88 418v981q0 12 3 19t18.5 10.5t50.5 4.5t100 1v-1020q0 -61 6 -113.5t27.5 -89.5t59.5 -57.5t104 -20.5q53 0 103 11.5t77 25.5v1229q0 12 3 19t18.5 10.5t50 4.5t96.5 1v-1381q-39 -25 -132 -49t-216 -24t-196 34.5t-111.5 95t-50 139.5t-11.5 169z" />
<glyph unicode="V" horiz-adv-x="860" d="M12 1422.5q4 11.5 39 11.5h135l170 -793q27 -137 46.5 -269t35.5 -231q12 98 30.5 231.5t43.5 268.5l152 743q4 25 12 37.5t31 12.5h145l-315 -1440q-35 -4 -64 -6t-76 -2q-41 0 -63.5 32.5t-34.5 85.5q-16 61 -36.5 150.5t-43 191t-47.5 211t-47 213.5q-54 246 -111 514 q-6 27 -2 38.5z" />
<glyph unicode="W" horiz-adv-x="1341" d="M14 1384q-4 25 1 37.5t34 12.5h137l148 -793q25 -137 38 -249.5t23 -211.5h13q4 123 18 236.5t35 224.5l125 674q4 27 11 38t32 11h119l143 -723q27 -139 39 -249.5t22 -209.5h13q8 98 20 220t31 239l131 743q4 25 12 37.5t31 12.5h141l-268 -1440q-23 -2 -38 -4 t-29.5 -3t-31 -2t-40.5 -1q-37 0 -58.5 31.5t-31.5 84.5l-105 459q-8 41 -17.5 99.5t-17.5 123t-15 128t-13 116.5q-6 -53 -14.5 -116.5t-15.5 -127t-15.5 -122t-14.5 -99.5l-112 -567q-39 -4 -69 -6t-83 -2q-33 0 -53.5 34.5t-30.5 92.5q-14 63 -31.5 151t-38 189.5 t-41 210t-38.5 213.5q-46 241 -95 507z" />
<glyph unicode="X" horiz-adv-x="868" d="M18 0l312 741l-256 664q-4 10 -1 16t22.5 9.5t60.5 3.5h114l82 -232q33 -88 58.5 -171t42.5 -136q16 51 41.5 134t60.5 173l78 205q2 10 6 15t21.5 8.5t52.5 3.5h100l-264 -680l293 -725q16 -29 -17 -29h-182l-111 276q-33 82 -61.5 163t-46.5 136q-18 -53 -48 -134 t-65 -165l-110 -256q-12 -20 -39 -20h-144z" />
<glyph unicode="Y" horiz-adv-x="745" d="M10 1422q2 5 20.5 8.5t58.5 3.5h112l82 -281q14 -49 31.5 -113.5t31.5 -127t24.5 -113.5t12.5 -74q2 23 13.5 74t25.5 113.5t31.5 127t31.5 113.5l72 250q4 12 8 18t21.5 9.5t52.5 3.5h98l-276 -842v-559q0 -12 -2 -19.5t-17.5 -10.5t-49.5 -3h-97v580l-283 827 q-4 10 -2 15z" />
<glyph unicode="Z" horiz-adv-x="788" d="M31 66q0 35 16 73l514 1145h-381q-29 0 -52.5 -1t-37.5 -5v121q0 35 35 35h612q8 -12 12.5 -23.5t4.5 -32.5q0 -41 -17 -73l-522 -1155h395q35 0 66 2t55 12v-131q0 -14 -6 -23.5t-29 -9.5h-639q-10 10 -18 26.5t-8 39.5z" />
<glyph unicode="[" horiz-adv-x="788" d="M248 -408v2038q0 16 2 26.5t14 15.5t38 7t73 2h395q0 -51 -1 -80.5t-6 -46t-16.5 -21.5t-31.5 -5h-299v-1780h352q0 -57 -2 -89t-8 -46t-16.5 -17.5t-28.5 -3.5h-465z" />
<glyph unicode="\" horiz-adv-x="675" d="M21 1545q2 9 18 14.5t51 6.5t96 1l465 -1587q4 -14 2 -22.5t-19.5 -12.5t-52 -5t-96.5 -1l-460 1583q-6 14 -4 23z" />
<glyph unicode="]" horiz-adv-x="788" d="M18 -410q0 51 1 81t6.5 46.5t16.5 21.5t32 5h299v1784h-353q0 57 2.5 89t8.5 46t16 17t29 3h465v-2041q0 -16 -2 -26.5t-14.5 -16t-39 -7.5t-73.5 -2h-394z" />
<glyph unicode="^" horiz-adv-x="880" d="M98 512l355 303l297 -260q29 -27 28 -55q0 -29 -22.5 -51.5t-57.5 -26.5l-264 178l-209 -154q-20 -12 -30.5 -16t-20.5 -4q-35 0 -54.5 26.5t-21.5 59.5z" />
<glyph unicode="_" horiz-adv-x="772" d="M27 -223q0 78 4 111.5t30 33.5h682q0 -78 -4 -111.5t-28 -33.5h-684z" />
<glyph unicode="`" horiz-adv-x="350" d="M0 1376q2 18 9 41t17.5 41.5t23.5 31.5t28 13q6 0 43 -28.5t82 -68.5t88 -81t59 -63q-8 -27 -16 -48q-8 -16 -20.5 -30.5t-26.5 -14.5q-6 0 -47 27t-90.5 62.5t-93.5 69.5t-56 48z" />
<glyph unicode="a" horiz-adv-x="724" d="M59 291q0 106 23.5 171.5t61.5 102.5t87.5 49.5t100.5 12.5q35 0 77 -5.5t72 -21.5v162q0 72 -32.5 96.5t-94.5 24.5q-78 0 -151.5 -13.5t-118.5 -31.5q-14 25 -18.5 50.5t-4.5 43.5q0 16 5.5 31.5t17.5 25.5q27 16 111 35.5t200 19.5q133 0 193.5 -55t60.5 -194v-109 v-177t-2 -172t-4 -157t-6 -131q-41 -25 -112.5 -47t-172.5 -22q-55 0 -108.5 8t-94 40.5t-65.5 95t-25 167.5zM233 295q0 -55 9.5 -90t27 -54.5t42 -25.5t55.5 -6q35 0 64.5 10t43.5 25q2 25 3 64.5t2 84.5t1 92v88q-20 10 -46.5 14.5t-49.5 4.5q-31 0 -58.5 -7.5t-48 -30 t-33 -62.5t-12.5 -107z" />
<glyph unicode="b" horiz-adv-x="784" d="M96 41v1386q0 29 6.5 45.5t24.5 23.5t51 8t84 1v-532q41 35 94.5 53t124.5 18q61 0 108.5 -21.5t78 -68.5t47 -123.5t16.5 -189.5q0 -221 -38 -352t-96 -200t-128 -89t-133 -20q-162 0 -240 61zM262 154q14 -10 38 -18.5t58 -8.5q27 0 60 16.5t60.5 66.5t47 144.5 t19.5 249.5q0 164 -35 227.5t-104 63.5q-80 0 -144 -57v-684z" />
<glyph unicode="c" horiz-adv-x="641" d="M63 489q0 184 34 294t87.5 168.5t119 75.5t128.5 17q72 0 121 -25.5t49 -66.5q0 -16 -4 -40.5t-14 -51.5q-25 14 -64 25.5t-80 11.5q-37 0 -72.5 -12.5t-64.5 -54.5t-47 -122.5t-18 -218.5q0 -109 11 -178t33.5 -110t56.5 -57.5t81 -16.5q49 0 92 15.5t70 31.5 q8 -29 12 -49.5t4 -40.5q0 -41 -63.5 -72.5t-165.5 -31.5q-74 0 -130.5 18t-95.5 73.5t-59.5 156t-20.5 261.5z" />
<glyph unicode="d" horiz-adv-x="790" d="M66 475q0 152 24.5 260.5t67.5 177t100 100t123 31.5q92 0 145 -40v426q0 29 7.5 44t26 22t50 8t82.5 1v-1464q-51 -25 -123.5 -43t-169.5 -18q-68 0 -128 15t-106 66.5t-72.5 149.5t-26.5 264zM252 494q0 -115 10 -186.5t30.5 -111.5t48.5 -53.5t65 -13.5q35 0 65.5 7 t54.5 24v712q-20 16 -40.5 21.5t-53.5 5.5q-35 0 -66.5 -16.5t-57 -60.5t-41 -124t-15.5 -204z" />
<glyph unicode="e" horiz-adv-x="739" d="M63 459q0 193 32 308.5t82 177t115.5 80.5t133.5 19q260 0 260 -329q0 -68 -5 -139.5t-17 -126.5q-53 -10 -112.5 -16.5t-118 -10.5t-110 -5t-87.5 -1q2 -82 15 -135.5t35.5 -84t57.5 -43t82 -12.5q61 0 120.5 17.5t112.5 46.5q8 -23 11.5 -55.5t3.5 -57.5t-22.5 -45 t-61.5 -35.5t-90 -23.5t-109 -8q-72 0 -132 18t-103 70.5t-68 146.5t-25 244zM238 551h65.5t74.5 3t73.5 7t62.5 12q6 29 8 62t2 61q-2 111 -26 157t-90 46q-31 0 -60 -15.5t-52.5 -55.5t-38.5 -106.5t-19 -170.5z" />
<glyph unicode="f" horiz-adv-x="522" d="M25 883q0 49 1 77.5t5 42t12 17.5t25 4h98v123q0 119 31.5 191.5t82 111.5t111 51t119.5 12q94 0 142 -22.5t48 -60.5q0 -23 -4 -46.5t-14 -46.5q-37 16 -74 20.5t-71 4.5q-41 0 -78 -6t-64.5 -27.5t-45 -61.5t-17.5 -106v-137h184q0 -49 -1 -77.5t-4 -42t-10 -17.5 t-20 -4h-149v-850q0 -4 -5 -18.5t-28 -14.5h-133v883h-141z" />
<glyph unicode="g" horiz-adv-x="804" d="M45 -180q0 76 45 138t111 108q-59 16 -93 44q-32 25 -32 63q0 43 36 94q35 48 95 95q-72 47 -99.5 128t-27.5 180q0 102 24.5 173.5t69.5 116t107.5 64.5t138.5 20q20 0 48 -4t54 -12h246q6 -10 11 -30.5t5 -49.5q0 -63 -57 -63q-29 0 -74 10q35 -35 56.5 -90t21.5 -131 q0 -164 -76.5 -261.5t-255.5 -97.5q-57 0 -92 9q-20 -20 -36.5 -45t-16.5 -46q0 -14 18.5 -23t51 -15.5t76.5 -12.5t96 -12q61 -10 110 -25.5t85 -43t55.5 -68.5t19.5 -103q0 -66 -22.5 -126t-70.5 -106t-123 -73.5t-177 -27.5t-167 19t-100.5 52t-48 72t-12.5 80zM217 -141 q0 -25 7 -44.5t25.5 -33.5t52.5 -22.5t87 -8.5q55 0 94 14.5t64.5 38t38 51t12.5 54.5q0 35 -11.5 57.5t-38 37.5t-71 23.5t-112.5 12.5q-10 0 -18.5 1t-18.5 3q-45 -35 -78 -84t-33 -100zM256 674q0 -55 6 -98.5t22.5 -73t46 -45t77.5 -15.5q82 0 118.5 68t36.5 203 q0 113 -37.5 161t-111.5 48q-66 0 -112 -56.5t-46 -191.5z" />
<glyph unicode="h" horiz-adv-x="778" d="M92 0v1430q0 29 6 44t24.5 22t51.5 8t84 1v-540q47 41 108.5 60t120.5 19q66 0 108 -18t65.5 -52t31.5 -85t8 -115v-741q0 -12 -4 -19.5t-20.5 -10.5t-51 -3h-96.5v727q0 33 -4 63.5t-16 52t-35.5 35t-60.5 13.5q-35 0 -76 -12.5t-78 -44.5v-801q0 -12 -3 -19.5 t-18.5 -10.5t-49 -3h-95.5z" />
<glyph unicode="i" horiz-adv-x="358" d="M94 0v948q0 29 7.5 44.5t26.5 22.5t52 8t84 1v-991q0 -12 -3 -19.5t-19.5 -10.5t-50 -3h-97.5zM96 1350q2 55 24.5 89t71.5 34q48 0 66 -27q17 -24 16 -80v-12q0 -63 -23.5 -98t-70.5 -35q-41 0 -62.5 28.5t-21.5 100.5z" />
<glyph unicode="j" horiz-adv-x="376" d="M-209 -293q0 23 5 45.5t20 40.5q70 -41 172 -41q78 0 100.5 46t22.5 155v995q0 29 7 44.5t25.5 22.5t50 8t82.5 1v-1098q0 -68 -11 -127t-39.5 -104t-82 -70.5t-135.5 -25.5q-115 0 -166 29.5t-51 78.5zM106 1350q2 55 24.5 89t71.5 34q47 0 66 -27q16 -24 16 -80v-12 q0 -63 -23.5 -98t-70.5 -35q-41 0 -62.5 28.5t-21.5 100.5z" />
<glyph unicode="k" horiz-adv-x="780" d="M94 0v1430q0 29 7.5 44t25.5 22t51 8t84 1v-555q51 43 121 68.5t135 25.5q51 0 84 -14t53.5 -38.5t28.5 -56.5t8 -67q0 -63 -19.5 -115.5t-46 -92t-56 -67.5t-48.5 -42q74 -33 132.5 -119t70.5 -227q2 -16 2 -32.5v-35.5q0 -49 -6 -104q-2 -12 -5 -19.5t-21.5 -10.5 t-55.5 -3h-107q4 35 6.5 67.5t2.5 63.5q0 35 -3 63.5t-8 57.5q-18 123 -68 173q-40 40 -87 40q-11 0 -23 -2q-14 -4 -29.5 -10.5t-29.5 -12.5q-16 -8 -31 -16v-391q0 -12 -2 -19.5t-17.5 -10.5t-50 -3h-98.5zM262 543q106 43 176 107.5t70 160.5q0 84 -76 84 q-41 0 -85 -24.5t-85 -73.5v-254z" />
<glyph unicode="l" horiz-adv-x="354" d="M94 0v1430q0 29 7.5 44t25.5 22t51 8t82 1v-1472q0 -12 -3 -19.5t-18.5 -10.5t-49 -3h-95.5z" />
<glyph unicode="m" horiz-adv-x="1153" d="M94 0v977q68 31 145.5 49t163.5 18q66 0 111 -16t74 -47q53 29 120.5 46t131.5 17q76 0 122 -19t69.5 -56t30.5 -90.5t7 -122.5v-723q0 -12 -3 -19.5t-19.5 -10.5t-50 -3h-93.5v758q0 74 -19.5 106.5t-80.5 32.5q-35 0 -69 -8t-68 -31v-825q0 -12 -2 -19.5t-17.5 -10.5 t-49.5 -3h-97v797q-2 55 -20.5 78.5t-80.5 23.5q-72 0 -139 -35v-831q0 -12 -3 -19.5t-19.5 -10.5t-50 -3h-93.5z" />
<glyph unicode="n" horiz-adv-x="782" d="M92 0v975q31 12 70 25.5t82 22.5t87 15t85 6q162 0 225.5 -62t63.5 -212v-737q0 -12 -3.5 -19.5t-19.5 -10.5t-51 -3h-99v721q0 98 -22.5 138t-99.5 40q-33 0 -75 -9t-77 -28v-829q0 -12 -3 -19.5t-19.5 -10.5t-49 -3h-94.5z" />
<glyph unicode="o" horiz-adv-x="753" d="M49 512q0 281 89 406.5t251 125.5q80 0 140.5 -23.5t99.5 -83.5t58.5 -161.5t19.5 -257.5q0 -287 -86 -412.5t-250 -125.5q-80 0 -139.5 18t-100.5 74.5t-61.5 162t-20.5 277.5zM229 508q0 -127 9.5 -203t28 -117t46 -54t62.5 -13q33 0 60.5 16.5t48 61.5t31.5 120.5 t11 196.5q0 123 -9 197.5t-26.5 115.5t-44 55.5t-63.5 14.5q-35 0 -62.5 -16.5t-48 -59.5t-32 -119.5t-11.5 -195.5z" />
<glyph unicode="p" horiz-adv-x="784" d="M94 -332v1295q127 81 295 81h4q76 0 137.5 -19t105.5 -67.5t67.5 -131.5t23.5 -208q0 -207 -27.5 -332.5t-72.5 -193t-99.5 -90t-105.5 -22.5q-57 0 -98 17t-64 40v-426q-20 -8 -42.5 -11t-43.5 -3q-43 0 -61.5 15t-18.5 56zM260 197q23 -35 51.5 -51.5t59.5 -16.5 q25 0 54.5 13.5t55 62.5t44 142t18.5 253q0 92 -10.5 149.5t-30 91t-49 46t-68.5 12.5q-70 0 -125 -39v-663z" />
<glyph unicode="q" horiz-adv-x="798" d="M63 446q0 170 33 285t90.5 184.5t134 99t162.5 29.5q72 0 122 -15t97 -48v-1315q0 -25 -3 -38t-14 -20t-30.5 -10.5t-50.5 -3.5q-37 0 -69 7v469q-61 -90 -195 -90q-49 0 -98 16t-89 66.5t-65 141.5t-25 242zM252 451q0 -104 13.5 -168t35 -98.5t48 -47t52.5 -12.5 q41 0 77 25.5t57 78.5v641q-33 29 -95 29q-45 0 -79.5 -22.5t-59.5 -75.5t-37 -139.5t-12 -210.5z" />
<glyph unicode="r" horiz-adv-x="538" d="M92 0v952q59 41 131 66.5t148 25.5q78 0 110.5 -22.5t32.5 -63.5q0 -16 -4 -43.5t-14 -54.5q-47 25 -99 25q-35 0 -70.5 -11.5t-64.5 -35.5l-2 -805q0 -12 -3 -19.5t-18.5 -10.5t-50 -3h-96.5z" />
<glyph unicode="s" horiz-adv-x="706" d="M61 84q0 18 6.5 43t22.5 53q88 -51 205 -51q78 0 122 33t44 94q0 41 -17.5 80t-64.5 80l-199 170q-70 57 -93.5 111.5t-23.5 105.5q0 106 81 173.5t253 67.5q80 0 130.5 -12t79 -29.5t38.5 -38t10 -34.5q0 -43 -37 -84q-88 53 -200 53q-72 0 -117 -25.5t-45 -72.5 q0 -29 14.5 -56.5t67.5 -70.5l190 -154q66 -66 93.5 -122t27.5 -134q0 -137 -90 -210.5t-248 -73.5q-111 0 -180.5 25.5t-69.5 78.5z" />
<glyph unicode="t" horiz-adv-x="595" d="M37 881q0 47 1 75.5t4 44t11 19.5t21 4h102v311q0 20 7 32.5t25.5 18t51.5 6.5t84 1v-369h209q0 -49 -1 -76.5t-4 -43t-9.5 -19.5t-18.5 -4h-176v-596q0 -33 1 -62.5t8 -51t21.5 -35t43.5 -13.5q35 0 61.5 7t57.5 24q4 -16 8 -37t4 -45q0 -29 -16.5 -46.5t-42 -27.5 t-56.5 -14t-61 -4q-66 0 -105 21.5t-59.5 61t-26.5 96t-6 126.5v596h-139z" />
<glyph unicode="u" horiz-adv-x="798" d="M90 319v670q0 12 3 19.5t18.5 10.5t50.5 4t100 1v-719q0 -100 26.5 -140t110.5 -40q29 0 67 7t71 30v827q0 12 3 19.5t18 10.5t49 4t95 1v-971q-59 -33 -140 -53t-165 -20q-92 0 -151.5 20t-94 63t-48 106.5t-13.5 149.5z" />
<glyph unicode="v" horiz-adv-x="704" d="M35 1002.5q2 11.5 19.5 15.5t55 5t105.5 1l66 -328q16 -80 30.5 -171t24.5 -169q12 -90 24 -178h5q10 90 22 180q10 78 23.5 168t29.5 172l56 289q2 14 6 21.5t21.5 10.5t51 4t97.5 1l-236 -1030q-23 -4 -59.5 -5t-57.5 -1q-29 0 -46 28.5t-27 71.5l-209 885 q-4 18 -2 29.5z" />
<glyph unicode="w" horiz-adv-x="1105" d="M31 989q-2 12 2 19.5t22.5 10.5t55 4t102.5 1l61 -334q16 -86 28.5 -174t23.5 -160q10 -84 20 -163h12q4 27 10.5 70.5t13.5 96t15.5 106.5t18.5 101l63 394q4 23 13.5 28.5t42.5 5.5h108l80 -430q12 -59 23.5 -123.5t21.5 -119.5q10 -66 18 -129h11q2 45 9 105t15 128 t18.5 135.5t20.5 128.5l53 297q2 14 6.5 21.5t19.5 10.5t48 4t90 1q-61 -289 -108 -516q-20 -96 -40 -189.5t-35 -165t-25.5 -115.5t-12.5 -44q-10 -2 -27 -4q-14 -2 -33.5 -2h-45.5q-23 0 -50.5 25.5t-37.5 80.5l-27 137q-12 63 -24.5 133t-21.5 137.5t-16.5 129 t-11.5 108.5q-6 -47 -13 -109.5t-16.5 -130t-20.5 -136t-24 -132.5l-47 -237q-25 -2 -49 -4q-23 -2 -46 -2h-44q-29 0 -45 28.5t-27 71.5q-10 47 -24.5 110.5t-30.5 135.5t-32.5 148.5t-32.5 150.5q-37 172 -78 356z" />
<glyph unicode="x" horiz-adv-x="839" d="M31 0l288 535l-247 462q-6 10 -5 15.5t17 8.5t54 3h108l76 -139q14 -29 30.5 -63t30.5 -65.5t26.5 -59t20.5 -46.5q8 18 20.5 45t28 59.5t31.5 65.5t33 64l61 110q6 10 11.5 16.5t22.5 9.5t52 3h101l-263 -479l273 -506q6 -16 7 -23.5t-16.5 -11.5t-58.5 -4h-117l-75 133 q-18 33 -37 71t-37 74.5t-33.5 70.5t-25.5 59q-10 -25 -25.5 -59t-32 -70.5t-35 -74.5t-36.5 -71l-58 -100q-6 -12 -14 -19.5t-28.5 -10.5t-55.5 -3h-92z" />
<glyph unicode="y" horiz-adv-x="729" d="M-8 -315q0 23 6 50t18 44q20 -14 57.5 -23.5t71.5 -9.5q47 0 87 47t63 174l-246 1012q-4 16 -4 25.5t15.5 13.5t50 5t100.5 1l111 -487q12 -57 21 -117t16.5 -111t11.5 -88t6 -47q0 6 4 42t10 87t15.5 113.5t19.5 122.5l90 436q2 18 7 28.5t22.5 14.5t52.5 5t98 1 l-252 -1079q-23 -98 -49 -163t-60 -104.5t-78 -56t-99 -16.5q-92 0 -129 22.5t-37 57.5z" />
<glyph unicode="z" horiz-adv-x="684" d="M41 82q0 33 14 63l398 738h-209q-59 0 -106.5 -3t-80.5 -8q-4 29 -5 48.5t-1 31.5q0 72 53 72h521q4 -4 8 -12q4 -6 7 -16.5t3 -22.5q0 -14 -4 -33.5t-16 -48.5l-385 -737h180q86 0 135 7t80 15q4 -14 5 -36.5t1 -37.5q-2 -53 -14.5 -77.5t-53.5 -24.5h-501q-8 6 -15 18 q-14 20 -14 64z" />
<glyph unicode="{" horiz-adv-x="565" d="M84 600q0 29 9 50.5t26 33.5q18 12 35.5 24.5t30 32t19.5 51t7 82.5q0 111 -14.5 213.5t-14.5 194.5q0 63 23.5 109.5t65.5 75t100.5 43t128.5 14.5q16 -23 23 -50.5t7 -52.5q0 -53 -28 -59q-74 -6 -112 -45t-38 -119q0 -76 10.5 -170t10.5 -205q0 -100 -31 -143t-80 -66 q53 -20 82 -61t29 -133q0 -111 -10.5 -202t-10.5 -173q0 -59 10.5 -95t31 -57.5t51 -30.5t71.5 -16q6 -41 6 -63q0 -41 -14 -65.5t-43 -24.5q-154 0 -218.5 69.5t-64.5 206.5q0 53 4 101.5t10.5 96.5t10.5 98t4 108q0 82 -29.5 115.5t-85.5 43.5q-8 16 -10 35t-2 33z" />
<glyph unicode="|" horiz-adv-x="661" d="M248 -410v2034q0 16 3 25.5t18.5 13.5t50 5t96.5 1v-2038q0 -16 -3 -24t-19.5 -11.5t-50.5 -4.5t-95 -1z" />
<glyph unicode="}" horiz-adv-x="565" d="M37 -203q0 51 31 58q72 6 109.5 45t37.5 118q0 76 -10 169.5t-10 203.5q0 102 29.5 146.5t78.5 64.5q-51 20 -79.5 61.5t-28.5 133.5q0 111 10 202t10 172q0 57 -10 94.5t-31.5 59t-52.5 30.5t-70 15q-8 35 -8 64q0 41 16.5 65.5t44.5 24.5q154 0 217.5 -71t63.5 -206 q0 -53 -4 -101t-10 -96.5t-10.5 -98.5t-4.5 -107q0 -82 29 -116t84 -44q14 -35 14 -68q0 -59 -37 -81q-18 -12 -34.5 -25.5t-28.5 -34t-19.5 -52.5t-7.5 -81q0 -111 14.5 -213t14.5 -195q0 -66 -23.5 -110.5t-65.5 -74.5t-100 -43t-128 -13q-16 23 -23.5 50.5t-7.5 53.5z " />
<glyph unicode="~" horiz-adv-x="819" d="M23 545q12 20 37.5 43.5t60.5 42t77 31t89 12.5q51 0 83.5 -13.5t58.5 -31t53.5 -30.5t70.5 -13t81 21.5t62 49.5q39 25 70 -5.5t35 -86.5q-14 -20 -39 -43.5t-57.5 -43t-74.5 -32t-91 -12.5q-55 0 -89 14.5t-62 31t-53.5 30.5t-64.5 14q-31 0 -55.5 -11t-46 -25.5 t-39.5 -26.5t-35 -15q-29 -2 -48 25t-23 74z" />
<glyph unicode="&#xa1;" horiz-adv-x="399" d="M90 -403l33 925q2 27 10 42.5t27.5 22.5t51.5 9t79 2l26 -952q0 -18 -8 -27.5t-32.5 -14.5t-69.5 -6t-117 -1zM94 924q0 47 31 81.5t84 34.5q66 0 90.5 -31.5t24.5 -84.5q0 -47 -30 -83t-85 -36q-63 0 -89 32.5t-26 86.5z" />
<glyph unicode="&#xa2;" d="M170 467q0 150 21.5 252t58.5 166.5t84 98.5t100 48v178q0 43 39 56.5t113 13.5v-240q49 -10 85 -29.5t36 -37.5q0 -4 -1 -17.5t-2.5 -31t-5.5 -38t-10 -34.5q-27 16 -60.5 26.5t-76.5 10.5q-39 0 -77 -12.5t-68.5 -54.5t-50 -125t-19.5 -224q0 -119 11 -186.5t35 -101 t59.5 -43t84.5 -9.5q41 0 86 14.5t74 32.5q8 -23 12 -54.5t4 -49.5q0 -29 -49 -58.5t-114 -35.5v-189q0 -43 -38 -54t-114 -11v260q-51 8 -92 31.5t-68.5 77t-42 142.5t-14.5 228z" />
<glyph unicode="&#xa3;" horiz-adv-x="749" d="M31 567q0 78 4 112t28 34h95q4 141 28.5 237.5t67.5 156.5t101.5 86t131.5 26q80 0 141.5 -27t61.5 -82q0 -29 -5 -51.5t-15 -50.5q-35 23 -69 33t-77 10t-78.5 -14.5t-62.5 -51.5t-42 -102.5t-17 -169.5h266q0 -78 -4 -112t-29 -34h-233q0 -111 4 -208t12 -193l319 -14 q8 -20 10.5 -40t2.5 -36q0 -41 -31 -58.5t-74 -17.5h-387q-10 141 -15 286.5t-7 280.5h-127z" />
<glyph unicode="&#xa5;" d="M59 1422q2 5 20.5 8.5t58.5 3.5h112l80 -281q14 -49 31.5 -107.5t32 -113.5t23.5 -100.5t11 -67.5q2 23 12.5 68t24.5 100t31.5 113.5t33.5 107.5l76 250q4 12 8 18t21.5 9.5t52.5 3.5h98l-194 -596h182q0 -76 -10 -108t-53 -32h-166l-35 -108v-90h266q0 -76 -11 -108 t-54 -32h-201v-327q0 -12 -2 -19.5t-17.5 -10.5t-49 -3h-97.5v360h-266q0 76 11 108t54 32h201v80l-41 118h-225q0 76 11 108t54 32h113l-195 569q-4 10 -2 15z" />
<glyph unicode="&#xa6;" horiz-adv-x="464" d="M150 393q0 37 17 52.5t69 15.5q18 0 39.5 -3t39.5 -9v-795q0 -37 -16 -48.5t-70 -11.5q-14 0 -37.5 2.5t-41.5 8.5v788zM150 676v780q0 37 17 51.5t69 14.5q18 0 39.5 -3t39.5 -10v-784q0 -35 -16 -46t-70 -11q-14 0 -37.5 2t-41.5 6z" />
<glyph unicode="&#xa7;" horiz-adv-x="712" d="M72 795q0 49 25.5 105t88.5 99q-12 12 -16 21q-41 53 -58.5 93t-17.5 89q0 55 23.5 99.5t64.5 75t98 47t123 16.5q100 0 153.5 -29t66.5 -57q4 -10 4 -18.5v-16.5q0 -55 -31 -102q-35 23 -74 35t-92 12q-72 0 -109.5 -27t-37.5 -68q0 -31 15 -56.5t46 -59.5 q18 -20 47 -47t59.5 -57.5t60.5 -62.5t52 -61q37 -47 55.5 -87t18.5 -99q0 -49 -25.5 -106.5t-89.5 -100.5l19 -20q41 -53 58 -92t17 -91q0 -55 -23.5 -99t-65.5 -74.5t-99 -47t-123 -16.5q-100 0 -153.5 29.5t-63.5 58.5q-4 10 -5 18t-1 15q0 55 31 102q35 -23 73.5 -35 t92.5 -12q72 0 109.5 26.5t37.5 67.5q0 31 -15.5 56.5t-45.5 60.5q-18 20 -47 48t-60 57.5t-60.5 61.5t-52.5 60q-37 47 -55 88t-18 101zM227 780q0 -39 16.5 -69.5t45.5 -65.5q18 -25 47 -49.5t63 -52.5q39 16 60.5 50t21.5 58q0 39 -15 70t-44 65q-20 27 -50 51.5 t-65 51.5q-39 -14 -59.5 -48t-20.5 -61z" />
<glyph unicode="&#xa8;" horiz-adv-x="493" d="M0 1309q0 41 26.5 72.5t73.5 31.5q55 0 79 -28.5t24 -75.5q0 -45 -28 -75t-75 -30q-55 0 -77.5 28t-22.5 77zM293 1309q0 41 25.5 72.5t72.5 31.5q55 0 79 -28.5t24 -75.5q0 -45 -27 -75t-76 -30q-55 0 -76.5 28t-21.5 77z" />
<glyph unicode="&#xa9;" horiz-adv-x="966" d="M72 1108q0 233 111.5 340.5t312.5 107.5q100 0 174.5 -23.5t124 -75.5t74 -137t24.5 -208q0 -221 -105.5 -339t-308.5 -118q-100 0 -177 23.5t-128 78t-76.5 140.5t-25.5 211zM199 1108q0 -94 18.5 -157.5t53 -102.5t87 -55.5t117.5 -16.5q61 0 113.5 18.5t92.5 58.5 t62.5 104.5t22.5 156.5q0 174 -67.5 251t-204.5 77q-66 0 -120.5 -17.5t-93 -56.5t-60 -102.5t-21.5 -157.5zM322 1087q0 94 17 149.5t45 84.5t61.5 38t64.5 9t61.5 -11.5t30.5 -21.5t-4 -32.5t-8 -32.5q-16 4 -31.5 9t-38.5 5q-18 0 -36.5 -5t-33 -25.5t-23.5 -60.5 t-9 -108q0 -51 6 -80.5t17.5 -45t27.5 -19.5t39 -4q18 0 39.5 7t38.5 13q6 -12 10 -32.5t4 -26.5q0 -16 -32.5 -29.5t-69.5 -13.5q-45 0 -78 7t-54.5 32t-32.5 71t-11 123z" />
<glyph unicode="&#xaa;" horiz-adv-x="659" d="M82 842q0 74 16.5 122t47 76.5t71.5 41t90 12.5q33 0 69 -6.5t62 -14.5v117q0 76 -39 97.5t-90 21.5q-55 0 -105 -15.5t-87 -31.5q-10 10 -15.5 27.5t-7.5 34.5t1 32.5t11 25.5q29 31 90.5 51.5t163.5 20.5q96 0 157 -48t61 -161v-596q-41 -20 -113 -39.5t-152 -19.5 q-45 0 -87 8t-73.5 33.5t-51 76t-19.5 134.5zM217 838q0 -78 35 -103.5t84 -25.5q29 0 57.5 8t44.5 16v225q-18 6 -43.5 11.5t-42.5 5.5q-29 0 -53.5 -4t-42.5 -17.5t-28.5 -41t-10.5 -74.5z" />
<glyph unicode="&#xab;" horiz-adv-x="851" d="M37 516q0 12 12 41t33.5 68t47.5 83t54 89q66 104 150 227q25 0 43 -13.5t31 -29.5q14 -18 26 -41q0 -14 -10 -41t-27.5 -58.5t-39 -68.5t-44.5 -74q-53 -84 -120 -182q70 -98 122 -182q23 -37 45.5 -73t40 -68.5t27.5 -57t10 -39.5q-10 -27 -24 -49q-12 -18 -32 -32.5 t-42 -14.5q-84 123 -152 229q-29 45 -55.5 90.5t-48 84t-34.5 68.5t-13 44zM389 514q0 12 12.5 39t34 61.5t47 74.5t54.5 81q66 94 147 207q23 0 41 -12.5t31 -26.5q14 -18 24 -39q0 -29 -36.5 -92.5t-79.5 -128.5q-53 -78 -117 -164q66 -86 119 -160q45 -63 81.5 -124.5 t36.5 -88.5q-10 -25 -24 -45q-12 -16 -29.5 -30.5t-40.5 -14.5q-84 111 -151 205q-29 39 -55.5 80t-48 75.5t-34 61.5t-12.5 41z" />
<glyph unicode="&#xac;" horiz-adv-x="819" d="M70 553q0 33 12 56.5t41 23.5h610v-406q-18 -6 -38.5 -10t-37.5 -4q-35 0 -58.5 13.5t-23.5 41.5v207h-493q-12 39 -12 78z" />
<glyph unicode="&#xad;" horiz-adv-x="569" d="M76 504q0 78 4 111.5t29 33.5h385q0 -78 -4.5 -111.5t-30.5 -33.5h-383z" />
<glyph unicode="&#xae;" horiz-adv-x="966" d="M72 1108q0 233 111.5 340.5t312.5 107.5q100 0 174.5 -23.5t124 -75.5t74 -137t24.5 -208q0 -221 -105.5 -339t-308.5 -118q-100 0 -177 23.5t-128 78t-76.5 140.5t-25.5 211zM199 1108q0 -94 18.5 -157.5t53 -102.5t87 -55.5t117.5 -16.5q61 0 113.5 18.5t92.5 58.5 t62.5 104.5t22.5 156.5q0 174 -67.5 251t-204.5 77q-66 0 -120.5 -17.5t-93 -56.5t-60 -102.5t-21.5 -157.5zM360 854v508q0 2 2 4t4.5 4t8.5 2h90q86 0 126 -39t40 -110q0 -51 -19.5 -85t-50.5 -55q23 -20 49.5 -69t34.5 -142q0 -10 -5 -15t-28 -5h-24.5t-26.5 2 q-8 100 -31.5 145t-42.5 60h-49v-189q0 -12 -12 -14t-66 -2zM438 1128h33q37 0 57.5 24t20.5 77q0 35 -16.5 55.5t-57.5 20.5h-37v-177z" />
<glyph unicode="&#xaf;" horiz-adv-x="546" d="M0 1290q0 37 17.5 59.5t48.5 22.5h466q14 -35 15 -72q0 -37 -16.5 -61.5t-47.5 -24.5h-471q-8 23 -10 40.5t-2 35.5z" />
<glyph unicode="&#xb0;" horiz-adv-x="733" d="M170 1329q0 104 54.5 151.5t150.5 47.5q98 0 144 -41t46 -156q0 -102 -52 -151.5t-151 -49.5q-94 0 -143 40t-49 159zM283 1327q0 -90 82 -90q41 0 65.5 20.5t24.5 73.5q0 49 -19.5 69.5t-58.5 20.5q-45 0 -69.5 -21.5t-24.5 -72.5z" />
<glyph unicode="&#xb1;" horiz-adv-x="858" d="M70 29q0 78 4 111.5t30 33.5h682q0 -78 -4 -111.5t-28 -33.5h-684zM72 592q0 78 4 111.5t30 33.5h252v252q0 27 34 31t112 4v-287h284q0 -78 -4 -111.5t-28 -33.5h-252v-252q0 -25 -34 -29t-112 -4v285h-286z" />
<glyph unicode="&#xb2;" horiz-adv-x="786" d="M82 647q0 23 6 46.5t18 39.5q61 72 127 131.5t119.5 112.5t87 101t33.5 100q0 43 -24.5 74.5t-106.5 31.5q-66 0 -116 -23.5t-91 -54.5q-20 37 -25.5 57.5t-5.5 45.5q0 29 29 55.5t75 46t101.5 31.5t110.5 12q74 0 123 -15.5t78.5 -44t41 -68.5t11.5 -89 q0 -74 -36 -139.5t-88 -125t-110.5 -115.5t-105.5 -107h358q6 -23 8 -40.5t2 -33.5q0 -84 -53 -84h-555q-12 31 -12 55z" />
<glyph unicode="&#xb3;" horiz-adv-x="784" d="M90 686q0 25 11.5 49.5t29.5 40.5q31 -20 79 -35.5t120 -15.5q88 0 140 33t52 94q0 47 -30.5 74.5t-85.5 36.5q-29 4 -69 5t-77 1q-4 6 -11 33.5t-7 41.5q0 23 11 37.5t42 14.5q53 0 106 -6q43 31 60.5 60.5t17.5 63.5q0 33 -26.5 62t-104.5 29q-61 0 -115.5 -18.5 t-95.5 -49.5q-31 33 -34 76t20 61q35 31 108.5 55.5t186.5 24.5q133 0 190.5 -53t57.5 -131q0 -119 -111 -213q66 -29 102.5 -79t36.5 -112q0 -76 -27.5 -131t-75.5 -92t-113.5 -54.5t-141.5 -17.5q-86 0 -141.5 16.5t-77.5 35.5q-27 20 -27 63z" />
<glyph unicode="&#xb4;" horiz-adv-x="350" d="M0 1260q35 39 80 81.5t86 77.5t71.5 57.5t36.5 22.5q14 0 27.5 -12t23 -31.5t16.5 -41t9 -40.5q-12 -14 -49 -42.5t-81 -61.5t-87 -62t-70 -43q-14 0 -25 14.5t-20 32.5q-10 20 -18 48z" />
<glyph unicode="&#xb5;" horiz-adv-x="806" d="M90 -389v1352q0 35 19.5 53t66.5 18q16 0 39 -2t43 -8v-756q0 -72 38 -101.5t103 -29.5q47 0 83 8.5t65 20.5v797q0 35 16.5 53t65.5 18q16 0 40.5 -2t45.5 -8v-975q-59 -29 -143.5 -49t-176.5 -20q-47 0 -81.5 12t-55.5 39v-365q0 -39 -28.5 -52t-65.5 -13q-18 0 -38 3 t-36 7z" />
<glyph unicode="&#xb6;" horiz-adv-x="1107" d="M68 860q0 158 29.5 270.5t82.5 184t128 105.5t165 34q78 0 140.5 -17.5t107.5 -39.5v-1344q0 -39 -26.5 -49t-55.5 -10t-50.5 4t-35.5 8v414q-29 -16 -75 -23.5t-87 -7.5q-63 0 -121.5 21.5t-103.5 76t-71.5 144.5t-26.5 229zM240 877q0 -111 16 -179.5t44 -106.5 t62.5 -52.5t69.5 -14.5q25 0 60.5 6.5t60.5 22.5v737q-12 6 -38 13.5t-66 7.5q-102 0 -155.5 -108.5t-53.5 -325.5zM848 4v1344q0 35 17.5 50t68.5 15q41 0 82 -12v-1348q0 -37 -17.5 -48t-70.5 -11q-14 0 -38 2t-42 8z" />
<glyph unicode="&#xb7;" horiz-adv-x="452" d="M109 551q0 47 30.5 83t83.5 36q63 0 89 -33t26 -86q0 -49 -31 -83t-84 -34q-66 0 -90 31t-24 86z" />
<glyph unicode="&#xb8;" horiz-adv-x="278" d="M0 -397q4 18 8 37q4 14 8 28.5t11 18.5q10 10 33.5 -5.5t56.5 -15.5q66 0 65 70q0 39 -16 53t-45 14q-20 0 -35.5 -2t-26.5 -4q-12 -2 -22 -4l39 211h92l-25 -123h35q37 0 69 -29.5t32 -101.5q0 -80 -46.5 -126t-117.5 -46q-25 0 -45.5 4t-36.5 8q-18 6 -33 13z" />
<glyph unicode="&#xb9;" horiz-adv-x="780" d="M90 664q0 41 11.5 63.5t45.5 22.5h191v522l-221 -45q-20 35 -21 80q0 31 16.5 49t39.5 28q37 12 82 24.5t89 23t79.5 16.5t52.5 6q10 0 27.5 -1t23.5 -5v-698h178q6 -43 6 -74q0 -47 -10 -65.5t-39 -18.5h-541q-6 23 -8 41t-2 31z" />
<glyph unicode="&#xba;" horiz-adv-x="692" d="M72 1022q0 229 77.5 330.5t206.5 101.5q68 0 117 -19.5t82 -67.5t49.5 -131t16.5 -210q0 -223 -73 -328.5t-210 -105.5q-63 0 -113.5 19.5t-84.5 67.5t-51 131t-17 212zM213 1012q0 -86 8 -141.5t23.5 -86t40 -43t55.5 -12.5q66 0 102.5 66.5t36.5 226.5q0 86 -8 141.5 t-23.5 87t-38 44t-53.5 12.5q-35 0 -61.5 -14.5t-45 -49.5t-27.5 -91t-9 -140z" />
<glyph unicode="&#xbb;" horiz-adv-x="847" d="M66 141q0 29 36.5 89.5t81.5 123.5q53 74 119 158q2 0 -13.5 23.5t-41 59.5t-56 81t-57 88t-45 79t-18.5 56q0 23 14 38t31 26q20 12 45 20q82 -113 147 -209q27 -41 54.5 -82t48 -76.5t34 -63.5t13.5 -40q0 -14 -13.5 -42t-35 -63.5t-48 -76.5t-55.5 -80 q-68 -96 -151 -205q-25 8 -45 23q-16 10 -30.5 28.5t-14.5 44.5zM410 96q0 14 10 39t27.5 57.5t40 68.5t44.5 73q53 84 123 182q-68 98 -120 182q-23 37 -45.5 74t-39 68.5t-26.5 58.5t-10 41q0 23 15 38t34 26q23 12 51 20q82 -123 148 -227q27 -45 54 -89t47.5 -83t34 -68 t13.5 -41q0 -14 -13.5 -44t-35 -68.5t-48 -84t-55.5 -90.5q-68 -106 -151 -229q-27 8 -49 23q-18 10 -33.5 28.5t-15.5 44.5z" />
<glyph unicode="&#xbc;" horiz-adv-x="1779" d="M90 664q0 41 11.5 63.5t45.5 22.5h191v522l-221 -45q-20 35 -21 80q0 31 16.5 49t39.5 28q37 12 82 24.5t89 23t79.5 16.5t52.5 6q10 0 27.5 -1t23.5 -5v-698h178q6 -43 6 -74q0 -47 -10 -65.5t-39 -18.5h-541q-6 23 -8 41t-2 31zM510 39l686 1376q6 16 18.5 27.5 t38.5 11.5q27 0 56.5 -14.5t56.5 -44.5l-690 -1385q-4 -10 -15.5 -20t-33.5 -10q-25 0 -58 15t-59 44zM1020 227q0 14 4 30.5t10 37.5q18 61 53 131.5t77 140.5t88 131.5t89 102.5q35 41 71 52t75 11q16 0 35.5 -3t31.5 -7v-551h123q4 -14 8.5 -33.5t4.5 -44.5 q0 -37 -14.5 -58.5t-37.5 -21.5h-84v-104q0 -51 -88 -51q-14 0 -31.5 2t-35.5 6v147h-350q-29 35 -29 82zM1174 293h231l8 381q-33 -27 -68.5 -71t-69.5 -96.5t-60.5 -107.5t-40.5 -106z" />
<glyph unicode="&#xbd;" horiz-adv-x="1843" d="M90 664q0 41 11.5 63.5t45.5 22.5h191v522l-221 -45q-20 35 -21 80q0 31 16.5 49t39.5 28q37 12 82 24.5t89 23t79.5 16.5t52.5 6q10 0 27.5 -1t23.5 -5v-698h178q6 -43 6 -74q0 -47 -10 -65.5t-39 -18.5h-541q-6 23 -8 41t-2 31zM510 39l686 1376q6 16 18.5 27.5 t38.5 11.5q27 0 56.5 -14.5t56.5 -44.5l-690 -1385q-4 -10 -15.5 -20t-33.5 -10q-25 0 -57.5 15t-59.5 44zM1130 55q0 23 6.5 46.5t18.5 39.5q61 72 127 131.5t119 112.5t87 101.5t34 99.5q0 43 -24.5 74.5t-106.5 31.5q-66 0 -116 -23.5t-91 -54.5q-20 37 -25.5 57.5 t-5.5 45.5q0 29 28.5 55.5t75 46t101.5 31.5t110 12q74 0 123 -15.5t79 -44t41 -68.5t11 -89q0 -74 -35.5 -139.5t-88 -124.5t-110.5 -115.5t-106 -107.5h359q6 -23 8 -40.5t2 -33.5q0 -84 -53 -84h-555q-12 31 -13 55z" />
<glyph unicode="&#xbe;" horiz-adv-x="1773" d="M90 686q0 25 11.5 49.5t29.5 40.5q31 -20 79 -35.5t120 -15.5q88 0 140 33t52 94q0 47 -30.5 74.5t-85.5 36.5q-29 4 -69 5t-77 1q-4 6 -11 33.5t-7 41.5q0 23 11 37.5t42 14.5q53 0 106 -6q43 31 60.5 60.5t17.5 63.5q0 33 -26.5 62t-104.5 29q-61 0 -115.5 -18.5 t-95.5 -49.5q-31 33 -34 76t20 61q35 31 108.5 55.5t186.5 24.5q133 0 190.5 -53t57.5 -131q0 -119 -111 -213q66 -29 102.5 -79t36.5 -112q0 -76 -27.5 -131t-75.5 -92t-113.5 -54.5t-141.5 -17.5q-86 0 -141.5 16.5t-77.5 35.5q-27 20 -27 63zM504 39l686 1376 q6 16 18.5 27.5t38.5 11.5q27 0 56.5 -14.5t56.5 -44.5l-690 -1385q-4 -10 -15.5 -20t-33.5 -10q-25 0 -58 15t-59 44zM1014 227q0 14 4 30.5t10 37.5q18 61 53 131.5t77 140.5t88 131.5t89 102.5q35 41 71 52t75 11q16 0 35.5 -3t31.5 -7v-551h123q4 -14 8.5 -33.5 t4.5 -44.5q0 -37 -14.5 -58.5t-37.5 -21.5h-84v-104q0 -51 -88 -51q-14 0 -31.5 2t-35.5 6v147h-350q-29 35 -29 82zM1168 293h231l8 381q-33 -27 -68.5 -71t-69.5 -96.5t-60.5 -107.5t-40.5 -106z" />
<glyph unicode="&#xbf;" horiz-adv-x="626" d="M29 -115q0 92 24.5 162t60.5 126t74.5 104.5t67.5 99.5q14 25 19.5 49.5t5.5 46.5q0 49 -11.5 87t-1.5 48q8 8 25.5 13.5t39 7.5t44 1t41.5 -3q6 -18 14 -41q6 -20 11.5 -47t5.5 -58q0 -35 -7.5 -71.5t-29.5 -75.5q-33 -61 -69 -111.5t-65.5 -97.5t-49 -95t-19.5 -106 q0 -47 13.5 -76.5t37 -47t53 -24.5t62.5 -7q68 0 110.5 19t59.5 32q12 -33 18 -64.5t6 -68.5q0 -18 -22.5 -33.5t-59 -27t-83 -18.5t-91.5 -7q-129 0 -206.5 70.5t-77.5 213.5zM227 920q0 49 31 82.5t84 33.5q66 0 90.5 -30.5t24.5 -85.5q0 -47 -30 -83t-85 -36 q-63 0 -89 32.5t-26 86.5z" />
<glyph unicode="&#xc0;" horiz-adv-x="894" d="M10 2l365 1409q6 29 63 29q47 0 78 -6l367 -1403q4 -16 -9.5 -25.5t-62.5 -9.5h-43t-55 4l-88 365h-353l-79 -336q-4 -16 -16.5 -24.5t-61.5 -8.5q-16 0 -46 1t-59 5zM207 1786q2 18 9 41t17.5 41.5t23.5 31.5t28 13q6 0 43 -28.5t82 -68.5t88 -81t59 -63q-8 -27 -16 -48 q-8 -16 -20.5 -30.5t-26.5 -14.5q-6 0 -47 27t-90.5 62.5t-93.5 69.5t-56 48zM307 516h283l-70 291q-12 51 -23.5 104.5t-20.5 105.5t-16 99t-11 84q-4 -37 -12.5 -84t-17.5 -98t-19.5 -105.5t-22.5 -105.5z" />
<glyph unicode="&#xc1;" horiz-adv-x="894" d="M10 2l365 1409q6 29 63 29q47 0 78 -6l367 -1403q4 -16 -9.5 -25.5t-62.5 -9.5h-43t-55 4l-88 365h-353l-79 -336q-4 -16 -16.5 -24.5t-61.5 -8.5q-16 0 -46 1t-59 5zM307 516h283l-70 291q-12 51 -23.5 104.5t-20.5 105.5t-16 99t-11 84q-4 -37 -12.5 -84t-17.5 -98 t-19.5 -105.5t-22.5 -105.5zM350 1670q35 39 80 81.5t86 77.5t71.5 57.5t36.5 22.5q14 0 27.5 -12t23 -31.5t16.5 -41t9 -40.5q-12 -14 -49 -42.5t-81 -61.5t-87 -62t-70 -43q-14 0 -25 14.5t-20 32.5q-10 20 -18 48z" />
<glyph unicode="&#xc2;" horiz-adv-x="894" d="M10 2l365 1409q6 29 63 29q47 0 78 -6l367 -1403q4 -16 -9.5 -25.5t-62.5 -9.5h-43t-55 4l-88 365h-353l-79 -336q-4 -16 -16.5 -24.5t-61.5 -8.5q-16 0 -46 1t-59 5zM186 1629l231 251q12 6 35 7q27 0 51 -25q55 -55 99 -104q37 -41 68.5 -80t31.5 -51q0 -23 -37 -36.5 t-82 -13.5q-31 33 -57 62q-23 25 -44.5 51.5t-31.5 46.5q-35 -45 -63 -80q-27 -29 -51.5 -53.5t-38.5 -24.5q-43 0 -70 13.5t-41 36.5zM307 516h283l-70 291q-12 51 -23.5 104.5t-20.5 105.5t-16 99t-11 84q-4 -37 -12.5 -84t-17.5 -98t-19.5 -105.5t-22.5 -105.5z" />
<glyph unicode="&#xc3;" horiz-adv-x="894" d="M10 2l365 1409q6 29 63 29q47 0 78 -6l367 -1403q4 -16 -9.5 -25.5t-62.5 -9.5h-43t-55 4l-88 365h-353l-79 -336q-4 -16 -16.5 -24.5t-61.5 -8.5q-16 0 -46 1t-59 5zM145 1688q53 86 114.5 120t116.5 34q33 0 53.5 -15.5t38 -33t37 -33t50.5 -15.5q37 0 57 12.5t32.5 27 t21.5 26.5t22 12q12 0 23.5 -15.5t19.5 -31.5q8 -20 16 -45q-4 -8 -21.5 -31.5t-47 -49.5t-68.5 -45t-86 -19q-41 0 -63.5 15t-39 33.5t-32 34t-43.5 15.5q-27 0 -45.5 -12.5t-31.5 -27.5t-23.5 -27.5t-20.5 -12.5q-16 0 -31.5 12.5t-25.5 28.5q-13 18 -23 43zM307 516h283 l-70 291q-12 51 -23.5 104.5t-20.5 105.5t-16 99t-11 84q-4 -37 -12.5 -84t-17.5 -98t-19.5 -105.5t-22.5 -105.5z" />
<glyph unicode="&#xc4;" horiz-adv-x="894" d="M10 2l365 1409q6 29 63 29q47 0 78 -6l367 -1403q4 -16 -9.5 -25.5t-62.5 -9.5h-43t-55 4l-88 365h-353l-79 -336q-4 -16 -16.5 -24.5t-61.5 -8.5q-16 0 -46 1t-59 5zM205 1719q0 41 26.5 72.5t73.5 31.5q55 0 79 -28.5t24 -75.5q0 -45 -28 -75t-75 -30q-55 0 -77.5 28 t-22.5 77zM307 516h283l-70 291q-12 51 -23.5 104.5t-20.5 105.5t-16 99t-11 84q-4 -37 -12.5 -84t-17.5 -98t-19.5 -105.5t-22.5 -105.5zM498 1719q0 41 25.5 72.5t72.5 31.5q55 0 79 -28.5t24 -75.5q0 -45 -27 -75t-76 -30q-55 0 -76.5 28t-21.5 77z" />
<glyph unicode="&#xc5;" horiz-adv-x="894" d="M10 2l365 1409q6 29 63 29q47 0 78 -6l367 -1403q4 -16 -9.5 -25.5t-62.5 -9.5h-43t-55 4l-88 365h-353l-79 -336q-4 -16 -16.5 -24.5t-61.5 -8.5q-16 0 -46 1t-59 5zM246 1760q0 104 54.5 152t150.5 48q98 0 144 -42t46 -156q0 -100 -52 -150.5t-150 -50.5 q-94 0 -143.5 42t-49.5 157zM307 516h283l-70 291q-12 51 -23.5 104.5t-20.5 105.5t-16 99t-11 84q-4 -37 -12.5 -84t-17.5 -98t-19.5 -105.5t-22.5 -105.5zM365 1758q0 -84 76 -84q39 0 61.5 20.5t22.5 67.5q0 84 -72 84q-41 0 -64.5 -20.5t-23.5 -67.5z" />
<glyph unicode="&#xc6;" horiz-adv-x="1259" d="M35 2l600 1403q12 29 53 29h531v-81t-3.5 -45.5t-9.5 -19.5t-18 -4h-328v-428h309q0 -47 -1 -77.5t-4 -47t-9 -23t-18 -6.5h-277v-552h350q0 -53 -1 -83t-4 -44.5t-9 -18.5t-18 -4h-484v365h-338l-139 -336q-6 -16 -20.5 -24.5t-57.5 -8.5q-16 0 -46 1t-58 5zM420 516 h274v741q-16 -53 -34.5 -112.5t-38 -119.5t-41 -117.5t-39.5 -106.5z" />
<glyph unicode="&#xc7;" horiz-adv-x="694" d="M63 657q0 262 38 421t96.5 244t130 111.5t139.5 26.5q57 0 94 -10t58.5 -26.5t30.5 -36t9 -39.5q0 -29 -8 -55.5t-18 -45.5q-16 14 -51 32.5t-82 18.5q-49 0 -95.5 -22.5t-83 -91t-59 -192.5t-22.5 -326q0 -156 15 -255.5t42 -155.5t64.5 -76.5t82.5 -20.5 q59 0 109.5 20.5t79.5 42.5q10 -20 17 -47t7 -53q0 -53 -56 -94t-152 -52l-19 -94h35q37 0 68.5 -29.5t31.5 -101.5q0 -80 -46 -126t-118 -46q-25 0 -45 4t-37 8q-18 6 -32 13q4 18 8 37q4 14 8 28.5t10 18.5q10 10 34 -5.5t56 -15.5q66 0 66 70q0 39 -16.5 53t-44.5 14 q-20 0 -36 -2t-26 -4q-12 -2 -22 -4l32 182q-63 6 -117.5 36t-93.5 106t-60.5 205t-21.5 335z" />
<glyph unicode="&#xc8;" horiz-adv-x="655" d="M90 0v1399q0 8 4 16q4 6 11.5 12.5t19.5 6.5h489v-81t-3 -45.5t-9 -19.5t-18 -4h-326v-428h307v-77.5t-3 -47t-9 -23t-18 -6.5h-277v-552h350q0 -53 -1 -83t-4 -44.5t-9 -18.5t-19 -4h-485zM133 1786q2 18 9 41t17.5 41.5t23.5 31.5t28 13q6 0 43 -28.5t82 -68.5t88 -81 t59 -63q-8 -27 -16 -48q-8 -16 -20.5 -30.5t-26.5 -14.5q-6 0 -47 27t-90.5 62.5t-93.5 69.5t-56 48z" />
<glyph unicode="&#xc9;" horiz-adv-x="655" d="M90 0v1399q0 8 4 16q4 6 11.5 12.5t19.5 6.5h489v-81t-3 -45.5t-9 -19.5t-18 -4h-326v-428h307v-77.5t-3 -47t-9 -23t-18 -6.5h-277v-552h350q0 -53 -1 -83t-4 -44.5t-9 -18.5t-19 -4h-485zM279 1670q35 39 80 81.5t86 77.5t71.5 57.5t36.5 22.5q14 0 27.5 -12t23 -31.5 t16.5 -41t9 -40.5q-12 -14 -49 -42.5t-81 -61.5t-87 -62t-70 -43q-14 0 -25 14.5t-20 32.5q-10 20 -18 48z" />
<glyph unicode="&#xca;" horiz-adv-x="655" d="M90 0v1399q0 8 4 16q4 6 11.5 12.5t19.5 6.5h489v-81t-3 -45.5t-9 -19.5t-18 -4h-326v-428h307v-77.5t-3 -47t-9 -23t-18 -6.5h-277v-552h350q0 -53 -1 -83t-4 -44.5t-9 -18.5t-19 -4h-485zM115 1629l231 251q12 6 35 7q27 0 51 -25q55 -55 99 -104q37 -41 68.5 -80 t31.5 -51q0 -23 -37 -36.5t-82 -13.5q-31 33 -57 62q-23 25 -44.5 51.5t-31.5 46.5q-35 -45 -63 -80q-27 -29 -51.5 -53.5t-38.5 -24.5q-43 0 -70 13.5t-41 36.5z" />
<glyph unicode="&#xcb;" horiz-adv-x="655" d="M90 0v1399q0 8 4 16q4 6 11.5 12.5t19.5 6.5h489v-81t-3 -45.5t-9 -19.5t-18 -4h-326v-428h307v-77.5t-3 -47t-9 -23t-18 -6.5h-277v-552h350q0 -53 -1 -83t-4 -44.5t-9 -18.5t-19 -4h-485zM131 1719q0 41 26.5 72.5t73.5 31.5q55 0 79 -28.5t24 -75.5q0 -45 -28 -75 t-75 -30q-55 0 -77.5 28t-22.5 77zM424 1719q0 41 25.5 72.5t72.5 31.5q55 0 79 -28.5t24 -75.5q0 -45 -27 -75t-76 -30q-55 0 -76.5 28t-21.5 77z" />
<glyph unicode="&#xcc;" horiz-adv-x="344" d="M-66 1786q2 18 9 41t17.5 41.5t23.5 31.5t28 13q6 0 43 -28.5t82 -68.5t88 -81t59 -63q-8 -27 -16 -48q-8 -16 -20.5 -30.5t-26.5 -14.5q-6 0 -47 27t-90.5 62.5t-93.5 69.5t-56 48zM88 0v1358q0 29 3 44t18.5 22.5t50.5 8.5t96 1v-1401q0 -12 -3 -19.5t-18.5 -10.5 t-50 -3h-96.5z" />
<glyph unicode="&#xcd;" horiz-adv-x="344" d="M78 1670q35 39 80 81.5t86 77.5t71.5 57.5t36.5 22.5q14 0 27.5 -12t23 -31.5t16.5 -41t9 -40.5q-12 -14 -49 -42.5t-81 -61.5t-87 -62t-70 -43q-14 0 -25 14.5t-20 32.5q-10 20 -18 48zM88 0v1358q0 29 3 44t18.5 22.5t50.5 8.5t96 1v-1401q0 -12 -3 -19.5t-18.5 -10.5 t-50 -3h-96.5z" />
<glyph unicode="&#xce;" horiz-adv-x="344" d="M-86 1629l231 251q12 6 35 7q27 0 51 -25q55 -55 99 -104q37 -41 68.5 -80t31.5 -51q0 -23 -37 -36.5t-82 -13.5q-31 33 -57 62q-23 25 -44.5 51.5t-31.5 46.5q-35 -45 -63 -80q-27 -29 -51.5 -53.5t-38.5 -24.5q-43 0 -70 13.5t-41 36.5zM88 0v1358q0 29 3 44t18.5 22.5 t50.5 8.5t96 1v-1401q0 -12 -3 -19.5t-18.5 -10.5t-50 -3h-96.5z" />
<glyph unicode="&#xcf;" horiz-adv-x="344" d="M-68 1719q0 41 26.5 72.5t73.5 31.5q55 0 79 -28.5t24 -75.5q0 -45 -28 -75t-75 -30q-55 0 -77.5 28t-22.5 77zM88 0v1358q0 29 3 44t18.5 22.5t50.5 8.5t96 1v-1401q0 -12 -3 -19.5t-18.5 -10.5t-50 -3h-96.5zM225 1719q0 41 25.5 72.5t72.5 31.5q55 0 79 -28.5 t24 -75.5q0 -45 -27 -75t-76 -30q-55 0 -76.5 28t-21.5 77z" />
<glyph unicode="&#xd0;" horiz-adv-x="804" d="M8 676q0 78 4 112.5t31 34.5h47v572q0 18 10.5 28.5t44.5 10.5h199q100 0 176 -31t126 -102.5t74.5 -192.5t24.5 -301q0 -231 -26.5 -386t-77.5 -249t-126 -133t-169 -39h-256v676h-82zM256 160l92 -2q39 0 77 21.5t66.5 90t46 196.5t17.5 341q0 141 -12.5 233.5 t-38 145.5t-64.5 73.5t-90 20.5h-94v-457h162q0 -78 -4 -112.5t-29 -34.5h-129v-516z" />
<glyph unicode="&#xd1;" horiz-adv-x="909" d="M88 0v1399q0 35 35 35h127l229 -553q14 -41 40 -114t54.5 -157t55 -167t45.5 -140v6q-6 45 -9 133t-6.5 181.5t-4.5 175.5t-1 119v481q0 12 3 19t19.5 10.5t50.5 4.5t95 1v-1401q0 -33 -35 -33h-124l-234 563q-14 35 -38.5 107.5t-53.5 157.5t-56.5 170t-46.5 145 q4 -49 8.5 -139.5t7.5 -184.5t4 -175t1 -114v-497q0 -12 -3 -19.5t-18.5 -10.5t-49 -3h-95.5zM168 1688q53 86 114.5 120t116.5 34q33 0 53.5 -15.5t38 -33t37 -33t50.5 -15.5q37 0 57 12.5t32.5 27t21.5 26.5t22 12q12 0 23.5 -15.5t19.5 -31.5q8 -20 16 -45 q-4 -8 -21.5 -31.5t-47 -49.5t-68.5 -45t-86 -19q-41 0 -63.5 15t-39 33.5t-32 34t-43.5 15.5q-27 0 -45.5 -12.5t-31.5 -27.5t-23.5 -27.5t-20.5 -12.5q-16 0 -31.5 12.5t-25.5 28.5q-13 18 -23 43z" />
<glyph unicode="&#xd2;" horiz-adv-x="876" d="M61 725q0 205 24 344t73 224t122.5 122t172.5 37q100 0 169.5 -35t112.5 -117.5t62.5 -222t19.5 -346.5q0 -211 -22.5 -354.5t-69.5 -231.5t-121 -125.5t-174 -37.5q-98 0 -169 32.5t-115 117.5t-64.5 228.5t-20.5 364.5zM211 1786q2 18 9 41t17.5 41.5t23.5 31.5t28 13 q6 0 43 -28.5t82 -68.5t88 -81t59 -63q-8 -27 -16 -48q-8 -16 -20.5 -30.5t-26.5 -14.5q-6 0 -47 27t-90.5 62.5t-93.5 69.5t-56 48zM248 684q0 -143 9 -243.5t31.5 -165t58.5 -94t91 -29.5t93 30.5t61.5 100t34 178t10.5 266.5q0 154 -9.5 259.5t-31 172t-57 95t-90.5 28.5 q-53 0 -91.5 -31.5t-63 -102.5t-35.5 -184.5t-11 -279.5z" />
<glyph unicode="&#xd3;" horiz-adv-x="876" d="M61 725q0 205 24 344t73 224t122.5 122t172.5 37q100 0 169.5 -35t112.5 -117.5t62.5 -222t19.5 -346.5q0 -211 -22.5 -354.5t-69.5 -231.5t-121 -125.5t-174 -37.5q-98 0 -169 32.5t-115 117.5t-64.5 228.5t-20.5 364.5zM248 684q0 -143 9 -243.5t31.5 -165t58.5 -94 t91 -29.5t93 30.5t61.5 100t34 178t10.5 266.5q0 154 -9.5 259.5t-31 172t-57 95t-90.5 28.5q-53 0 -91.5 -31.5t-63 -102.5t-35.5 -184.5t-11 -279.5zM356 1670q35 39 80 81.5t86 77.5t71.5 57.5t36.5 22.5q14 0 27.5 -12t23 -31.5t16.5 -41t9 -40.5q-12 -14 -49 -42.5 t-81 -61.5t-87 -62t-70 -43q-14 0 -25 14.5t-20 32.5q-10 20 -18 48z" />
<glyph unicode="&#xd4;" horiz-adv-x="876" d="M61 725q0 205 24 344t73 224t122.5 122t172.5 37q100 0 169.5 -35t112.5 -117.5t62.5 -222t19.5 -346.5q0 -211 -22.5 -354.5t-69.5 -231.5t-121 -125.5t-174 -37.5q-98 0 -169 32.5t-115 117.5t-64.5 228.5t-20.5 364.5zM193 1629l231 251q12 6 35 7q27 0 51 -25 q55 -55 99 -104q37 -41 68.5 -80t31.5 -51q0 -23 -37 -36.5t-82 -13.5q-31 33 -57 62q-23 25 -44.5 51.5t-31.5 46.5q-35 -45 -63 -80q-27 -29 -51.5 -53.5t-38.5 -24.5q-43 0 -70 13.5t-41 36.5zM248 684q0 -143 9 -243.5t31.5 -165t58.5 -94t91 -29.5t93 30.5t61.5 100 t34 178t10.5 266.5q0 154 -9.5 259.5t-31 172t-57 95t-90.5 28.5q-53 0 -91.5 -31.5t-63 -102.5t-35.5 -184.5t-11 -279.5z" />
<glyph unicode="&#xd5;" horiz-adv-x="876" d="M61 725q0 205 24 344t73 224t122.5 122t172.5 37q100 0 169.5 -35t112.5 -117.5t62.5 -222t19.5 -346.5q0 -211 -22.5 -354.5t-69.5 -231.5t-121 -125.5t-174 -37.5q-98 0 -169 32.5t-115 117.5t-64.5 228.5t-20.5 364.5zM152 1688q53 86 114.5 120t116.5 34 q33 0 53.5 -15.5t38 -33t37 -33t50.5 -15.5q37 0 57 12.5t32.5 27t21.5 26.5t22 12q12 0 23.5 -15.5t19.5 -31.5q8 -20 16 -45q-4 -8 -21.5 -31.5t-47 -49.5t-68.5 -45t-86 -19q-41 0 -63.5 15t-39 33.5t-32 34t-43.5 15.5q-27 0 -45.5 -12.5t-31.5 -27.5t-23.5 -27.5 t-20.5 -12.5q-16 0 -31.5 12.5t-25.5 28.5q-13 18 -23 43zM248 684q0 -143 9 -243.5t31.5 -165t58.5 -94t91 -29.5t93 30.5t61.5 100t34 178t10.5 266.5q0 154 -9.5 259.5t-31 172t-57 95t-90.5 28.5q-53 0 -91.5 -31.5t-63 -102.5t-35.5 -184.5t-11 -279.5z" />
<glyph unicode="&#xd6;" horiz-adv-x="876" d="M61 725q0 205 24 344t73 224t122.5 122t172.5 37q100 0 169.5 -35t112.5 -117.5t62.5 -222t19.5 -346.5q0 -211 -22.5 -354.5t-69.5 -231.5t-121 -125.5t-174 -37.5q-98 0 -169 32.5t-115 117.5t-64.5 228.5t-20.5 364.5zM211 1719q0 41 26.5 72.5t73.5 31.5 q55 0 79 -28.5t24 -75.5q0 -45 -28 -75t-75 -30q-55 0 -77.5 28t-22.5 77zM248 684q0 -143 9 -243.5t31.5 -165t58.5 -94t91 -29.5t93 30.5t61.5 100t34 178t10.5 266.5q0 154 -9.5 259.5t-31 172t-57 95t-90.5 28.5q-53 0 -91.5 -31.5t-63 -102.5t-35.5 -184.5t-11 -279.5z M504 1719q0 41 25.5 72.5t72.5 31.5q55 0 79 -28.5t24 -75.5q0 -45 -27 -75t-76 -30q-55 0 -76.5 28t-21.5 77z" />
<glyph unicode="&#xd7;" d="M145 375l183 200l-183 205q55 53 82 75t45 3l154 -172l156 172q16 18 43.5 -3t83.5 -75l-183 -202l183 -203q-55 -53 -83 -74.5t-46 -5.5l-154 170l-154 -170q-18 -16 -44.5 5.5t-82.5 74.5z" />
<glyph unicode="&#xd8;" horiz-adv-x="948" d="M76 18q-2 4 6 26t19.5 51.5t23.5 61t22 56.5q-27 86 -39 211t-12 301q0 205 22.5 344t71 225t121 123t172.5 37q78 0 138.5 -21.5t103.5 -72.5q16 41 28.5 71.5t18.5 41.5q27 -2 49 -11q18 -6 34.5 -15t21.5 -26q0 -6 -7.5 -32.5t-17.5 -60.5t-22.5 -70.5t-22.5 -65.5 q45 -162 45 -461q0 -211 -22.5 -355.5t-69.5 -232.5t-121 -125.5t-174 -37.5q-80 0 -140.5 20t-103.5 72q-14 -37 -26.5 -67t-16.5 -38q-12 0 -28.5 3t-32 9.5t-27.5 16.5t-14 22zM283 684q0 -100 3 -179t11 -140l303 860q-41 59 -119 59q-53 0 -91 -31.5t-61.5 -102.5 t-34.5 -185.5t-11 -280.5zM350 201q39 -49 109 -49q49 0 89 21.5t67.5 82.5t42 174t14.5 297q0 104 -4 184t-13 144q-35 -98 -77.5 -221t-85.5 -243t-81 -224.5t-61 -165.5z" />
<glyph unicode="&#xd9;" horiz-adv-x="894" d="M88 418v981q0 12 3 19t18.5 10.5t50.5 4.5t100 1v-1020q0 -61 6 -113.5t27.5 -89.5t59.5 -57.5t104 -20.5q53 0 103 11.5t77 25.5v1229q0 12 3 19t18.5 10.5t50 4.5t96.5 1v-1381q-39 -25 -132 -49t-216 -24t-196 34.5t-111.5 95t-50 139.5t-11.5 169zM211 1786 q2 18 9 41t17.5 41.5t23.5 31.5t28 13q6 0 43 -28.5t82 -68.5t88 -81t59 -63q-8 -27 -16 -48q-8 -16 -20.5 -30.5t-26.5 -14.5q-6 0 -47 27t-90.5 62.5t-93.5 69.5t-56 48z" />
<glyph unicode="&#xda;" horiz-adv-x="894" d="M88 418v981q0 12 3 19t18.5 10.5t50.5 4.5t100 1v-1020q0 -61 6 -113.5t27.5 -89.5t59.5 -57.5t104 -20.5q53 0 103 11.5t77 25.5v1229q0 12 3 19t18.5 10.5t50 4.5t96.5 1v-1381q-39 -25 -132 -49t-216 -24t-196 34.5t-111.5 95t-50 139.5t-11.5 169zM356 1670 q35 39 80 81.5t86 77.5t71.5 57.5t36.5 22.5q14 0 27.5 -12t23 -31.5t16.5 -41t9 -40.5q-12 -14 -49 -42.5t-81 -61.5t-87 -62t-70 -43q-14 0 -25 14.5t-20 32.5q-10 20 -18 48z" />
<glyph unicode="&#xdb;" horiz-adv-x="894" d="M88 418v981q0 12 3 19t18.5 10.5t50.5 4.5t100 1v-1020q0 -61 6 -113.5t27.5 -89.5t59.5 -57.5t104 -20.5q53 0 103 11.5t77 25.5v1229q0 12 3 19t18.5 10.5t50 4.5t96.5 1v-1381q-39 -25 -132 -49t-216 -24t-196 34.5t-111.5 95t-50 139.5t-11.5 169zM193 1629l231 251 q12 6 35 7q27 0 51 -25q55 -55 99 -104q37 -41 68.5 -80t31.5 -51q0 -23 -37 -36.5t-82 -13.5q-31 33 -57 62q-23 25 -44.5 51.5t-31.5 46.5q-35 -45 -63 -80q-27 -29 -51.5 -53.5t-38.5 -24.5q-43 0 -70 13.5t-41 36.5z" />
<glyph unicode="&#xdc;" horiz-adv-x="894" d="M88 418v981q0 12 3 19t18.5 10.5t50.5 4.5t100 1v-1020q0 -61 6 -113.5t27.5 -89.5t59.5 -57.5t104 -20.5q53 0 103 11.5t77 25.5v1229q0 12 3 19t18.5 10.5t50 4.5t96.5 1v-1381q-39 -25 -132 -49t-216 -24t-196 34.5t-111.5 95t-50 139.5t-11.5 169zM211 1719 q0 41 26.5 72.5t73.5 31.5q55 0 79 -28.5t24 -75.5q0 -45 -28 -75t-75 -30q-55 0 -77.5 28t-22.5 77zM504 1719q0 41 25.5 72.5t72.5 31.5q55 0 79 -28.5t24 -75.5q0 -45 -27 -75t-76 -30q-55 0 -76.5 28t-21.5 77z" />
<glyph unicode="&#xdd;" horiz-adv-x="745" d="M10 1422q2 5 20.5 8.5t58.5 3.5h112l82 -281q14 -49 31.5 -113.5t31.5 -127t24.5 -113.5t12.5 -74q2 23 13.5 74t25.5 113.5t31.5 127t31.5 113.5l72 250q4 12 8 18t21.5 9.5t52.5 3.5h98l-276 -842v-559q0 -12 -2 -19.5t-17.5 -10.5t-49.5 -3h-97v580l-283 827 q-4 10 -2 15zM287 1670q35 39 80 81.5t86 77.5t71.5 57.5t36.5 22.5q14 0 27.5 -12t23 -31.5t16.5 -41t9 -40.5q-12 -14 -49 -42.5t-81 -61.5t-87 -62t-70 -43q-14 0 -25 14.5t-20 32.5q-10 20 -18 48z" />
<glyph unicode="&#xde;" horiz-adv-x="737" d="M88 0v1393q0 29 22.5 35t92.5 6h51v-256h72q195 0 285.5 -95.5t90.5 -310.5q0 -127 -29.5 -212t-81.5 -137t-121 -74.5t-144 -22.5h-72v-293q0 -12 -3 -19.5t-19.5 -10.5t-50.5 -3h-93zM254 483q4 0 16.5 -1t26.5 -1t27.5 -1t19.5 -1q86 0 130 71t44 243q0 109 -36 174 t-126 65q-45 0 -69.5 -1t-32.5 -3v-545z" />
<glyph unicode="&#xdf;" horiz-adv-x="952" d="M80 4q4 16 10 39q4 18 8 46t4 63l-6 974q0 166 90 242t240 76q113 0 190.5 -25.5t127 -67.5t72 -95.5t22.5 -106.5q0 -70 -35 -111t-77 -71.5t-77 -61.5t-35 -80q0 -33 24 -65.5t59.5 -67.5t76.5 -74.5t77 -89t59.5 -110t23.5 -135.5q0 -141 -82 -221t-225 -80 q-123 0 -183.5 31.5t-60.5 60.5q0 45 14.5 70.5t28.5 41.5q14 -14 56 -34.5t108 -20.5q72 0 115 37t43 113q0 80 -49.5 144t-109 125.5t-108.5 125t-49 141.5q0 70 36 113t78 75.5t77.5 63.5t35.5 78q0 53 -54 97t-167 44q-100 0 -137 -59.5t-37 -196.5l6 -942 q0 -59 -18.5 -83.5t-79.5 -24.5q-47 0 -72 10q-12 6 -20 12z" />
<glyph unicode="&#xe0;" horiz-adv-x="724" d="M59 291q0 106 23.5 171.5t61.5 102.5t87.5 49.5t100.5 12.5q35 0 77 -5.5t72 -21.5v162q0 72 -32.5 96.5t-94.5 24.5q-78 0 -151.5 -13.5t-118.5 -31.5q-14 25 -18.5 50.5t-4.5 43.5q0 16 5.5 31.5t17.5 25.5q27 16 111 35.5t200 19.5q133 0 193.5 -55t60.5 -194v-109 v-177t-2 -172t-4 -157t-6 -131q-41 -25 -112.5 -47t-172.5 -22q-55 0 -108.5 8t-94 40.5t-65.5 95t-25 167.5zM125 1376q2 18 9 41t17.5 41.5t23.5 31.5t28 13q6 0 43 -28.5t82 -68.5t88 -81t59 -63q-8 -27 -16 -48q-8 -16 -20.5 -30.5t-26.5 -14.5q-6 0 -47 27t-90.5 62.5 t-93.5 69.5t-56 48zM233 295q0 -55 9.5 -90t27 -54.5t42 -25.5t55.5 -6q35 0 64.5 10t43.5 25q2 25 3 64.5t2 84.5t1 92v88q-20 10 -46.5 14.5t-49.5 4.5q-31 0 -58.5 -7.5t-48 -30t-33 -62.5t-12.5 -107z" />
<glyph unicode="&#xe1;" horiz-adv-x="724" d="M59 291q0 106 23.5 171.5t61.5 102.5t87.5 49.5t100.5 12.5q35 0 77 -5.5t72 -21.5v162q0 72 -32.5 96.5t-94.5 24.5q-78 0 -151.5 -13.5t-118.5 -31.5q-14 25 -18.5 50.5t-4.5 43.5q0 16 5.5 31.5t17.5 25.5q27 16 111 35.5t200 19.5q133 0 193.5 -55t60.5 -194v-109 v-177t-2 -172t-4 -157t-6 -131q-41 -25 -112.5 -47t-172.5 -22q-55 0 -108.5 8t-94 40.5t-65.5 95t-25 167.5zM233 295q0 -55 9.5 -90t27 -54.5t42 -25.5t55.5 -6q35 0 64.5 10t43.5 25q2 25 3 64.5t2 84.5t1 92v88q-20 10 -46.5 14.5t-49.5 4.5q-31 0 -58.5 -7.5t-48 -30 t-33 -62.5t-12.5 -107zM268 1260q35 39 80 81.5t86 77.5t71.5 57.5t36.5 22.5q14 0 27.5 -12t23 -31.5t16.5 -41t9 -40.5q-12 -14 -49 -42.5t-81 -61.5t-87 -62t-70 -43q-14 0 -25 14.5t-20 32.5q-10 20 -18 48z" />
<glyph unicode="&#xe2;" horiz-adv-x="724" d="M59 291q0 106 23.5 171.5t61.5 102.5t87.5 49.5t100.5 12.5q35 0 77 -5.5t72 -21.5v162q0 72 -32.5 96.5t-94.5 24.5q-78 0 -151.5 -13.5t-118.5 -31.5q-14 25 -18.5 50.5t-4.5 43.5q0 16 5.5 31.5t17.5 25.5q27 16 111 35.5t200 19.5q133 0 193.5 -55t60.5 -194v-109 v-177t-2 -172t-4 -157t-6 -131q-41 -25 -112.5 -47t-172.5 -22q-55 0 -108.5 8t-94 40.5t-65.5 95t-25 167.5zM104 1219l231 251q12 6 35 7q27 0 51 -25q55 -55 99 -104q37 -41 68.5 -80t31.5 -51q0 -23 -37 -36.5t-82 -13.5q-31 33 -57 62q-23 25 -44.5 51.5t-31.5 46.5 q-35 -45 -63 -80q-27 -29 -51.5 -53.5t-38.5 -24.5q-43 0 -70 13.5t-41 36.5zM233 295q0 -55 9.5 -90t27 -54.5t42 -25.5t55.5 -6q35 0 64.5 10t43.5 25q2 25 3 64.5t2 84.5t1 92v88q-20 10 -46.5 14.5t-49.5 4.5q-31 0 -58.5 -7.5t-48 -30t-33 -62.5t-12.5 -107z" />
<glyph unicode="&#xe3;" horiz-adv-x="724" d="M59 291q0 106 23.5 171.5t61.5 102.5t87.5 49.5t100.5 12.5q35 0 77 -5.5t72 -21.5v162q0 72 -32.5 96.5t-94.5 24.5q-78 0 -151.5 -13.5t-118.5 -31.5q-14 25 -18.5 50.5t-4.5 43.5q0 16 5.5 31.5t17.5 25.5q27 16 111 35.5t200 19.5q133 0 193.5 -55t60.5 -194v-109 v-177t-2 -172t-4 -157t-6 -131q-41 -25 -112.5 -47t-172.5 -22q-55 0 -108.5 8t-94 40.5t-65.5 95t-25 167.5zM63 1278q53 86 114.5 120t116.5 34q33 0 53.5 -15.5t38 -33t37 -33t50.5 -15.5q37 0 57 12.5t32.5 27t21.5 26.5t22 12q12 0 23.5 -15.5t19.5 -31.5q8 -20 16 -45 q-4 -8 -21.5 -31.5t-47 -49.5t-68.5 -45t-86 -19q-41 0 -63.5 15t-39 33.5t-32 34t-43.5 15.5q-27 0 -45.5 -12.5t-31.5 -27.5t-23.5 -27.5t-20.5 -12.5q-16 0 -31.5 12.5t-25.5 28.5q-13 18 -23 43zM233 295q0 -55 9.5 -90t27 -54.5t42 -25.5t55.5 -6q35 0 64.5 10t43.5 25 q2 25 3 64.5t2 84.5t1 92v88q-20 10 -46.5 14.5t-49.5 4.5q-31 0 -58.5 -7.5t-48 -30t-33 -62.5t-12.5 -107z" />
<glyph unicode="&#xe4;" horiz-adv-x="724" d="M59 291q0 106 23.5 171.5t61.5 102.5t87.5 49.5t100.5 12.5q35 0 77 -5.5t72 -21.5v162q0 72 -32.5 96.5t-94.5 24.5q-78 0 -151.5 -13.5t-118.5 -31.5q-14 25 -18.5 50.5t-4.5 43.5q0 16 5.5 31.5t17.5 25.5q27 16 111 35.5t200 19.5q133 0 193.5 -55t60.5 -194v-109 v-177t-2 -172t-4 -157t-6 -131q-41 -25 -112.5 -47t-172.5 -22q-55 0 -108.5 8t-94 40.5t-65.5 95t-25 167.5zM123 1309q0 41 26.5 72.5t73.5 31.5q55 0 79 -28.5t24 -75.5q0 -45 -28 -75t-75 -30q-55 0 -77.5 28t-22.5 77zM233 295q0 -55 9.5 -90t27 -54.5t42 -25.5 t55.5 -6q35 0 64.5 10t43.5 25q2 25 3 64.5t2 84.5t1 92v88q-20 10 -46.5 14.5t-49.5 4.5q-31 0 -58.5 -7.5t-48 -30t-33 -62.5t-12.5 -107zM416 1309q0 41 25.5 72.5t72.5 31.5q55 0 79 -28.5t24 -75.5q0 -45 -27 -75t-76 -30q-55 0 -76.5 28t-21.5 77z" />
<glyph unicode="&#xe5;" horiz-adv-x="724" d="M59 291q0 106 23.5 171.5t61.5 102.5t87.5 49.5t100.5 12.5q35 0 77 -5.5t72 -21.5v162q0 72 -32.5 96.5t-94.5 24.5q-78 0 -151.5 -13.5t-118.5 -31.5q-14 25 -18.5 50.5t-4.5 43.5q0 16 5.5 31.5t17.5 25.5q27 16 111 35.5t200 19.5q133 0 193.5 -55t60.5 -194v-109 v-177t-2 -172t-4 -157t-6 -131q-41 -25 -112.5 -47t-172.5 -22q-55 0 -108.5 8t-94 40.5t-65.5 95t-25 167.5zM164 1350q0 104 54.5 152t150.5 48q98 0 144 -42t46 -156q0 -100 -52 -150.5t-150 -50.5q-94 0 -143.5 42t-49.5 157zM233 295q0 -55 9.5 -90t27 -54.5t42 -25.5 t55.5 -6q35 0 64.5 10t43.5 25q2 25 3 64.5t2 84.5t1 92v88q-20 10 -46.5 14.5t-49.5 4.5q-31 0 -58.5 -7.5t-48 -30t-33 -62.5t-12.5 -107zM283 1348q0 -84 76 -84q39 0 61.5 20.5t22.5 67.5q0 84 -72 84q-41 0 -64.5 -20.5t-23.5 -67.5z" />
<glyph unicode="&#xe6;" horiz-adv-x="1189" d="M59 305q0 106 23.5 174t60.5 107t85 53t98 14q39 0 82 -5t73 -21v147q0 72 -39 96.5t-100 24.5q-78 0 -142.5 -14.5t-113.5 -40.5q-16 27 -19.5 58.5t-3.5 41.5q0 16 7.5 29.5t15.5 19.5q29 18 105.5 36.5t211.5 18.5q82 0 131.5 -26.5t69.5 -87.5q47 72 111.5 93 t138.5 21q260 0 260 -325q0 -70 -5 -142.5t-17 -127.5q-96 -12 -183 -13q-78 0 -141 7.5t-104 15.5q0 -106 11 -169t32.5 -95.5t54.5 -42t76 -9.5q76 0 137 17.5t112 46.5q8 -25 11.5 -70t3.5 -80q0 -10 -22.5 -23.5t-61.5 -24.5t-90 -19t-109 -8q-63 0 -113.5 11t-87.5 46 q-43 -25 -105 -41t-161 -16q-55 0 -108.5 7t-94 38.5t-65.5 97t-25 180.5zM233 305q0 -63 9.5 -100t27 -56.5t41 -24.5t54.5 -5t67.5 8t48.5 25v360q-23 8 -48 12t-48 4q-31 0 -58.5 -9t-48 -33.5t-33 -68.5t-12.5 -112zM668 594q39 -10 92 -18.5t108 -8.5q37 0 74 6 q6 29 8 64t2 63q-2 111 -25 155t-91 44q-31 0 -58.5 -13.5t-50 -48t-38 -94t-21.5 -149.5z" />
<glyph unicode="&#xe7;" horiz-adv-x="641" d="M63 489q0 184 34 294t87.5 168.5t119 75.5t128.5 17q72 0 121 -25.5t49 -66.5q0 -16 -4 -40.5t-14 -51.5q-25 14 -64 25.5t-80 11.5q-37 0 -72.5 -12.5t-64.5 -54.5t-47 -122.5t-18 -218.5q0 -109 11 -178t33.5 -110t56.5 -57.5t81 -16.5q49 0 92 15.5t70 31.5 q8 -29 12 -49.5t4 -40.5q0 -37 -49 -65.5t-131 -36.5l-21 -101h35q37 0 68.5 -29.5t31.5 -101.5q0 -80 -46 -126t-117 -46q-25 0 -45.5 4t-36.5 8q-18 6 -33 13q4 18 8 37q4 14 8 28.5t11 18.5q10 10 33.5 -5.5t56.5 -15.5q66 0 65 70q0 39 -16.5 53t-44.5 14 q-20 0 -35.5 -2t-26.5 -4q-12 -2 -22 -4l35 189q-63 4 -111.5 27.5t-82.5 80.5t-51.5 153.5t-17.5 245.5z" />
<glyph unicode="&#xe8;" horiz-adv-x="739" d="M63 459q0 193 32 308.5t82 177t115.5 80.5t133.5 19q260 0 260 -329q0 -68 -5 -139.5t-17 -126.5q-53 -10 -112.5 -16.5t-118 -10.5t-110 -5t-87.5 -1q2 -82 15 -135.5t35.5 -84t57.5 -43t82 -12.5q61 0 120.5 17.5t112.5 46.5q8 -23 11.5 -55.5t3.5 -57.5t-22.5 -45 t-61.5 -35.5t-90 -23.5t-109 -8q-72 0 -132 18t-103 70.5t-68 146.5t-25 244zM168 1376q2 18 9 41t17.5 41.5t23.5 31.5t28 13q6 0 43 -28.5t82 -68.5t88 -81t59 -63q-8 -27 -16 -48q-8 -16 -20.5 -30.5t-26.5 -14.5q-6 0 -47 27t-90.5 62.5t-93.5 69.5t-56 48zM238 551 h65.5t74.5 3t73.5 7t62.5 12q6 29 8 62t2 61q-2 111 -26 157t-90 46q-31 0 -60 -15.5t-52.5 -55.5t-38.5 -106.5t-19 -170.5z" />
<glyph unicode="&#xe9;" horiz-adv-x="739" d="M63 459q0 193 32 308.5t82 177t115.5 80.5t133.5 19q260 0 260 -329q0 -68 -5 -139.5t-17 -126.5q-53 -10 -112.5 -16.5t-118 -10.5t-110 -5t-87.5 -1q2 -82 15 -135.5t35.5 -84t57.5 -43t82 -12.5q61 0 120.5 17.5t112.5 46.5q8 -23 11.5 -55.5t3.5 -57.5t-22.5 -45 t-61.5 -35.5t-90 -23.5t-109 -8q-72 0 -132 18t-103 70.5t-68 146.5t-25 244zM238 551h65.5t74.5 3t73.5 7t62.5 12q6 29 8 62t2 61q-2 111 -26 157t-90 46q-31 0 -60 -15.5t-52.5 -55.5t-38.5 -106.5t-19 -170.5zM311 1260q35 39 80 81.5t86 77.5t71.5 57.5t36.5 22.5 q14 0 27.5 -12t23 -31.5t16.5 -41t9 -40.5q-12 -14 -49 -42.5t-81 -61.5t-87 -62t-70 -43q-14 0 -25 14.5t-20 32.5q-10 20 -18 48z" />
<glyph unicode="&#xea;" horiz-adv-x="739" d="M63 459q0 193 32 308.5t82 177t115.5 80.5t133.5 19q260 0 260 -329q0 -68 -5 -139.5t-17 -126.5q-53 -10 -112.5 -16.5t-118 -10.5t-110 -5t-87.5 -1q2 -82 15 -135.5t35.5 -84t57.5 -43t82 -12.5q61 0 120.5 17.5t112.5 46.5q8 -23 11.5 -55.5t3.5 -57.5t-22.5 -45 t-61.5 -35.5t-90 -23.5t-109 -8q-72 0 -132 18t-103 70.5t-68 146.5t-25 244zM147 1219l231 251q12 6 35 7q27 0 51 -25q55 -55 99 -104q37 -41 68.5 -80t31.5 -51q0 -23 -37 -36.5t-82 -13.5q-31 33 -57 62q-23 25 -44.5 51.5t-31.5 46.5q-35 -45 -63 -80 q-27 -29 -51.5 -53.5t-38.5 -24.5q-43 0 -70 13.5t-41 36.5zM238 551h65.5t74.5 3t73.5 7t62.5 12q6 29 8 62t2 61q-2 111 -26 157t-90 46q-31 0 -60 -15.5t-52.5 -55.5t-38.5 -106.5t-19 -170.5z" />
<glyph unicode="&#xeb;" horiz-adv-x="739" d="M63 459q0 193 32 308.5t82 177t115.5 80.5t133.5 19q260 0 260 -329q0 -68 -5 -139.5t-17 -126.5q-53 -10 -112.5 -16.5t-118 -10.5t-110 -5t-87.5 -1q2 -82 15 -135.5t35.5 -84t57.5 -43t82 -12.5q61 0 120.5 17.5t112.5 46.5q8 -23 11.5 -55.5t3.5 -57.5t-22.5 -45 t-61.5 -35.5t-90 -23.5t-109 -8q-72 0 -132 18t-103 70.5t-68 146.5t-25 244zM166 1309q0 41 26.5 72.5t73.5 31.5q55 0 79 -28.5t24 -75.5q0 -45 -28 -75t-75 -30q-55 0 -77.5 28t-22.5 77zM238 551h65.5t74.5 3t73.5 7t62.5 12q6 29 8 62t2 61q-2 111 -26 157t-90 46 q-31 0 -60 -15.5t-52.5 -55.5t-38.5 -106.5t-19 -170.5zM459 1309q0 41 25.5 72.5t72.5 31.5q55 0 79 -28.5t24 -75.5q0 -45 -27 -75t-76 -30q-55 0 -76.5 28t-21.5 77z" />
<glyph unicode="&#xec;" horiz-adv-x="358" d="M-57 1376q2 18 9 41t17.5 41.5t23.5 31.5t28 13q6 0 43 -28.5t82 -68.5t88 -81t59 -63q-8 -27 -16 -48q-8 -16 -20.5 -30.5t-26.5 -14.5q-6 0 -47 27t-90.5 62.5t-93.5 69.5t-56 48zM94 0v948q0 29 7.5 44.5t26.5 22.5t52 8t84 1v-991q0 -12 -3 -19.5t-19.5 -10.5t-50 -3 h-97.5z" />
<glyph unicode="&#xed;" horiz-adv-x="358" d="M86 1260q35 39 80 81.5t86 77.5t71.5 57.5t36.5 22.5q14 0 27.5 -12t23 -31.5t16.5 -41t9 -40.5q-12 -14 -49 -42.5t-81 -61.5t-87 -62t-70 -43q-14 0 -25 14.5t-20 32.5q-10 20 -18 48zM94 0v948q0 29 7.5 44.5t26.5 22.5t52 8t84 1v-991q0 -12 -3 -19.5t-19.5 -10.5 t-50 -3h-97.5z" />
<glyph unicode="&#xee;" horiz-adv-x="358" d="M-76 1219l231 251q12 6 35 7q27 0 51 -25q55 -55 99 -104q37 -41 68.5 -80t31.5 -51q0 -23 -37 -36.5t-82 -13.5q-31 33 -57 62q-23 25 -44.5 51.5t-31.5 46.5q-35 -45 -63 -80q-27 -29 -51.5 -53.5t-38.5 -24.5q-43 0 -70 13.5t-41 36.5zM94 0v948q0 29 7.5 44.5 t26.5 22.5t52 8t84 1v-991q0 -12 -3 -19.5t-19.5 -10.5t-50 -3h-97.5z" />
<glyph unicode="&#xef;" horiz-adv-x="358" d="M-57 1309q0 41 26.5 72.5t73.5 31.5q55 0 79 -28.5t24 -75.5q0 -45 -28 -75t-75 -30q-55 0 -77.5 28t-22.5 77zM94 0v948q0 29 7.5 44.5t26.5 22.5t52 8t84 1v-991q0 -12 -3 -19.5t-19.5 -10.5t-50 -3h-97.5zM236 1309q0 41 25.5 72.5t72.5 31.5q55 0 79 -28.5t24 -75.5 q0 -45 -27 -75t-76 -30q-55 0 -76.5 28t-21.5 77z" />
<glyph unicode="&#xf0;" horiz-adv-x="870" d="M90 526q0 254 89 385t239 131q111 0 180 -59q-18 72 -46 132.5t-65 115.5l-192 -76q-29 72 -37 105.5t14 44.5l119 45q-25 25 -51.5 49t-54.5 49q18 35 52 55.5t69 20.5q16 0 33.5 -6.5t27.5 -20.5q23 -20 45.5 -40.5t42.5 -43.5l141 55q29 -72 37 -104.5t-14 -42.5 l-72 -29q80 -131 121 -303t41 -397q0 -123 -13.5 -234.5t-51 -195.5t-106.5 -133t-179 -49q-92 0 -162 28.5t-116 94t-68.5 169t-22.5 254.5zM262 500q0 -199 50 -290t143 -91q63 0 100 37t55.5 101.5t23.5 148.5t5 180q0 57 -3 108t-7 99q-35 53 -75 77.5t-91 24.5 t-89 -30.5t-62.5 -84t-37 -126t-12.5 -154.5z" />
<glyph unicode="&#xf1;" horiz-adv-x="782" d="M92 0v975q31 12 70 25.5t82 22.5t87 15t85 6q162 0 225.5 -62t63.5 -212v-737q0 -12 -3.5 -19.5t-19.5 -10.5t-51 -3h-99v721q0 98 -22.5 138t-99.5 40q-33 0 -75 -9t-77 -28v-829q0 -12 -3 -19.5t-19.5 -10.5t-49 -3h-94.5zM104 1278q53 86 114.5 120t116.5 34 q33 0 53.5 -15.5t38 -33t37 -33t50.5 -15.5q37 0 57 12.5t32.5 27t21.5 26.5t22 12q12 0 23.5 -15.5t19.5 -31.5q8 -20 16 -45q-4 -8 -21.5 -31.5t-47 -49.5t-68.5 -45t-86 -19q-41 0 -63.5 15t-39 33.5t-32 34t-43.5 15.5q-27 0 -45.5 -12.5t-31.5 -27.5t-23.5 -27.5 t-20.5 -12.5q-16 0 -31.5 12.5t-25.5 28.5q-13 18 -23 43z" />
<glyph unicode="&#xf2;" horiz-adv-x="753" d="M49 512q0 281 89 406.5t251 125.5q80 0 140.5 -23.5t99.5 -83.5t58.5 -161.5t19.5 -257.5q0 -287 -86 -412.5t-250 -125.5q-80 0 -139.5 18t-100.5 74.5t-61.5 162t-20.5 277.5zM143 1376q2 18 9 41t17.5 41.5t23.5 31.5t28 13q6 0 43 -28.5t82 -68.5t88 -81t59 -63 q-8 -27 -16 -48q-8 -16 -20.5 -30.5t-26.5 -14.5q-6 0 -47 27t-90.5 62.5t-93.5 69.5t-56 48zM229 508q0 -127 9.5 -203t28 -117t46 -54t62.5 -13q33 0 60.5 16.5t48 61.5t31.5 120.5t11 196.5q0 123 -9 197.5t-26.5 115.5t-44 55.5t-63.5 14.5q-35 0 -62.5 -16.5t-48 -59.5 t-32 -119.5t-11.5 -195.5z" />
<glyph unicode="&#xf3;" horiz-adv-x="753" d="M49 512q0 281 89 406.5t251 125.5q80 0 140.5 -23.5t99.5 -83.5t58.5 -161.5t19.5 -257.5q0 -287 -86 -412.5t-250 -125.5q-80 0 -139.5 18t-100.5 74.5t-61.5 162t-20.5 277.5zM229 508q0 -127 9.5 -203t28 -117t46 -54t62.5 -13q33 0 60.5 16.5t48 61.5t31.5 120.5 t11 196.5q0 123 -9 197.5t-26.5 115.5t-44 55.5t-63.5 14.5q-35 0 -62.5 -16.5t-48 -59.5t-32 -119.5t-11.5 -195.5zM289 1260q35 39 80 81.5t86 77.5t71.5 57.5t36.5 22.5q14 0 27.5 -12t23 -31.5t16.5 -41t9 -40.5q-12 -14 -49 -42.5t-81 -61.5t-87 -62t-70 -43 q-14 0 -25 14.5t-20 32.5q-10 20 -18 48z" />
<glyph unicode="&#xf4;" horiz-adv-x="753" d="M49 512q0 281 89 406.5t251 125.5q80 0 140.5 -23.5t99.5 -83.5t58.5 -161.5t19.5 -257.5q0 -287 -86 -412.5t-250 -125.5q-80 0 -139.5 18t-100.5 74.5t-61.5 162t-20.5 277.5zM125 1219l231 251q12 6 35 7q27 0 51 -25q55 -55 99 -104q37 -41 68.5 -80t31.5 -51 q0 -23 -37 -36.5t-82 -13.5q-31 33 -57 62q-23 25 -44.5 51.5t-31.5 46.5q-35 -45 -63 -80q-27 -29 -51.5 -53.5t-38.5 -24.5q-43 0 -70 13.5t-41 36.5zM229 508q0 -127 9.5 -203t28 -117t46 -54t62.5 -13q33 0 60.5 16.5t48 61.5t31.5 120.5t11 196.5q0 123 -9 197.5 t-26.5 115.5t-44 55.5t-63.5 14.5q-35 0 -62.5 -16.5t-48 -59.5t-32 -119.5t-11.5 -195.5z" />
<glyph unicode="&#xf5;" horiz-adv-x="753" d="M49 512q0 281 89 406.5t251 125.5q80 0 140.5 -23.5t99.5 -83.5t58.5 -161.5t19.5 -257.5q0 -287 -86 -412.5t-250 -125.5q-80 0 -139.5 18t-100.5 74.5t-61.5 162t-20.5 277.5zM84 1278q53 86 114.5 120t116.5 34q33 0 53.5 -15.5t38 -33t37 -33t50.5 -15.5 q37 0 57 12.5t32.5 27t21.5 26.5t22 12q12 0 23.5 -15.5t19.5 -31.5q8 -20 16 -45q-4 -8 -21.5 -31.5t-47 -49.5t-68.5 -45t-86 -19q-41 0 -63.5 15t-39 33.5t-32 34t-43.5 15.5q-27 0 -45.5 -12.5t-31.5 -27.5t-23.5 -27.5t-20.5 -12.5q-16 0 -31.5 12.5t-25.5 28.5 q-13 18 -23 43zM229 508q0 -127 9.5 -203t28 -117t46 -54t62.5 -13q33 0 60.5 16.5t48 61.5t31.5 120.5t11 196.5q0 123 -9 197.5t-26.5 115.5t-44 55.5t-63.5 14.5q-35 0 -62.5 -16.5t-48 -59.5t-32 -119.5t-11.5 -195.5z" />
<glyph unicode="&#xf6;" horiz-adv-x="753" d="M49 512q0 281 89 406.5t251 125.5q80 0 140.5 -23.5t99.5 -83.5t58.5 -161.5t19.5 -257.5q0 -287 -86 -412.5t-250 -125.5q-80 0 -139.5 18t-100.5 74.5t-61.5 162t-20.5 277.5zM143 1309q0 41 26.5 72.5t73.5 31.5q55 0 79 -28.5t24 -75.5q0 -45 -28 -75t-75 -30 q-55 0 -77.5 28t-22.5 77zM229 508q0 -127 9.5 -203t28 -117t46 -54t62.5 -13q33 0 60.5 16.5t48 61.5t31.5 120.5t11 196.5q0 123 -9 197.5t-26.5 115.5t-44 55.5t-63.5 14.5q-35 0 -62.5 -16.5t-48 -59.5t-32 -119.5t-11.5 -195.5zM436 1309q0 41 25.5 72.5t72.5 31.5 q55 0 79 -28.5t24 -75.5q0 -45 -27 -75t-76 -30q-55 0 -76.5 28t-21.5 77z" />
<glyph unicode="&#xf7;" d="M70 504q0 78 4 111.5t30 33.5h682q0 -78 -4 -111.5t-28 -33.5h-684zM324 268q0 43 26.5 75t73.5 32q57 0 80.5 -30t23.5 -77q0 -43 -27.5 -73.5t-76.5 -30.5q-55 0 -77.5 28.5t-22.5 75.5zM324 874q0 43 26.5 75t73.5 32q57 0 80.5 -29.5t23.5 -77.5q0 -43 -27.5 -73.5 t-76.5 -30.5q-55 0 -77.5 27.5t-22.5 76.5z" />
<glyph unicode="&#xf8;" horiz-adv-x="843" d="M35 16q0 4 10 23.5t23.5 45.5t30 53.5l28.5 47.5q-16 59 -23.5 138t-7.5 188q0 281 89 406.5t251 125.5q72 0 128.5 -19t97.5 -67q23 41 42 71t27 40q25 -8 47 -18q16 -10 31.5 -21.5t15.5 -28.5q0 -6 -9 -26.5t-23.5 -48t-32 -59t-33.5 -58.5q29 -115 29 -291 q0 -143 -21.5 -244.5t-63.5 -167t-104.5 -96t-142.5 -30.5q-76 0 -134.5 15t-99.5 62q-20 -37 -39.5 -69.5t-23.5 -40.5q-25 4 -58.5 22.5t-33.5 46.5zM279 431q0 -36 4 -66l258 460q-16 43 -44 58.5t-65 15.5q-35 0 -63.5 -16.5t-48 -59.5t-30.5 -119.5t-11 -195.5v-77z M307 207q18 -53 47 -69.5t70 -16.5q33 0 60.5 16.5t48 61.5t31.5 120.5t11 196.5q0 88 -6 154q-31 -53 -66.5 -118t-71.5 -128.5t-68.5 -120.5t-55.5 -96z" />
<glyph unicode="&#xf9;" horiz-adv-x="798" d="M90 319v670q0 12 3 19.5t18.5 10.5t50.5 4t100 1v-719q0 -100 26.5 -140t110.5 -40q29 0 67 7t71 30v827q0 12 3 19.5t18 10.5t49 4t95 1v-971q-59 -33 -140 -53t-165 -20q-92 0 -151.5 20t-94 63t-48 106.5t-13.5 149.5zM162 1376q2 18 9 41t17.5 41.5t23.5 31.5t28 13 q6 0 43 -28.5t82 -68.5t88 -81t59 -63q-8 -27 -16 -48q-8 -16 -20.5 -30.5t-26.5 -14.5q-6 0 -47 27t-90.5 62.5t-93.5 69.5t-56 48z" />
<glyph unicode="&#xfa;" horiz-adv-x="798" d="M90 319v670q0 12 3 19.5t18.5 10.5t50.5 4t100 1v-719q0 -100 26.5 -140t110.5 -40q29 0 67 7t71 30v827q0 12 3 19.5t18 10.5t49 4t95 1v-971q-59 -33 -140 -53t-165 -20q-92 0 -151.5 20t-94 63t-48 106.5t-13.5 149.5zM307 1260q35 39 80 81.5t86 77.5t71.5 57.5 t36.5 22.5q14 0 27.5 -12t23 -31.5t16.5 -41t9 -40.5q-12 -14 -49 -42.5t-81 -61.5t-87 -62t-70 -43q-14 0 -25 14.5t-20 32.5q-10 20 -18 48z" />
<glyph unicode="&#xfb;" horiz-adv-x="798" d="M90 319v670q0 12 3 19.5t18.5 10.5t50.5 4t100 1v-719q0 -100 26.5 -140t110.5 -40q29 0 67 7t71 30v827q0 12 3 19.5t18 10.5t49 4t95 1v-971q-59 -33 -140 -53t-165 -20q-92 0 -151.5 20t-94 63t-48 106.5t-13.5 149.5zM143 1219l231 251q12 6 35 7q27 0 51 -25 q55 -55 99 -104q37 -41 68.5 -80t31.5 -51q0 -23 -37 -36.5t-82 -13.5q-31 33 -57 62q-23 25 -44.5 51.5t-31.5 46.5q-35 -45 -63 -80q-27 -29 -51.5 -53.5t-38.5 -24.5q-43 0 -70 13.5t-41 36.5z" />
<glyph unicode="&#xfc;" horiz-adv-x="798" d="M90 319v670q0 12 3 19.5t18.5 10.5t50.5 4t100 1v-719q0 -100 26.5 -140t110.5 -40q29 0 67 7t71 30v827q0 12 3 19.5t18 10.5t49 4t95 1v-971q-59 -33 -140 -53t-165 -20q-92 0 -151.5 20t-94 63t-48 106.5t-13.5 149.5zM162 1309q0 41 26.5 72.5t73.5 31.5 q55 0 79 -28.5t24 -75.5q0 -45 -28 -75t-75 -30q-55 0 -77.5 28t-22.5 77zM455 1309q0 41 25.5 72.5t72.5 31.5q55 0 79 -28.5t24 -75.5q0 -45 -27 -75t-76 -30q-55 0 -76.5 28t-21.5 77z" />
<glyph unicode="&#xfd;" horiz-adv-x="729" d="M-8 -315q0 23 6 50t18 44q20 -14 57.5 -23.5t71.5 -9.5q47 0 87 47t63 174l-246 1012q-4 16 -4 25.5t15.5 13.5t50 5t100.5 1l111 -487q12 -57 21 -117t16.5 -111t11.5 -88t6 -47q0 6 4 42t10 87t15.5 113.5t19.5 122.5l90 436q2 18 7 28.5t22.5 14.5t52.5 5t98 1 l-252 -1079q-23 -98 -49 -163t-60 -104.5t-78 -56t-99 -16.5q-92 0 -129 22.5t-37 57.5zM281 1260q35 39 80 81.5t86 77.5t71.5 57.5t36.5 22.5q14 0 27.5 -12t23 -31.5t16.5 -41t9 -40.5q-12 -14 -49 -42.5t-81 -61.5t-87 -62t-70 -43q-14 0 -25 14.5t-20 32.5 q-10 20 -18 48z" />
<glyph unicode="&#xfe;" horiz-adv-x="784" d="M94 -340v1770q0 29 7.5 44t25.5 22t51 8t82 1v-477q33 6 65.5 10t67.5 4q76 0 137.5 -19t105.5 -67.5t67.5 -131.5t23.5 -210q0 -205 -31.5 -329.5t-79 -192t-101.5 -90t-99 -22.5q-57 0 -94 15t-62 38v-430q-41 -12 -98 -13q-43 0 -55.5 13.5t-12.5 56.5zM260 180 q18 -35 46 -46t59 -11q25 0 55.5 15.5t58 65.5t46 144t18.5 252q0 96 -10.5 154.5t-31 90.5t-50 42t-68.5 10q-68 0 -123 -43v-674z" />
<glyph unicode="&#xff;" horiz-adv-x="729" d="M-8 -315q0 23 6 50t18 44q20 -14 57.5 -23.5t71.5 -9.5q47 0 87 47t63 174l-246 1012q-4 16 -4 25.5t15.5 13.5t50 5t100.5 1l111 -487q12 -57 21 -117t16.5 -111t11.5 -88t6 -47q0 6 4 42t10 87t15.5 113.5t19.5 122.5l90 436q2 18 7 28.5t22.5 14.5t52.5 5t98 1 l-252 -1079q-23 -98 -49 -163t-60 -104.5t-78 -56t-99 -16.5q-92 0 -129 22.5t-37 57.5zM135 1309q0 41 26.5 72.5t73.5 31.5q55 0 79 -28.5t24 -75.5q0 -45 -28 -75t-75 -30q-55 0 -77.5 28t-22.5 77zM428 1309q0 41 25.5 72.5t72.5 31.5q55 0 79 -28.5t24 -75.5 q0 -45 -27 -75t-76 -30q-55 0 -76.5 28t-21.5 77z" />
<glyph unicode="&#x152;" horiz-adv-x="1210" d="M55 723q0 201 22.5 340t71 225t121 125t172.5 39q74 0 131.5 -19.5t98.5 -64.5v31q0 8 4 16q4 6 11 12.5t20 6.5h462v-81t-3 -45.5t-9 -19.5t-18 -4h-328v-428h309v-77.5t-3 -47t-9 -23t-18 -6.5h-279v-552h350v-83t-3 -44.5t-9 -18.5t-19 -4h-458v82q-86 -100 -248 -100 q-98 0 -169 33.5t-115 118.5t-64.5 227.5t-20.5 361.5zM242 684q0 -143 9 -244.5t30.5 -167t58.5 -96.5t92 -31t92 32t58.5 102.5t31 180t9.5 267.5q0 154 -7.5 261.5t-28 176t-56 99t-91.5 30.5q-53 0 -91 -32.5t-61.5 -106.5t-34.5 -189.5t-11 -281.5z" />
<glyph unicode="&#x153;" horiz-adv-x="1226" d="M55 512q0 281 89 405.5t249 124.5q84 0 144.5 -25.5t101.5 -90.5q51 76 121.5 97t146.5 21q260 0 260 -325q0 -70 -5 -142.5t-17 -127.5q-53 -10 -112.5 -17.5t-118 -10.5t-109.5 -4t-88 -1q2 -92 14 -146.5t33.5 -83t53.5 -37t73 -8.5q74 0 135 17.5t115 46.5 q8 -23 11 -68t3 -80q0 -10 -22.5 -23.5t-61.5 -25.5t-90 -20t-109 -8q-82 0 -147.5 21.5t-108.5 88.5q-80 -111 -235 -110q-80 0 -141.5 18t-102.5 74.5t-61.5 162t-20.5 277.5zM236 508q0 -127 9 -203t27.5 -117t46 -54t62.5 -13q33 0 60.5 16.5t48 61.5t31.5 120.5 t11 196.5q0 123 -9 197.5t-26.5 115.5t-44 55.5t-63.5 14.5q-35 0 -62.5 -16.5t-48 -59.5t-31.5 -119.5t-11 -195.5zM717 551h67.5t74.5 3t74 7t62 12q6 29 8.5 64t2.5 63q-2 111 -26.5 155t-90.5 44q-31 0 -60.5 -14.5t-52 -53t-39 -106.5t-20.5 -174z" />
<glyph unicode="&#x178;" horiz-adv-x="745" d="M10 1422q2 5 20.5 8.5t58.5 3.5h112l82 -281q14 -49 31.5 -113.5t31.5 -127t24.5 -113.5t12.5 -74q2 23 13.5 74t25.5 113.5t31.5 127t31.5 113.5l72 250q4 12 8 18t21.5 9.5t52.5 3.5h98l-276 -842v-559q0 -12 -2 -19.5t-17.5 -10.5t-49.5 -3h-97v580l-283 827 q-4 10 -2 15zM139 1719q0 41 26.5 72.5t73.5 31.5q55 0 79 -28.5t24 -75.5q0 -45 -28 -75t-75 -30q-55 0 -77.5 28t-22.5 77zM432 1719q0 41 25.5 72.5t72.5 31.5q55 0 79 -28.5t24 -75.5q0 -45 -27 -75t-76 -30q-55 0 -76.5 28t-21.5 77z" />
<glyph unicode="&#x2c6;" horiz-adv-x="516" d="M0 1219l231 251q12 6 35 7q27 0 51 -25q55 -55 99 -104q37 -41 68.5 -80t31.5 -51q0 -23 -37 -36.5t-82 -13.5q-31 33 -57 62q-23 25 -44.5 51.5t-31.5 46.5q-35 -45 -63 -80q-27 -29 -51.5 -53.5t-38.5 -24.5q-43 0 -70 13.5t-41 36.5z" />
<glyph unicode="&#x2dc;" horiz-adv-x="602" d="M0 1278q53 86 114.5 120t116.5 34q33 0 53.5 -15.5t38 -33t37 -33t50.5 -15.5q37 0 57 12.5t32.5 27t21.5 26.5t22 12q12 0 23.5 -15.5t19.5 -31.5q8 -20 16 -45q-4 -8 -21.5 -31.5t-47 -49.5t-68.5 -45t-86 -19q-41 0 -63.5 15t-39 33.5t-32 34t-43.5 15.5 q-27 0 -45.5 -12.5t-31.5 -27.5t-23.5 -27.5t-20.5 -12.5q-16 0 -31.5 12.5t-25.5 28.5q-13 18 -23 43z" />
<glyph unicode="&#x2000;" horiz-adv-x="980" />
<glyph unicode="&#x2001;" horiz-adv-x="1960" />
<glyph unicode="&#x2002;" horiz-adv-x="980" />
<glyph unicode="&#x2003;" horiz-adv-x="1960" />
<glyph unicode="&#x2004;" horiz-adv-x="653" />
<glyph unicode="&#x2005;" horiz-adv-x="490" />
<glyph unicode="&#x2006;" horiz-adv-x="326" />
<glyph unicode="&#x2007;" horiz-adv-x="326" />
<glyph unicode="&#x2008;" horiz-adv-x="245" />
<glyph unicode="&#x2009;" horiz-adv-x="392" />
<glyph unicode="&#x200a;" horiz-adv-x="108" />
<glyph unicode="&#x2010;" horiz-adv-x="569" d="M76 504q0 78 4 111.5t29 33.5h385q0 -78 -4.5 -111.5t-30.5 -33.5h-383z" />
<glyph unicode="&#x2011;" horiz-adv-x="569" d="M76 504q0 78 4 111.5t29 33.5h385q0 -78 -4.5 -111.5t-30.5 -33.5h-383z" />
<glyph unicode="&#x2012;" horiz-adv-x="569" d="M76 504q0 78 4 111.5t29 33.5h385q0 -78 -4.5 -111.5t-30.5 -33.5h-383z" />
<glyph unicode="&#x2013;" horiz-adv-x="868" d="M76 504q0 78 4 111.5t29 33.5h684q0 -78 -4.5 -111.5t-30.5 -33.5h-682z" />
<glyph unicode="&#x2014;" horiz-adv-x="1433" d="M12 504q0 78 4 111.5t29 33.5h1376q0 -78 -4 -111.5t-31 -33.5h-1374z" />
<glyph unicode="&#x2018;" horiz-adv-x="358" d="M70 1298q0 55 18 115t44 107t51.5 77.5t39.5 30.5q23 0 40.5 -10t25.5 -37q-33 -59 -40 -105t-11 -92q47 -28 47 -100q0 -45 -29 -75.5t-76 -30.5q-111 0 -110 120z" />
<glyph unicode="&#x2019;" horiz-adv-x="358" d="M70 1219q33 59 40 106t11 90q-47 29 -47 101q0 47 28.5 76.5t73.5 29.5q113 0 113 -121q0 -55 -18.5 -114.5t-44 -106.5t-51 -78t-40.5 -31q-23 0 -41 10.5t-24 37.5z" />
<glyph unicode="&#x201a;" horiz-adv-x="350" d="M70 -186q33 59 40 105t11 91q-47 29 -47 101q0 45 28.5 75.5t73.5 30.5q113 0 113 -121q0 -57 -18.5 -115.5t-44 -106.5t-51 -77.5t-40.5 -29.5q-23 0 -41 10t-24 37z" />
<glyph unicode="&#x201c;" horiz-adv-x="665" d="M70 1298q0 55 18 115t44 107t51.5 77.5t39.5 30.5q23 0 40.5 -10t25.5 -37q-33 -59 -40 -105t-11 -92q47 -28 47 -100q0 -45 -29 -75.5t-76 -30.5q-111 0 -110 120zM377 1298q0 55 18.5 115t44 107t51 77.5t39.5 30.5q23 0 41.5 -10t24.5 -37q-33 -59 -40 -105t-11 -92 q47 -28 47 -100q0 -45 -28.5 -75.5t-74.5 -30.5q-113 0 -112 120z" />
<glyph unicode="&#x201d;" horiz-adv-x="665" d="M70 1219q33 59 40 106t11 90q-47 29 -47 101q0 47 28.5 76.5t73.5 29.5q113 0 113 -121q0 -55 -18.5 -114.5t-44 -106.5t-51 -78t-40.5 -31q-23 0 -41 10.5t-24 37.5zM379 1219q31 59 38 106t11 90q-47 29 -47 101q0 47 28.5 76.5t75.5 29.5q113 0 113 -121 q0 -55 -18.5 -114.5t-44 -106.5t-52 -78t-41.5 -31q-23 0 -40 10.5t-23 37.5z" />
<glyph unicode="&#x201e;" horiz-adv-x="659" d="M70 -186q33 59 40 105t11 91q-47 29 -47 101q0 45 28.5 75.5t73.5 30.5q113 0 113 -121q0 -57 -18.5 -115.5t-44 -106.5t-51 -77.5t-40.5 -29.5q-23 0 -41 10t-24 37zM379 -186q31 59 38 105t11 91q-47 29 -47 101q0 45 28.5 75.5t75.5 30.5q113 0 113 -121 q0 -57 -18.5 -115.5t-44 -106.5t-52 -77.5t-41.5 -29.5q-23 0 -40 10t-23 37z" />
<glyph unicode="&#x2022;" horiz-adv-x="456" d="M84 582q0 63 39 110t110 47q84 0 119 -43t35 -114q0 -66 -41 -111t-113 -45q-84 0 -116.5 42t-32.5 114z" />
<glyph unicode="&#x2026;" horiz-adv-x="1069" d="M74 104q0 47 29.5 83t84.5 36q63 0 89 -32.5t26 -86.5q0 -49 -30.5 -82.5t-84.5 -33.5q-66 0 -90 30.5t-24 85.5zM420 104q0 47 29.5 83t84.5 36q63 0 89 -32.5t26 -86.5q0 -49 -30.5 -82.5t-84.5 -33.5q-66 0 -90 30.5t-24 85.5zM768 104q0 47 29.5 83t84.5 36 q63 0 89 -32.5t26 -86.5q0 -49 -30.5 -82.5t-84.5 -33.5q-66 0 -90 30.5t-24 85.5z" />
<glyph unicode="&#x202f;" horiz-adv-x="392" />
<glyph unicode="&#x2039;" horiz-adv-x="505" d="M37 512q0 12 12 42t33.5 67.5t47.5 83t54 90.5q66 104 150 229q25 0 43 -13.5t31 -29.5q14 -18 26 -41q0 -14 -10 -41t-27.5 -59.5t-39 -69.5t-44.5 -74q-53 -86 -120 -184q70 -98 122 -180q23 -35 45.5 -71t40 -68.5t27.5 -57t10 -39.5q-10 -27 -24 -49 q-12 -18 -32 -32.5t-42 -14.5q-84 123 -152 227q-29 45 -55.5 90t-48 83t-34.5 68t-13 44z" />
<glyph unicode="&#x203a;" horiz-adv-x="505" d="M66 96q0 14 10 39t27.5 57.5t40 68.5t44.5 71q53 82 123 180q-68 98 -121 184q-23 37 -44 74t-37.5 69.5t-26.5 59.5t-10 41q0 23 15 38t34 26q23 12 49 20q82 -125 149 -229q27 -45 54.5 -90.5t48 -83t34 -67.5t13.5 -42q0 -14 -13.5 -44t-35 -68t-48 -83t-55.5 -90 q-68 -104 -151 -227q-29 8 -51 23q-18 10 -33.5 28.5t-15.5 44.5z" />
<glyph unicode="&#x205f;" horiz-adv-x="490" />
<glyph unicode="&#x20ac;" d="M33 406q0 76 11 106.5t54 30.5h111v18v69t4 64h-180q0 76 11 108t54 32h129q20 131 62.5 210.5t93.5 123.5t109.5 58.5t113.5 14.5q57 0 96 -9t62.5 -21.5t34 -27t10.5 -24.5q0 -35 -7 -65.5t-20 -46.5q-16 10 -54 26.5t-81 16.5q-31 0 -65.5 -9.5t-67.5 -37t-59.5 -78 t-44.5 -131.5h292q0 -76 -11 -108t-54 -32h-246q-4 -29 -4 -60.5v-66.5v-24h248q0 -74 -11.5 -105.5t-54.5 -31.5h-176q8 -86 25.5 -138.5t43 -80t58.5 -36t72 -8.5q55 0 103 14.5t77 37.5q10 -16 17.5 -44t7.5 -63q0 -16 -17.5 -34.5t-49.5 -35t-76 -26.5t-95 -10 q-70 0 -129 15t-103 60t-74 128t-40 221h-180z" />
<glyph unicode="&#x2122;" horiz-adv-x="1030" d="M61 1354v61q0 12 9 17q4 2 10 2h389v-62q0 -12 -10 -16q-6 -2 -10 -2h-136v-553q0 -6 -1 -10.5t-9 -6.5t-24.5 -2h-49.5v572h-168zM520 782v633q0 4 2 8q4 10 19 11h57l90 -258q4 -16 11.5 -36l13.5 -36q8 -20 14 -41q6 20 12 41q4 16 10.5 34.5t10.5 32.5l82 244 q2 6 5 12.5t13 6.5h66v-633q0 -6 -1 -10.5t-9.5 -6.5t-26 -2h-49.5l2 228q0 23 2 55.5t5 67t5 65.5t4 49l-51 -164l-57 -151q-2 -8 -11 -8h-43l-59 159l-51 172q4 -49 8 -96q4 -41 6 -82t2 -67l2 -209q0 -14 -12 -16.5t-72 -2.5z" />
<glyph unicode="&#x25fc;" horiz-adv-x="1024" d="M0 0v1024h1024v-1024h-1024z" />
<glyph unicode="&#xfb03;" horiz-adv-x="1241" d="M20 883q0 49 1.5 77.5t5.5 42t12 17.5t24 4h99v141q0 115 32.5 182.5t82 102.5t105.5 44t101 9q59 0 111.5 -16.5t93.5 -40.5q53 41 121 54t137 13q113 0 174.5 -25.5t61.5 -74.5q0 -20 -5.5 -47t-13.5 -49q-41 20 -98 32.5t-115 12.5q-41 0 -78.5 -6t-66.5 -27.5 t-46.5 -63.5t-17.5 -114v-127h144q0 -49 -1 -77.5t-4 -42t-10.5 -17.5t-19.5 -4h-109v-850q0 -8 -4 -17q-8 -16 -28 -16h-134v883h-247v-850q0 -8 -4 -17q-8 -16 -31 -16h-131v883h-142zM328 1024h247v123q0 113 29 186q-25 14 -53.5 21.5t-67.5 7.5q-20 0 -46.5 -4 t-51.5 -21.5t-41 -53.5t-16 -99v-160zM977 0v948q0 29 7 44.5t26.5 22.5t52.5 8t84 1v-991q0 -12 -3 -19.5t-19.5 -10.5t-50.5 -3h-97z" />
<glyph unicode="&#xfb04;" horiz-adv-x="1261" d="M20 883q0 49 1.5 77.5t5.5 42t12 17.5t24 4h99v141q0 115 32.5 182.5t82 102.5t105.5 44t101 9q57 0 108.5 -15t92.5 -40q49 41 106.5 53t106.5 12q96 0 163.5 -23.5t106.5 -45.5v-1411q0 -12 -3 -19.5t-18.5 -10.5t-49 -3h-97.5v1350q-16 6 -37.5 10t-52.5 4 q-29 0 -58.5 -5t-54 -24.5t-40 -58.5t-15.5 -105v-147h142q0 -49 -1 -77.5t-4.5 -42t-10.5 -17.5t-19 -4h-107v-850q0 -8 -4 -17q-8 -16 -28 -16h-134v883h-247v-850q0 -8 -4 -17q-8 -16 -31 -16h-131v883h-142zM328 1024h247v123q0 113 29 186q-25 14 -53.5 21.5t-67.5 7.5 q-20 0 -46.5 -4t-51.5 -21.5t-41 -53.5t-16 -99v-160z" />
</font>
</defs>
</svg>
