<?xml version="1.0" standalone="no"?>
<!DOCTYPE svg PUBLIC "-//W3C//DTD SVG 1.1//EN" "http://www.w3.org/Graphics/SVG/1.1/DTD/svg11.dtd" >
<svg xmlns="http://www.w3.org/2000/svg" xmlns:xlink="http://www.w3.org/1999/xlink" version="1.1">
<metadata></metadata>
<defs>
<font id="source_serif_probold" horiz-adv-x="1110" >
<font-face units-per-em="2048" ascent="1638" descent="-410" />
<missing-glyph horiz-adv-x="438" />
<glyph unicode="&#xfb01;" horiz-adv-x="1288" d="M45 850v121l137 16q16 139 61.5 220t114.5 151q70 70 188 109.5t259 39.5q111 0 192.5 -41t96.5 -133q-2 -57 -37 -96t-101 -39q-53 0 -97 36t-87 118l-43 69q-57 -29 -102 -73q-37 -37 -63.5 -81t-41 -109.5t-18.5 -168.5h405l203 33l35 -23l-6 -290v-279v-150t2 -163 l102 -21v-96h-545v96l111 25q2 74 2 160v149v148q0 90 -1 150t-5 122h-303v-420q0 -76 1 -153.5t3 -155.5l119 -25v-96h-566v96l113 23q2 78 3 155.5t1 155.5v420h-133z" />
<glyph unicode="&#xfb02;" horiz-adv-x="1304" d="M45 850v121l137 16q16 137 53 221t113 158q72 72 168 106.5t189 34.5q66 0 126 -17t95 -60l198 57l33 -21l-8 -286v-750q0 -78 1 -156.5t3 -156.5l104 -21v-96h-542v96l104 23q2 78 3 155.5t1 155.5v807q-59 4 -109 38t-91 103l-13 21q-4 -2 -10 -8.5t-10 -10.5 q-55 -55 -74.5 -149t-15.5 -242h219v-139h-215v-420v-150.5t2 -150.5l137 -33v-96h-582v96l113 23q2 78 3 155.5t1 155.5v420h-133z" />
<glyph unicode="&#xfb03;" horiz-adv-x="1933" d="M45 850v121l137 16q16 145 58.5 231.5t105.5 149.5q61 59 152.5 99t191.5 40q82 0 149.5 -30.5t84.5 -110.5q0 -55 -30 -92t-95 -37q-119 0 -189 129l-18 27q-57 -57 -76.5 -149.5t-15.5 -254.5h327q16 139 61.5 219t115.5 150t187.5 109.5t258.5 39.5q111 0 192.5 -41 t96.5 -133q-2 -57 -37 -96t-100 -39q-53 0 -97.5 36t-87.5 118l-43 69q-57 -29 -102 -73q-37 -37 -63.5 -81t-41 -109.5t-18.5 -168.5h405l203 33l35 -23l-6 -290v-279v-150t2 -163l102 -21v-96h-544v96l110 25q2 74 2 160v149v148q0 90 -1 150t-5 122h-303v-420 q0 -76 1 -153.5t3 -155.5l119 -25v-96h-565v96l112 23q2 78 3 155.5t1 155.5v420h-319v-420v-150.5t2 -150.5l137 -33v-96h-582v96l113 23q2 78 3 155.5t1 155.5v420h-133z" />
<glyph unicode="&#xfb04;" horiz-adv-x="1951" d="M45 850v121l137 16q16 145 58.5 231.5t105.5 149.5q61 59 152.5 99t191.5 40q82 0 149.5 -30.5t84.5 -110.5q0 -55 -30 -92t-95 -37q-119 0 -189 129l-18 27q-57 -57 -76.5 -149.5t-15.5 -254.5h327q16 135 53.5 219t112.5 158q72 72 168 106.5t189 34.5q66 0 126 -17 t95 -60l198 57l33 -21l-8 -286v-750q0 -78 1 -156.5t3 -156.5l105 -21v-96h-543v96l104 23q2 78 3 155.5t1 155.5v807q-59 4 -109 38t-91 103l-13 21q-4 -2 -10 -8.5t-10 -10.5q-55 -55 -74.5 -149t-15.5 -242h219v-139h-215v-420v-150.5t2 -150.5l137 -33v-96h-581v96 l112 23q2 78 3 155.5t1 155.5v420h-319v-420v-150.5t2 -150.5l137 -33v-96h-582v96l113 23q2 78 3 155.5t1 155.5v420h-133z" />
<glyph horiz-adv-x="0" />
<glyph horiz-adv-x="682" />
<glyph unicode=" "  horiz-adv-x="438" />
<glyph unicode="&#x09;" horiz-adv-x="438" />
<glyph unicode="&#xa0;" horiz-adv-x="438" />
<glyph unicode="!" horiz-adv-x="710" d="M160 1174q0 96 53 145t141 49q90 0 143.5 -49t53.5 -145q0 -55 -18.5 -166t-71.5 -301l-51 -197h-109l-51 197q-53 193 -71.5 302t-18.5 165zM164 158q0 78 55 134t135 56q82 0 137.5 -56t55.5 -134q0 -80 -55.5 -134.5t-137.5 -54.5q-80 0 -135 54.5t-55 134.5z" />
<glyph unicode="&#x22;" horiz-adv-x="915" d="M82 1323q0 86 42 128t116 42q76 0 118.5 -42t42.5 -128q0 -47 -10 -106.5t-22.5 -111.5t-18.5 -81l-53 -215h-111l-53 215q-6 29 -18.5 81t-22.5 111.5t-10 106.5zM514 1323q0 86 42 128t116 42q76 0 118.5 -42t42.5 -128q0 -47 -10 -106.5t-22.5 -111.5t-18.5 -81 l-53 -215h-111l-53 215q-6 29 -18.5 81t-22.5 111.5t-10 106.5z" />
<glyph unicode="#" horiz-adv-x="1161" d="M39 326v223h221l33 217h-187v223h222l49 328h166l-49 -328h284l49 328h166l-49 -328h180v-223h-215l-32 -217h178v-223h-211l-49 -326h-168l49 326h-283l-49 -326h-166l49 326h-188zM426 549h285l32 217h-284z" />
<glyph unicode="$" d="M104 264q20 51 53 73.5t72 22.5q59 0 93 -30.5t49 -110.5l24 -131q23 -4 48.5 -6t54.5 -4v440l-15 6q-180 59 -276 159.5t-96 246.5q0 158 104 264t295 125v188h127v-186q156 -10 251 -85t105 -198q-8 -55 -43 -77.5t-71 -22.5q-51 0 -98.5 31.5t-63.5 136.5l-17 100 q-16 4 -31.5 4t-31.5 2v-419h2q215 -70 306 -174.5t91 -247.5q0 -156 -108.5 -264.5t-302.5 -131.5v-211h-127v205q-186 6 -289 85t-105 210zM365 1024q0 -70 33.5 -113t111.5 -75v366q-66 -16 -105.5 -59t-39.5 -119zM625 92q70 20 108.5 70.5t38.5 120.5q0 72 -31.5 113.5 t-115.5 76.5v-381z" />
<glyph unicode="%" horiz-adv-x="1789" d="M111 901q0 145 43 238.5t114.5 137.5t153.5 44t153.5 -44t115.5 -137.5t44 -238.5q0 -143 -44 -235.5t-115.5 -136.5t-153.5 -44t-153.5 44t-114.5 136.5t-43 235.5zM315 901q0 -141 14.5 -217t39 -103.5t53.5 -27.5q31 0 55.5 28.5t38.5 103.5t14 216q0 143 -14 218 t-38.5 103.5t-55.5 28.5q-29 0 -53.5 -27.5t-39 -103.5t-14.5 -219zM400 0l915 1350l96 -66l-915 -1350zM1057 397q0 145 43 238.5t114.5 137.5t153.5 44t153.5 -44t115.5 -137.5t44 -238.5q0 -143 -44 -235.5t-115.5 -136.5t-153.5 -44t-153.5 44t-114.5 136.5t-43 235.5z M1261 397q0 -141 14.5 -217t39 -103.5t53.5 -27.5q31 0 55.5 28.5t38.5 103.5t14 216q0 143 -14 218t-38.5 103.5t-55.5 28.5q-29 0 -53.5 -27.5t-39 -103.5t-14.5 -219z" />
<glyph unicode="&#x26;" horiz-adv-x="1476" d="M47 330q0 117 73 212t238 169q-2 4 -4 7t-6 5q-70 90 -96.5 169t-26.5 155q0 152 106.5 238.5t280.5 86.5q170 0 262.5 -72.5t92.5 -193.5q0 -102 -73 -179t-230 -145q29 -31 65.5 -71.5t85.5 -96.5q55 -61 101.5 -109t87.5 -93q47 84 76.5 163.5t49.5 180.5l-157 24v92 h452v-92l-143 -22q-39 -125 -88 -221.5t-121 -196.5q35 -37 71 -75t77 -81l200 -43l-16 -143q-72 -14 -114 -21.5t-87 -7.5q-90 0 -160.5 23.5t-140.5 83.5l-21.5 21.5t-21.5 19.5q-57 -59 -151.5 -103.5t-241.5 -44.5q-137 0 -230.5 49.5t-141.5 132t-48 179.5zM326 416 q0 -125 80.5 -200t199.5 -75q106 0 185 47q-51 55 -95.5 110.5t-85.5 104.5q-70 84 -117 142.5t-81 99.5q-45 -51 -65.5 -108.5t-20.5 -120.5zM471 1130q0 -43 15.5 -92t56.5 -110q14 -18 29.5 -38t37.5 -46q72 78 102.5 152.5t30.5 138.5q0 72 -35.5 111.5t-99.5 39.5 q-61 0 -99 -44t-38 -112z" />
<glyph unicode="'" horiz-adv-x="483" d="M82 1323q0 86 42 128t116 42q76 0 118.5 -42t42.5 -128q0 -47 -10 -106.5t-22.5 -111.5t-18.5 -81l-53 -215h-111l-53 215q-6 29 -18.5 81t-22.5 111.5t-10 106.5z" />
<glyph unicode="(" horiz-adv-x="772" d="M150 569q0 274 119.5 504t348.5 410l97 -84q-115 -141 -185.5 -270.5t-103.5 -264.5t-33 -295t33 -295t103.5 -264t185.5 -270l-97 -84q-229 180 -348.5 409.5t-119.5 503.5z" />
<glyph unicode=")" horiz-adv-x="772" d="M57 -260q115 141 185.5 270t103.5 264t33 295t-33 295t-103.5 264t-185.5 271l97 84q229 -180 349 -409.5t120 -504.5q0 -274 -120 -503.5t-349 -409.5z" />
<glyph unicode="*" horiz-adv-x="882" d="M25 1176q0 53 32.5 78.5t67.5 25.5q43 0 94 -27.5t121 -76.5l57 -37l-18 63q-41 139 -41 193q0 47 25.5 79.5t76.5 32.5q53 0 79 -32.5t26 -79.5q0 -33 -12.5 -81t-30.5 -112l-19 -63l58 37q80 57 131 79.5t84 22.5q37 0 67.5 -25.5t30.5 -78.5q0 -66 -69.5 -89.5 t-206.5 -27.5l-68 -2l55 -43q96 -74 133 -117t37 -90q0 -35 -28.5 -66.5t-71.5 -31.5q-63 0 -98 61t-74 172l-25 61l-22 -61q-43 -125 -82 -178t-92 -53q-45 0 -73 32.5t-28 65.5q0 51 45 97t129 108l54 43l-66 2q-145 0 -211.5 25.5t-66.5 93.5z" />
<glyph unicode="+" horiz-adv-x="1114" d="M61 571v181h402v413h188v-413h404v-181h-404v-424h-188v424h-402z" />
<glyph unicode="," horiz-adv-x="614" d="M37 -328q102 53 168.5 125t103.5 154l-71 37q-63 35 -89 81t-26 91q0 76 51 127t129 51q43 0 80 -12.5t74 -44.5q18 -47 24 -83t6 -83q0 -139 -64.5 -248t-161.5 -179.5t-195 -101.5z" />
<glyph unicode="-" horiz-adv-x="694" d="M82 428v184h530v-184h-530z" />
<glyph unicode="&#xad;" horiz-adv-x="694" d="M82 428v184h530v-184h-530z" />
<glyph unicode="." horiz-adv-x="614" d="M123 152q0 76 53 131t131 55t131.5 -55.5t53.5 -130.5q0 -76 -53.5 -129.5t-131.5 -53.5t-131 53.5t-53 129.5z" />
<glyph unicode="/" horiz-adv-x="792" d="M18 -328l547 1782h209l-547 -1782h-209z" />
<glyph unicode="0" d="M74 645q0 238 66.5 387.5t177 220t237.5 70.5t237.5 -70.5t179 -220t68.5 -387.5q0 -236 -68.5 -385t-179 -220t-237.5 -71t-237.5 71t-177 220.5t-66.5 384.5zM383 645q0 -229 22.5 -352t61.5 -170t88 -47t88 47t62.5 171t23.5 351q0 229 -23.5 353t-62.5 171.5 t-88 47.5t-88 -47.5t-61.5 -170.5t-22.5 -354z" />
<glyph unicode="1" d="M150 0v96l249 58q2 68 2 136v136v674l-200 -19v119l510 113l28 -21l-8 -291v-575v-135.5t2 -136.5l238 -58v-96h-821z" />
<glyph unicode="2" d="M98 979q4 113 69.5 189.5t172 115.5t233.5 39q150 0 243 -47t138 -127t45 -180q0 -98 -51 -190.5t-159.5 -188.5t-278.5 -213q-41 -29 -86.5 -59.5t-92.5 -65.5h695v-252h-920v182q72 70 140.5 137.5t129.5 131.5q98 98 163 180t97.5 162.5t32.5 173.5q0 119 -56 184.5 t-153 65.5h-25.5t-25.5 -3l-26 -145q-14 -106 -59.5 -140t-92.5 -34q-43 0 -79 22.5t-54 61.5z" />
<glyph unicode="3" d="M86 307q18 49 54 70.5t73 21.5q63 0 100 -38.5t52 -143.5l18 -137q12 -2 23.5 -3t23.5 -1q276 0 277 276q0 127 -67.5 194.5t-194.5 67.5h-72v115h59q117 0 183.5 60.5t66.5 193.5q0 117 -54 175.5t-155 58.5h-18t-21 -3l-20 -133q-12 -78 -54 -109.5t-98 -31.5 q-78 0 -114 66q6 113 62 182t147.5 102t195.5 33q227 0 339 -94t112 -234q0 -96 -67.5 -184t-223.5 -129q180 -33 255 -120t75 -220q0 -106 -60.5 -191t-174 -133.5t-275.5 -48.5q-213 0 -326 88t-121 250z" />
<glyph unicode="4" d="M43 274v187l596 852h227v-813h189v-226h-189v-274h-291v274h-532zM213 500h362v526z" />
<glyph unicode="5" d="M82 307q16 47 53 69.5t78 22.5q63 0 99 -38.5t49 -135.5l16 -139q18 -6 36.5 -8t41.5 -2q113 0 183.5 75.5t70.5 206.5q0 141 -65.5 216t-182.5 75q-51 0 -97 -6t-98 -16l-57 41l43 622h750v-252h-635l-19 -258q96 18 199 19q236 0 371 -103.5t135 -302.5 q0 -139 -71.5 -234.5t-193.5 -142.5t-278 -47q-197 0 -307.5 91.5t-120.5 246.5z" />
<glyph unicode="6" d="M57 522q0 158 64.5 295t182.5 244.5t280.5 175.5t359.5 86l12 -102q-231 -59 -362 -183.5t-178 -320.5q59 47 125.5 67.5t144.5 20.5q121 0 201 -50t119.5 -136.5t39.5 -192.5q0 -152 -71.5 -253t-183 -152.5t-232.5 -51.5q-150 0 -262.5 64.5t-176 188.5t-63.5 300z M391 471q0 -201 43 -298t119 -97q70 0 118 78.5t48 240.5q0 127 -43 199t-121 72q-39 0 -77 -12.5t-79 -41.5q-4 -33 -6 -68.5t-2 -72.5z" />
<glyph unicode="7" d="M109 1038v252h917v-155l-481 -1135h-301l-21 20l596 1018h-710z" />
<glyph unicode="8" d="M90 279q0 102 68.5 181t199.5 134q-244 135 -244 358q0 115 59.5 198t162 128t231.5 45q143 0 233.5 -41t134.5 -108.5t44 -147.5q0 -78 -54.5 -151.5t-193.5 -139.5q145 -74 219 -170t74 -225q0 -168 -131 -269.5t-365 -101.5q-219 0 -328.5 84.5t-109.5 225.5zM358 295 q0 -94 55.5 -156.5t139.5 -62.5q90 0 134 56t44 128q0 82 -56.5 147.5t-209.5 135.5q-57 -59 -82 -116.5t-25 -131.5zM387 1051q0 -43 18.5 -86t70.5 -87t150 -94q57 70 78 126.5t21 121.5q0 78 -44 130t-122 52q-68 0 -120 -43.5t-52 -119.5z" />
<glyph unicode="9" d="M57 885q0 135 67.5 233.5t179 151.5t240.5 53q244 0 374 -146.5t130 -406.5q0 -211 -103.5 -379t-295 -278.5t-459.5 -153.5l-20 104q244 78 367.5 193t160.5 307q-45 -33 -103.5 -50t-129.5 -17q-117 0 -209 45t-145.5 132t-53.5 212zM381 915q0 -139 54 -212.5 t146 -73.5q78 0 131 37q6 61 7 133q0 164 -20.5 254t-58.5 127t-89 37q-70 0 -120 -71t-50 -231z" />
<glyph unicode=":" horiz-adv-x="614" d="M123 152q0 76 53 131t131 55t131.5 -55.5t53.5 -130.5q0 -76 -53.5 -129.5t-131.5 -53.5t-131 53.5t-53 129.5zM123 846q0 76 53 131t131 55t131.5 -55.5t53.5 -130.5q0 -76 -53.5 -129.5t-131.5 -53.5t-131 53.5t-53 129.5z" />
<glyph unicode=";" horiz-adv-x="614" d="M37 -328q102 53 168.5 125t103.5 154l-71 37q-63 35 -89 81t-26 91q0 76 51 127t129 51q43 0 80 -12.5t74 -44.5q18 -47 24 -83t6 -83q0 -139 -64.5 -248t-161.5 -179.5t-195 -101.5zM123 846q0 76 53 131t131 55t131.5 -55.5t53.5 -130.5q0 -76 -53.5 -129.5 t-131.5 -53.5t-131 53.5t-53 129.5z" />
<glyph unicode="&#x3c;" horiz-adv-x="1114" d="M78 586v153l856 443l88 -176l-703 -342l703 -345l-88 -176z" />
<glyph unicode="=" horiz-adv-x="1114" d="M61 356v181h994v-181h-994zM61 786v181h994v-181h-994z" />
<glyph unicode="&#x3e;" horiz-adv-x="1114" d="M92 319l703 345l-703 342l88 176l856 -443v-153l-856 -443z" />
<glyph unicode="?" horiz-adv-x="919" d="M145 1229q0 113 154 155q90 -18 179 -63t162 -110.5t117 -141.5t44 -156q0 -109 -52.5 -174t-173.5 -102l-88 -27q-49 -14 -64 -28.5t-20 -55.5l-4 -57h-116l-25 74q-35 106 -35 172q0 55 39 85.5t123 51.5l156 35q53 14 75.5 33.5t22.5 58.5q0 25 -10 55l-297 45 q-111 16 -149 54t-38 96zM160 158q0 78 56 134t136 56q82 0 136.5 -56t54.5 -134q0 -80 -54.5 -134.5t-136.5 -54.5q-80 0 -136 54.5t-56 134.5z" />
<glyph unicode="@" horiz-adv-x="1822" d="M98 399q0 180 63.5 348t184.5 302.5t294 212t390 77.5q227 0 383 -88t236 -235.5t80 -327.5q0 -184 -68 -320.5t-175 -211t-224 -74.5q-98 0 -161 50t-85 128q-66 -94 -138.5 -136t-154.5 -42q-98 0 -170 73.5t-72 223.5q0 106 40 213.5t108.5 198t158 144.5t189.5 54 q59 0 108.5 -21.5t83.5 -60.5l121 66l53 -35l-94 -537q-16 -104 2.5 -142t77.5 -38q53 0 112.5 55.5t101.5 160t42 253.5q0 258 -150.5 401.5t-416.5 143.5q-176 0 -316.5 -66.5t-240 -181.5t-151.5 -259t-52 -300q0 -195 77 -332t214 -207.5t319 -70.5q164 0 320 51l31 -92 q-90 -39 -190.5 -64.5t-213.5 -25.5q-223 0 -384 92t-247 253t-86 367zM739 446q0 -94 36 -140t91 -46q29 0 59.5 16.5t65.5 55.5l82 477q-20 23 -41.5 31t-44.5 8q-53 0 -110.5 -51.5t-97.5 -141.5t-40 -209z" />
<glyph unicode="A" horiz-adv-x="1382" d="M18 0v111l166 24l416 1213h211l420 -1227l125 -15v-106h-633v106l158 21l-84 264h-412l-82 -256l156 -24v-111h-441zM424 510h336l-166 522z" />
<glyph unicode="B" horiz-adv-x="1333" d="M68 0v111l153 16q4 127 4 256v260v59v257.5t-4 259.5l-153 16v111h661q174 0 278.5 -42t151.5 -114t47 -162q0 -70 -30.5 -130t-106.5 -106.5t-211 -70.5q229 -27 328.5 -116t99.5 -228q0 -63 -28.5 -130t-98 -122t-193.5 -90t-315 -35h-583zM563 649q0 -143 1 -273 t3 -257h66q143 0 222 65.5t79 196.5q0 139 -74.5 203.5t-226.5 64.5h-70zM563 758h58q131 0 192 62.5t61 185.5q0 221 -235 221h-72q-2 -115 -3 -232.5t-1 -236.5z" />
<glyph unicode="C" horiz-adv-x="1273" d="M70 674q0 182 58 315t159.5 221t232.5 131t275 43q117 0 213 -25.5t188 -76.5l8 -317h-155l-60 268q-70 35 -147 35q-109 0 -202 -61.5t-150.5 -193.5t-57.5 -341t55.5 -339t146.5 -191.5t200 -61.5q43 0 86 10t86 29l57 262h156l-9 -315q-82 -45 -189.5 -75t-240.5 -30 q-197 0 -358.5 79t-256.5 236.5t-95 397.5z" />
<glyph unicode="D" horiz-adv-x="1443" d="M68 0v111l153 16q4 125 4 254v260v70v255t-4 253l-153 16v111h608q219 0 374.5 -81t239.5 -230.5t84 -358.5q0 -213 -90 -364.5t-255 -231.5t-390 -80h-571zM569 643q0 -133 1 -264t3 -260h68q176 0 277.5 144.5t101.5 410.5q0 270 -101.5 411.5t-275.5 141.5h-70 q-2 -127 -3 -256t-1 -260v-68z" />
<glyph unicode="E" horiz-adv-x="1218" d="M68 0v111l153 16q4 125 4 252v256v76v255t-4 253l-153 16v111h1044l14 -353h-170l-41 238h-342q-2 -117 -3 -235.5t-1 -239.5h222l24 159h119v-440h-119l-24 160h-222q0 -141 1 -268t3 -252h383l41 237h170l-14 -352h-1085z" />
<glyph unicode="F" horiz-adv-x="1187" d="M68 0v111l153 16q4 125 4 252v256v76v255t-4 253l-153 16v111h1058l15 -353h-170l-41 238h-357q-2 -117 -3 -235.5t-1 -239.5h228l24 159h119v-460h-119l-26 180h-226q0 -137 1 -261t3 -245l183 -18v-111h-688z" />
<glyph unicode="G" horiz-adv-x="1382" d="M70 676q0 215 86 373.5t250.5 246.5t396.5 88q100 0 203.5 -23.5t191.5 -70.5l8 -319h-157l-60 266q-74 31 -147 31q-111 0 -204 -63.5t-149.5 -193.5t-56.5 -335q0 -203 54.5 -336t146.5 -197.5t205 -64.5q45 0 77 8v88q0 90 -1 178t-3 176l-184 25v111h625v-111 l-107 -14q-2 -92 -3 -183.5t-1 -187.5v-86q-106 -61 -217 -91t-246 -30q-211 0 -370.5 86t-248.5 246t-89 383z" />
<glyph unicode="H" horiz-adv-x="1566" d="M68 0v111l149 16q4 125 4 252v256v76v254t-4 254l-149 16v111h645v-111l-144 -14q-2 -125 -3 -248t-1 -221h436v234.5t-4 234.5l-143 14v111h647v-111l-151 -16q-2 -125 -3 -252t-1 -256v-76q0 -125 1 -253t3 -255l151 -16v-111h-647v111l143 14q4 127 4 254v252h-436 q0 -137 1 -261t3 -245l144 -14v-111h-645z" />
<glyph unicode="I" horiz-adv-x="794" d="M68 0v111l153 16q4 125 4 252v256v76v255t-4 253l-153 16v111h659v-111l-154 -16q-2 -125 -3 -252t-1 -256v-74q0 -127 1 -255t3 -255l154 -16v-111h-659z" />
<glyph unicode="J" horiz-adv-x="808" d="M-174 -225q2 72 48 111.5t114 39.5q53 0 96 -27.5t90 -84.5l43 -52q25 47 35 124t10 190q0 96 -2 244.5t-6 368.5t-8 528l-174 18v111h682v-111l-158 -16q-2 -119 -2 -242v-248v-213q0 -279 -36 -450.5t-140 -276.5q-145 -143 -346 -143q-84 0 -147.5 31.5t-98.5 97.5z " />
<glyph unicode="K" horiz-adv-x="1425" d="M68 0v111l153 16q4 125 4 252v256v76v255t-4 253l-153 16v111h645v-111l-156 -16q-2 -125 -3 -252t-1 -256v-68l459 567l-135 25v111h475v-111l-195 -25l-270 -323l403 -762l125 -14v-111h-592v111l99 10l-252 510l-117 -139q0 -88 1 -180.5t3 -184.5l133 -16v-111h-622z " />
<glyph unicode="L" horiz-adv-x="1187" d="M68 0v111l153 16q4 125 4 245v220v119v255t-4 253l-153 16v111h675v-111l-170 -16q-2 -125 -3 -253t-1 -255v-109q0 -111 1 -234.5t3 -250.5h355l55 284h166l-21 -401h-1060z" />
<glyph unicode="M" horiz-adv-x="1835" d="M37 0v111l199 24v1079l-181 21v111h541l334 -902l313 902h518v-111l-145 -16q-2 -125 -3 -253t-1 -255v-76q0 -127 1 -254t3 -254l151 -16v-111h-653v111l150 18q3 100 3 196v48v77q0 75 1 142l4 452l-365 -1044h-157l-392 1047l11 -410v-500l168 -26v-111h-500z" />
<glyph unicode="N" horiz-adv-x="1490" d="M57 0v111l174 24v1047l-28 39l-142 14v111h463l602 -828v690l-233 27v111h539v-111l-175 -27v-1212h-172l-720 999v-858l233 -26v-111h-541z" />
<glyph unicode="O" horiz-adv-x="1437" d="M70 674q0 176 53 309t145 222t209 134t242 45q127 0 242.5 -44t208 -132t145.5 -222t53 -312t-53 -311.5t-144.5 -222.5t-208 -134t-243.5 -45t-244 44t-208 133t-144 222.5t-53 313.5zM432 674q0 -170 28.5 -304t92.5 -212t166 -78q104 0 166.5 78t91.5 212t29 304 t-29 303t-91.5 211t-166.5 78q-102 0 -166 -78t-92.5 -211t-28.5 -303z" />
<glyph unicode="P" horiz-adv-x="1255" d="M68 0v111l153 16q4 125 4 252v256v76v255t-4 253l-153 16v111h557q213 0 344 -50.5t191.5 -141.5t60.5 -214q0 -117 -56.5 -214t-185.5 -154.5t-352 -57.5h-58q0 -88 1 -185.5t3 -199.5l183 -18v-111h-688zM569 629h60q135 0 202.5 87t67.5 226q0 141 -72.5 213 t-205.5 72h-48q-2 -127 -3 -256t-1 -260v-82z" />
<glyph unicode="Q" horiz-adv-x="1437" d="M70 674q0 176 53 309t145 222t209 134t242 45q127 0 242.5 -44t208 -132t145.5 -222t53 -312q0 -201 -67.5 -345.5t-179 -231.5t-249.5 -120q4 -115 65.5 -179t162.5 -64q31 0 69.5 5t77.5 19l45 -114q-51 -33 -124.5 -49.5t-157.5 -16.5q-211 0 -332 112.5t-131 291.5 q-131 35 -239.5 121.5t-173 229t-64.5 341.5zM432 674q0 -170 28.5 -304t92.5 -212t166 -78q104 0 166.5 78t91.5 212t29 304t-29 303t-91.5 211t-166.5 78q-102 0 -166 -78t-92.5 -211t-28.5 -303z" />
<glyph unicode="R" horiz-adv-x="1398" d="M68 0v111l153 16q4 125 4 252v256v76v255t-4 253l-153 16v111h665q242 0 372 -90.5t130 -249.5q0 -68 -35 -134.5t-114.5 -116.5t-217.5 -73q117 -14 182.5 -56t98.5 -108.5t47 -163.5l39 -227l156 -16v-111q-49 -10 -82 -17.5t-65 -9.5t-79 -2q-131 0 -205.5 45 t-91.5 164l-37 238q-14 102 -58 151t-136 49h-74q0 -131 1 -251.5t3 -239.5l160 -16v-111h-659zM563 733h78q102 0 159.5 35t82 92.5t24.5 122.5q0 244 -258 244h-82q-2 -127 -3 -253t-1 -241z" />
<glyph unicode="S" horiz-adv-x="1107" d="M70 70l12 303h190l41 -252q47 -18 94.5 -27.5t104.5 -9.5q111 0 168 56.5t57 138.5t-42 127t-134 86l-88 38q-180 84 -279.5 186.5t-99.5 272.5q0 184 138.5 289.5t369.5 105.5q111 0 212 -27.5t175 -76.5l-16 -287h-189l-39 242q-33 12 -65.5 19.5t-71.5 7.5 q-88 0 -149.5 -51.5t-61.5 -135.5q0 -82 48.5 -130t138.5 -89l96 -43q195 -88 282 -185.5t87 -252.5q0 -180 -136.5 -297t-398.5 -117q-115 0 -235.5 26.5t-208.5 82.5z" />
<glyph unicode="T" horiz-adv-x="1298" d="M41 965l8 381h1202l6 -381h-170l-36 266h-226q-2 -127 -3 -257t-1 -263v-74q0 -127 1 -254t3 -254l176 -18v-111h-702v111l174 18q4 125 4 252v254v76v259t-4 261h-223l-39 -266h-170z" />
<glyph unicode="U" horiz-adv-x="1497" d="M59 1235v111h668v-111l-170 -16q-2 -121 -2 -243v-245v-158q0 -236 73.5 -331t219.5 -95q137 0 215 100.5t78 332.5v639l-187 16v111h490v-111l-170 -14v-641q0 -326 -142.5 -472.5t-396.5 -146.5q-152 0 -270.5 54.5t-186 174t-67.5 318.5v223v244t-4 246z" />
<glyph unicode="V" horiz-adv-x="1353" d="M16 1235v111h660v-105l-174 -22l280 -844l283 839l-160 27v105h445v-111l-154 -25l-422 -1214h-199l-440 1227z" />
<glyph unicode="W" horiz-adv-x="2009" d="M16 1235v111h635v-111l-149 -16l209 -824l245 822l-149 18v111h614v-111l-180 -23l240 -833l235 833l-145 23v111h432v-111l-160 -27l-360 -1212h-201l-291 930l-282 -930h-201l-367 1227z" />
<glyph unicode="X" horiz-adv-x="1339" d="M14 0v111l160 14l336 502l-346 592l-141 16v111h641v-111l-123 -14l202 -349l213 353l-127 10v111h428v-111l-153 -12l-297 -459l373 -639l145 -14v-111h-674v111l150 16l-228 391l-251 -397l129 -10v-111h-437z" />
<glyph unicode="Y" horiz-adv-x="1277" d="M16 1235v111h660v-111l-154 -18l234 -519l235 514l-141 23v111h424v-111l-150 -25l-309 -628v-258.5t2 -194.5l178 -18v-111h-702v111l176 18q2 84 2 176v223l-340 695z" />
<glyph unicode="Z" horiz-adv-x="1153" d="M41 0v94l657 1135h-422l-53 -264h-162l17 381h1014v-95l-658 -1134h461l53 264h164l-16 -381h-1055z" />
<glyph unicode="[" horiz-adv-x="712" d="M205 -326q4 158 5 322t1 328v491q0 162 -1 325t-5 324h477v-110l-221 -23q-2 -127 -2 -256v-260v-491q0 -127 1 -257t3 -260l219 -22v-111h-477z" />
<glyph unicode="\" horiz-adv-x="792" d="M16 1454h211l547 -1782h-211z" />
<glyph unicode="]" horiz-adv-x="712" d="M31 -215l221 22q2 127 2 256.5v260.5v491v257t-4 259l-219 23v110h477q-4 -158 -5 -321.5t-1 -327.5v-491q0 -162 1 -325t5 -325h-477v111z" />
<glyph unicode="^" horiz-adv-x="1114" d="M111 475l362 559h170l363 -559l-148 -102l-301 458l-301 -458z" />
<glyph unicode="_" horiz-adv-x="1103" d="M82 0h940v-184h-940v184z" />
<glyph unicode="`" horiz-adv-x="819" d="M158 1477q0 53 36 82.5t77 29.5q51 0 84.5 -29.5t74.5 -97.5q66 -106 100.5 -162.5t61.5 -103.5l-78 -63q-39 31 -88 67.5t-139 104.5q-59 47 -94 87t-35 85z" />
<glyph unicode="a" horiz-adv-x="1087" d="M63 231q0 74 33 133.5t119 110.5t244 96q31 10 71.5 20.5t83.5 20.5v68q0 137 -33.5 186t-131.5 49h-26.5t-29.5 -2l-10 -90q-2 -100 -46 -145t-104 -45q-113 0 -137 102q8 127 129 207t342 80q197 0 282 -90t85 -297v-459q0 -59 45 -59q16 0 30.5 9t30.5 36l56 -37 q-37 -82 -95.5 -118t-150.5 -36q-178 0 -225 148q-66 -70 -126.5 -110t-166.5 -40q-119 0 -194 67.5t-75 194.5zM367 285q0 -76 35.5 -113t86.5 -37q23 0 47.5 10.5t77.5 47.5v331q-27 -8 -52 -17t-44 -18q-70 -29 -110.5 -80.5t-40.5 -123.5z" />
<glyph unicode="b" horiz-adv-x="1249" d="M43 1309v86l424 92l33 -21l-8 -286v-289q129 131 296 131q113 0 203 -58.5t144.5 -174t54.5 -285.5q0 -166 -61.5 -286t-161 -184.5t-215.5 -64.5q-168 0 -271 121l-35 -119l-387 27v96l109 23q2 74 2 161v150v864zM498 199q63 -57 139 -58q90 0 148.5 88t58.5 269 q0 182 -56.5 264t-148.5 82q-39 0 -74 -16.5t-67 -43.5v-585z" />
<glyph unicode="c" horiz-adv-x="1050" d="M57 492q0 168 75 286.5t201 181t277 62.5q109 0 193 -41t134 -108.5t56 -149.5q-33 -106 -139 -107q-59 0 -104 43t-52 152l-14 102q-8 2 -18.5 2h-20.5q-57 0 -114.5 -38.5t-94.5 -122.5t-37 -224q0 -176 79 -271t208 -95q74 0 129 31.5t100 83.5l72 -64 q-59 -125 -167 -185.5t-253 -60.5q-139 0 -254.5 58.5t-185.5 175t-70 289.5z" />
<glyph unicode="d" horiz-adv-x="1216" d="M59 485q0 168 64.5 288t168 184.5t218.5 64.5q80 0 139.5 -27.5t108.5 -81.5v375l-144 21v86l433 92l32 -21l-8 -286v-1063l100 -21v-96l-399 -23l-16 117q-119 -125 -289 -125q-115 0 -208 59.5t-146.5 175t-53.5 281.5zM406 489q0 -168 59 -255t153 -87q70 0 127 48 v610q-55 43 -120 43q-94 0 -156.5 -88.5t-62.5 -270.5z" />
<glyph unicode="e" horiz-adv-x="1067" d="M59 494q0 172 77 289.5t198 178t252 60.5q135 0 230 -57.5t144.5 -154.5t49.5 -222q0 -59 -13 -109h-591q10 -162 88.5 -238.5t185.5 -76.5q84 0 143.5 31.5t104.5 78.5l71 -65q-63 -121 -171.5 -180.5t-258.5 -59.5t-264.5 62.5t-180 180.5t-65.5 282zM406 586h174 q74 0 99.5 29.5t25.5 99.5q0 102 -41.5 151t-98.5 49t-105 -70.5t-54 -258.5z" />
<glyph unicode="f" horiz-adv-x="741" d="M45 850v121l137 16q16 139 54 224t104 153q76 76 171 109.5t183 33.5q86 0 156 -31.5t90 -113.5q-2 -57 -40 -97t-107 -40q-51 0 -96.5 34.5t-88.5 110.5l-16 25q-55 -57 -76 -151q-17 -78 -17 -204q0 -25 1 -51h219v-139h-215v-420v-150.5t2 -150.5l158 -33v-96h-603v96 l113 23q2 78 3 155.5t1 155.5v420h-133z" />
<glyph unicode="g" horiz-adv-x="1112" d="M31 -225q0 131 170 211q-63 27 -91 69.5t-28 94.5q0 72 42 136t118 130q-84 43 -125 114.5t-41 159.5q0 143 105.5 237.5t322.5 94.5q111 0 192.5 -24.5t132.5 -69.5l230 98l33 -20v-158h-195q37 -68 37 -158q0 -137 -105.5 -232.5t-324.5 -95.5q-106 0 -187 25 q-24 -41 -24 -90q0 -39 26.5 -60.5t92.5 -21.5h239q156 0 248 -38t132 -104.5t40 -156.5q0 -102 -67.5 -189t-201.5 -139.5t-331 -52.5q-170 0 -266 34t-135 89t-39 117zM229 -170q0 -90 68 -132t207 -42q154 0 231.5 45t77.5 113q0 45 -32.5 80.5t-116.5 35.5h-215 q-113 0 -187 19q-16 -29 -24.5 -55.5t-8.5 -63.5zM367 692q0 -109 32.5 -171t102.5 -62q72 0 107.5 63.5t35.5 171.5q0 109 -36 169.5t-103 60.5q-70 0 -104.5 -61.5t-34.5 -170.5z" />
<glyph unicode="h" horiz-adv-x="1263" d="M43 1309v86l424 92l33 -21l-8 -286v-330q82 96 158.5 134t166.5 38q135 0 217 -88t82 -264v-240v-152.5t2 -160.5l103 -21v-96h-539v96l106 23q2 76 2.5 161t0.5 150v215q0 100 -24 139t-87 39q-41 0 -88 -24.5t-94 -69.5v-299v-150t2 -163l96 -21v-96h-539v96l111 25 q2 74 2 160v149v858z" />
<glyph unicode="i" horiz-adv-x="647" d="M41 805v80l430 137l35 -23l-6 -297v-272v-150t2 -163l102 -21v-96h-543v96l111 25q2 74 2 160v149v98q0 84 -1 140.5t-5 117.5zM160 1335q0 72 51 118t123 46t123 -46t51 -118q0 -70 -51 -115.5t-123 -45.5t-123 46t-51 115z" />
<glyph unicode="j" horiz-adv-x="628" d="M-242 -344q8 72 59.5 110.5t112.5 38.5q113 0 187 -118l24 -41q12 23 19 49q12 49 13 126v39q0 61 -2 129q-3 91 -3 183v356q0 84 -1 140.5t-5 117.5l-125 19v80l426 137l35 -23l-6 -297v-591q0 -123 -12.5 -207t-41 -142.5t-80.5 -109.5q-80 -80 -170 -108.5t-168 -28.5 q-109 0 -174 43t-88 98zM154 1335q0 72 51 118t123 46t123 -46t51 -118q0 -70 -51 -115.5t-123 -45.5t-123 46t-51 115z" />
<glyph unicode="k" horiz-adv-x="1224" d="M43 1309v86l430 92l33 -21l-8 -286v-629l331 323l-155 25v90h493v-90l-184 -27l-180 -170l289 -575l131 -31v-96h-418l-232 489l-75 -71q0 -68 1 -149t1 -150l110 -23v-96h-557v96l115 25q2 76 2 162v147v858z" />
<glyph unicode="l" horiz-adv-x="661" d="M43 1309v86l430 92l33 -21l-8 -286v-750q0 -78 1 -155.5t3 -155.5l112 -23v-96h-561v96l113 25q2 78 3 155.5t1 153.5v858z" />
<glyph unicode="m" horiz-adv-x="1857" d="M39 805v80l403 137l37 -23l13 -147q72 84 150.5 127t168.5 43q211 0 272 -182q84 102 163 142t167 40q156 0 227.5 -90t71.5 -273v-229v-151.5t2 -159.5l103 -23v-96h-529v96l101 25q2 74 2 159v150v199q0 115 -27 154.5t-90 39.5q-86 0 -172 -73q2 -18 3 -38t1 -42v-240 v-152.5t2 -160.5l96 -21v-96h-528v96l106 25q2 74 2 159v150v197q0 109 -25.5 152.5t-92.5 43.5q-43 0 -86 -20.5t-82 -52.5v-320v-150t2 -163l96 -21v-96h-539v96l111 25q2 74 2 160v149v119q0 84 -1 130t-5 107z" />
<glyph unicode="n" horiz-adv-x="1261" d="M39 805v80l403 137l37 -23l13 -147q80 94 158.5 132t168.5 38q133 0 214 -88t81 -264v-240v-152.5t2 -160.5l103 -21v-96h-541v96l106 23q2 76 2 161v150v215q0 98 -26.5 138t-85.5 40q-80 0 -176 -73v-320v-150t2 -163l96 -21v-96h-539v96l111 25q2 74 2 160v149v119 q0 84 -1 130t-5 107z" />
<glyph unicode="o" horiz-adv-x="1157" d="M59 500q0 158 69 274.5t187.5 182t264.5 65.5q145 0 263 -63.5t187.5 -181.5t69.5 -277q0 -160 -63.5 -279t-180 -185.5t-276.5 -66.5t-277 66.5t-180.5 186.5t-63.5 278zM406 494q0 -217 43 -317.5t131 -100.5q86 0 129 100t43 318q0 219 -43 319t-129 100 q-88 0 -131 -100t-43 -319z" />
<glyph unicode="p" horiz-adv-x="1251" d="M45 805v80l401 137l35 -21l8 -114q129 135 304 135q113 0 202.5 -59.5t144 -176t54.5 -286.5q0 -164 -61.5 -284t-161 -183.5t-215.5 -63.5q-158 0 -258 107v-80q0 -76 1 -158t3 -176l131 -31v-96h-574v96l115 25q2 96 3 179t1 159v555q0 84 -1 130t-5 107zM504 193 q61 -51 133 -52q92 0 150.5 86t58.5 269q0 182 -56.5 265t-146.5 83q-39 0 -72.5 -16.5t-66.5 -41.5v-593z" />
<glyph unicode="q" horiz-adv-x="1193" d="M59 483q0 170 64.5 290t170 184.5t228.5 64.5q74 0 138.5 -28.5t121.5 -92.5l238 121l59 -21l-6 -276v-758q0 -78 1 -156.5t3 -156.5l103 -23v-96h-562v96l134 31q2 78 2 153.5v151.5v127q-117 -125 -287 -125q-115 0 -208 59.5t-146.5 174t-53.5 280.5zM406 487 q0 -168 59 -254t153 -86q37 0 69 13.5t61 36.5v616q-61 35 -121 35q-96 0 -158.5 -89.5t-62.5 -271.5z" />
<glyph unicode="r" horiz-adv-x="952" d="M39 805v80l403 137l37 -23l19 -241q43 131 120.5 197.5t153.5 66.5q68 0 117 -38t61 -114q-2 -80 -43 -124t-102 -44q-86 0 -158 97l-12 16q-45 -43 -83 -108.5t-54 -137.5v-139v-145t2 -154l162 -35v-96h-607v96l113 23q2 76 2 162v149v121q0 57 -1 94t-2 68.5t-3 72.5z " />
<glyph unicode="s" horiz-adv-x="931" d="M61 63l7 250h163l35 -202q37 -14 74 -21.5t80 -7.5q88 0 135 29.5t47 91.5q0 47 -35 81.5t-137 63.5l-111 33q-119 35 -183 112.5t-64 192.5q0 141 110.5 238.5t317.5 97.5q90 0 166.5 -21.5t156.5 -62.5l-14 -223h-164l-41 176q-43 16 -112 16q-70 0 -112 -28.5 t-42 -85.5q0 -41 32.5 -73t139.5 -65l100 -28q145 -43 209 -123t64 -195q0 -162 -124 -251t-341 -89q-195 0 -357 94z" />
<glyph unicode="t" horiz-adv-x="733" d="M23 850v121l151 20l102 287h209l-4 -289h215v-139h-215v-574q0 -72 30 -105.5t75 -33.5q53 0 110 45l52 -49q-41 -78 -114 -121t-188 -43q-137 0 -214.5 66.5t-77.5 218.5q0 53 1 99t1 106v391h-133z" />
<glyph unicode="u" horiz-adv-x="1243" d="M39 864v86l418 60l32 -23l-10 -289v-362q0 -94 30 -131t81 -37q43 0 89 26.5t87 65.5l8 580l-112 24v80l407 66l33 -23l-6 -289v-581l106 -23v-96l-420 -21l-12 173q-66 -86 -149.5 -133.5t-182.5 -47.5q-131 0 -211 83q-77 80 -77 271v15l8 500z" />
<glyph unicode="v" horiz-adv-x="1079" d="M-14 899v90h581v-90l-129 -27l193 -524l178 526l-129 25v90h387v-90l-119 -22l-338 -881h-155l-369 883z" />
<glyph unicode="w" horiz-adv-x="1615" d="M-14 899v90h538v-90l-118 -16l159 -527l180 525l-120 18v90h501v-90l-112 -18l168 -510l166 510l-117 18v90h373v-90l-115 -18l-313 -885h-154l-236 659l-233 -659h-154l-323 889z" />
<glyph unicode="x" horiz-adv-x="1130" d="M20 0v96l142 23l246 334l-267 430l-114 16v90h575v-90l-90 -14l150 -238l151 230l-98 22v90h358v-90l-117 -22l-237 -322l274 -438l117 -21v-96h-586v96l94 15l-151 245l-160 -241l101 -19v-96h-388z" />
<glyph unicode="y" horiz-adv-x="1093" d="M-4 901v88h582v-88l-138 -24l201 -553l195 553l-136 24v88h385v-88l-116 -20l-373 -965q-76 -197 -158 -299t-225 -102q-82 0 -144.5 45t-66.5 108q12 68 60.5 100.5t107.5 32.5q41 0 88 -17t88 -79l14 -20q90 96 140 235v2l-408 963z" />
<glyph unicode="z" horiz-adv-x="950" d="M37 0v80l512 817h-279l-55 -227l-166 8l17 311h835v-78l-495 -817h290l60 248h166l-21 -342h-864z" />
<glyph unicode="{" horiz-adv-x="690" d="M82 514v111q129 27 172 67.5t43 100.5q0 70 -27.5 132t-56.5 128.5t-29 146.5q0 135 106.5 199.5t268.5 64.5h70v-108l-56 -6q-141 -18 -141 -158q0 -57 14.5 -116.5t28.5 -118t14 -113.5q0 -96 -49 -168t-149 -107q100 -33 149 -105.5t49 -168.5q0 -53 -14 -112.5 t-28.5 -119t-14.5 -116.5q0 -139 141 -158l56 -6v-109h-70q-162 0 -268.5 64.5t-106.5 200.5q0 80 29 146.5t56.5 130t27.5 130.5q0 59 -43 100t-172 68z" />
<glyph unicode="|" horiz-adv-x="557" d="M178 -512v2048h201v-2048h-201z" />
<glyph unicode="}" horiz-adv-x="690" d="M61 -217l56 6q141 18 141 158q0 57 -14.5 116.5t-28.5 119t-14 112.5q0 96 49 169t149 105q-100 35 -149 107t-49 168q0 55 14 113.5t28.5 118t14.5 116.5q0 139 -141 158l-56 6v108h70q164 0 269.5 -64.5t105.5 -199.5q0 -80 -27.5 -146.5t-56.5 -129t-29 -131.5 q0 -59 43 -100t172 -68v-111q-129 -27 -172 -67.5t-43 -100.5q0 -68 29 -131t56.5 -130t27.5 -146q0 -135 -105.5 -200t-269.5 -65h-70v109z" />
<glyph unicode="~" horiz-adv-x="1114" d="M82 541q4 199 80 281.5t192 82.5q59 0 122 -27t126 -90q59 -57 97 -75.5t71 -18.5q41 0 69.5 41t37.5 154l157 -17q-2 -133 -39 -213.5t-98 -115.5t-137 -35q-66 0 -126.5 26.5t-125.5 90.5q-57 59 -92 76.5t-70 17.5q-41 0 -69.5 -41t-38.5 -154z" />
<glyph unicode="&#xa1;" horiz-adv-x="710" d="M160 -201q0 55 19.5 165.5t70.5 301.5l51 196h109l51 -196q53 -193 71.5 -302.5t18.5 -164.5q0 -94 -52.5 -144.5t-142.5 -50.5q-88 0 -142 50.5t-54 144.5zM164 815q0 80 55 134t137 54q80 0 135.5 -54t55.5 -134q0 -78 -55.5 -134.5t-135.5 -56.5q-82 0 -137 56.5 t-55 134.5z" />
<glyph unicode="&#xa2;" d="M70 631q0 150 62.5 263.5t175 181t265.5 81.5v180h127v-178q152 -12 248 -94t107 -203q-25 -100 -115 -100q-63 0 -102 38t-58 138l-20 109q-27 6 -60 6v-781q86 8 155 46t120 96l72 -64q-47 -100 -136.5 -162.5t-210.5 -78.5v-201h-127v198q-150 10 -263 77 t-176.5 180.5t-63.5 267.5zM383 657q0 -145 54.5 -240t135.5 -130v755q-86 -31 -138 -128t-52 -257z" />
<glyph unicode="&#xa3;" d="M94 0v190q96 57 148.5 140.5t52.5 169.5q0 16 -1 29.5t-3 25.5h-170v117h133q-27 59 -56.5 122.5t-29.5 166.5q0 119 62.5 199.5t166 121.5t221.5 41q174 0 280 -83t116 -222q-14 -53 -47 -76.5t-78 -23.5q-57 0 -98 34.5t-60 134.5l-22 125q-8 2 -15.5 2h-13.5 q-104 0 -163.5 -61t-59.5 -176q0 -88 17.5 -161t27.5 -144h348v-117h-340v-16.5t-2 -18.5q-18 -180 -166 -268h674v-252h-922z" />
<glyph unicode="&#xa4;" horiz-adv-x="1112" d="M51 250q0 47 44 84t106 69l65 35q-33 45 -53 102.5t-20 123.5t20 123t53 102l-65 35q-61 33 -105.5 69.5t-44.5 83.5q0 37 26.5 64.5t63.5 27.5q49 0 86 -44t70 -105l35 -68q96 74 225 74q127 0 223 -74l37 68q33 61 70 105t84 44q37 0 64.5 -26.5t27.5 -65.5 q0 -47 -44 -83t-106 -70l-67 -35q35 -45 54.5 -102.5t19.5 -122.5q0 -66 -19.5 -122.5t-54.5 -103.5l67 -35q61 -33 105.5 -69.5t44.5 -83.5q0 -37 -27.5 -64.5t-64.5 -27.5q-47 0 -83 44t-71 105l-35 68q-100 -74 -225 -74t-225 74l-35 -68q-33 -61 -70 -105t-86 -44 q-35 0 -62.5 26.5t-27.5 65.5zM352 664q0 -98 61.5 -158t143.5 -60q84 0 143.5 59.5t59.5 158.5q0 96 -59.5 155.5t-143.5 59.5q-82 0 -143.5 -59.5t-61.5 -155.5z" />
<glyph unicode="&#xa5;" d="M-12 1186v106h596v-106l-154 -17l211 -471l217 465l-137 23v106h401v-106l-121 -25l-245 -497h239v-117h-282v-144h282v-118h-282q2 -35 2 -73t2 -85l184 -18v-109h-692v109l186 18q0 47 1 85t1 73h-276v118h276v144h-276v117h235l-258 510z" />
<glyph unicode="&#xa6;" horiz-adv-x="557" d="M178 410h201v-922h-201v922zM178 655v881h201v-881h-201z" />
<glyph unicode="&#xa7;" horiz-adv-x="1089" d="M88 600q0 72 39 139.5t106 118.5q-74 82 -73 201q0 86 47 159.5t141.5 118.5t231.5 45q182 0 287.5 -72.5t105.5 -191.5q-8 -55 -42 -78.5t-73 -23.5q-55 0 -98 33.5t-74 128.5l-35 96q-10 2 -22.5 2h-26.5q-96 0 -151.5 -38t-55.5 -112q0 -72 55.5 -111.5t167.5 -80.5 q143 -47 227.5 -101.5t121.5 -123t37 -162.5q0 -74 -38 -136.5t-104 -109.5q70 -78 70 -197q0 -86 -48 -160.5t-142.5 -120.5t-229.5 -46q-182 0 -287.5 72.5t-107.5 189.5q10 57 44 79.5t72 22.5q55 0 97.5 -32.5t75.5 -128.5l32 -95q12 -2 24.5 -2h26.5q96 0 151.5 39 t55.5 115q0 72 -59 109.5t-199 89.5q-178 68 -264 147.5t-86 216.5zM279 711q0 -92 65.5 -139.5t202.5 -94.5q76 -27 137 -53.5t107 -58.5q23 45 22 88q0 90 -65.5 136t-212.5 97q-150 53 -234 113q-23 -45 -22 -88z" />
<glyph unicode="&#xa8;" horiz-adv-x="819" d="M7 1327q0 70 48 110t109 40q66 0 112 -40t46 -110t-46 -109.5t-112 -39.5q-61 0 -109 39.5t-48 109.5zM498 1327q0 70 48 110t110 40q63 0 110 -40t47 -110t-47 -109.5t-110 -39.5q-61 0 -109.5 39.5t-48.5 109.5z" />
<glyph unicode="&#xa9;" horiz-adv-x="1523" d="M61 674q0 164 56.5 295t154 223t224.5 142t268 50t267 -50t224.5 -142t153.5 -223t55 -295q0 -162 -55 -293t-153.5 -225.5t-224.5 -144.5t-267 -50t-268 50t-224.5 144.5t-154 225.5t-56.5 293zM188 674q0 -184 79 -319.5t210 -210t287 -74.5q158 0 288 74.5 t208.5 209.5t78.5 320q0 184 -78.5 319t-208.5 209t-288 74q-156 0 -287 -74t-210 -209t-79 -319zM381 674q0 141 60.5 235.5t158.5 142.5t211 48q74 0 129 -15.5t107 -44.5l4 -196h-97l-32 149q-39 16 -74 17q-94 0 -165 -84t-71 -250q0 -164 69 -247t165 -83q43 0 86 19 l31 145h96l-4 -193q-47 -27 -110.5 -45t-141.5 -18q-117 0 -212 48t-152.5 141.5t-57.5 230.5z" />
<glyph unicode="&#xaa;" horiz-adv-x="727" d="M45 995q0 66 52.5 119t207.5 96q23 8 53.5 15.5t61.5 15.5v45q0 90 -24.5 123t-92.5 33h-19.5t-21.5 -2l-8 -68q-6 -57 -33.5 -84.5t-64.5 -27.5q-76 0 -88 65q6 82 85.5 132t223.5 50q127 0 183 -57t56 -190v-297q0 -47 33 -48q18 0 45 29l35 -24q-25 -51 -61.5 -73 t-94.5 -22q-121 0 -147 103q-49 -49 -90 -77t-109 -28q-80 0 -131 45t-51 127zM236 1026q0 -51 26.5 -75.5t59.5 -24.5q23 0 43 12t55 37v209q-20 -6 -40 -12.5t-36 -12.5q-108 -45 -108 -133z" />
<glyph unicode="&#xab;" horiz-adv-x="1130" d="M53 451v133l479 389l72 -74l-315 -383l315 -381l-72 -74zM499 451v133l479 389l72 -74l-315 -383l315 -381l-72 -74z" />
<glyph unicode="&#xac;" horiz-adv-x="1114" d="M57 653v181h994v-539h-187v358h-807z" />
<glyph unicode="&#xae;" horiz-adv-x="962" d="M61 1049q0 129 58.5 222t154 142t207.5 49q113 0 208 -49t153.5 -142t58.5 -222q0 -127 -57.5 -221.5t-152.5 -144.5t-210 -50q-113 0 -209 50t-153.5 144.5t-57.5 221.5zM158 1049q0 -100 44 -174t117.5 -114t161.5 -40t161 40t117 113.5t44 174.5q0 102 -44 174.5 t-117 111.5t-161 39t-161.5 -39t-117.5 -111.5t-44 -174.5zM289 856v41l45 4v313l-45 5v43h209q74 0 114.5 -28t40.5 -75q0 -29 -23.5 -58.5t-86.5 -39.5q53 -8 75.5 -32.5t28.5 -65.5l8 -62l50 -4v-41q-27 -4 -39.5 -6t-34.5 -2q-43 0 -67.5 14.5t-28.5 52.5l-11 68 q-6 55 -55 55h-18v-137l47 -4v-41h-209zM451 1079h16q43 0 59.5 21.5t16.5 48.5q0 68 -76 68h-16v-138z" />
<glyph unicode="&#xaf;" horiz-adv-x="819" d="M84 1202v182h651v-182h-651z" />
<glyph unicode="&#xb0;" horiz-adv-x="671" d="M63 1108q0 86 38 147.5t100.5 95t134.5 33.5t134 -33.5t100 -95t38 -147.5q0 -84 -38 -146.5t-100 -95t-134 -32.5t-134.5 32.5t-100.5 95t-38 146.5zM174 1108q0 -82 46 -129t116 -47t116 47t46 129t-46 130t-116 48t-116 -48t-46 -130z" />
<glyph unicode="&#xb1;" horiz-adv-x="1114" d="M61 0v180h994v-180h-994zM61 616v179h402v358h188v-358h404v-179h-404v-368h-188v368h-402z" />
<glyph unicode="&#xb2;" horiz-adv-x="763" d="M82 1446q2 109 93 162t228 53q135 0 198 -64.5t63 -154.5q0 -92 -77 -175t-237 -190l-82 -57h412v-176h-592v117l174 167q90 86 136 155t46 157q0 74 -35.5 112.5t-97.5 38.5h-14t-14 -2l-17 -86q-8 -70 -37.5 -91t-60.5 -21q-57 0 -86 55z" />
<glyph unicode="&#xb3;" horiz-adv-x="763" d="M70 1034q12 33 35.5 45.5t48.5 12.5q39 0 64.5 -22.5t33.5 -90.5l10 -88q6 -2 13.5 -2h15.5q174 0 174 174q0 156 -164 156h-45v75h37q74 0 115 36t41 118q0 72 -35 107.5t-97 35.5h-10t-12 -2l-12 -84q-8 -49 -36 -68.5t-63 -19.5q-49 0 -75 37q0 74 36.5 119t97 66.5 t130.5 21.5q145 0 217 -58.5t72 -144.5q0 -63 -43.5 -117.5t-139.5 -76.5q115 -18 163 -71.5t48 -139.5q0 -109 -89 -171.5t-239 -62.5q-143 0 -215.5 57.5t-76.5 157.5z" />
<glyph unicode="&#xb4;" horiz-adv-x="819" d="M225 1196q27 47 61 102.5t99 161.5q41 70 76 99.5t86 29.5q41 0 76 -29.5t35 -82.5q0 -45 -34 -86t-95 -86q-88 -68 -136.5 -105t-89.5 -67z" />
<glyph unicode="&#xb5;" horiz-adv-x="1204" d="M119 -360l59 585l-49 738l293 59l33 -23q-8 -178 -13.5 -306t-9.5 -222t-6 -176q29 -53 67.5 -74.5t84.5 -21.5q49 0 95 20.5t81 75.5l-23 668l293 59l33 -23q-14 -213 -23.5 -347t-13.5 -216t-4 -141q0 -82 19.5 -106.5t64.5 -24.5q37 0 67 12l29 -72q-35 -63 -92 -99 t-137 -36t-131.5 50.5t-69.5 140.5q-78 -190 -225 -191q-92 0 -152 105l53 -408l-286 -63z" />
<glyph unicode="&#xb6;" horiz-adv-x="1302" d="M45 797q0 195 93 315.5t255 177t367 56.5h473v-111l-154 -18q-2 -125 -3 -252t-1 -254v-312q0 -160 1 -319.5t5 -317.5h-288q4 156 5 315t1 320v836h-156v-995q-164 2 -300 63t-217 185t-81 311z" />
<glyph unicode="&#xb7;" horiz-adv-x="614" d="M123 687q0 76 53 131t131 55t131.5 -55.5t53.5 -130.5q0 -76 -53.5 -129.5t-131.5 -53.5t-131 53.5t-53 129.5z" />
<glyph unicode="&#xb8;" horiz-adv-x="819" d="M168 -434l22 94q29 -8 55.5 -12t53.5 -4q55 0 80.5 21.5t25.5 55.5q0 89 -129 97l29 190h106l-12 -112q109 -20 157 -66.5t48 -108.5q0 -78 -68.5 -130t-208.5 -52q-49 0 -87 7.5t-72 19.5z" />
<glyph unicode="&#xb9;" horiz-adv-x="763" d="M133 844v63l160 35v574l-143 -19v84l346 80l18 -14v-705l150 -35v-63h-531z" />
<glyph unicode="&#xba;" horiz-adv-x="778" d="M41 1167q0 104 47 181t126 118t175 41t175 -41t126 -116.5t47 -182.5q0 -158 -97 -251t-251 -93q-156 0 -252 94.5t-96 249.5zM254 1165q0 -141 34 -206.5t101 -65.5q66 0 99.5 65.5t33.5 206.5q0 139 -33.5 206t-99.5 67q-68 0 -101.5 -66.5t-33.5 -206.5z" />
<glyph unicode="&#xbb;" horiz-adv-x="1130" d="M80 135l315 381l-315 383l72 74l479 -389v-133l-479 -390zM526 135l315 381l-315 383l72 74l479 -389v-133l-479 -390z" />
<glyph unicode="&#xbc;" horiz-adv-x="1789" d="M127 504v63l160 35v574l-143 -19v84l346 80l18 -14v-705l150 -35v-63h-531zM441 0l915 1350l96 -66l-915 -1350zM970 182v121l379 498h152v-471h119v-148h-119v-182h-193v182h-338zM1085 330h223v299z" />
<glyph unicode="&#xbd;" horiz-adv-x="1789" d="M100 504v63l160 35v574l-143 -19v84l346 80l18 -14v-705l150 -35v-63h-531zM390 0l915 1350l96 -66l-915 -1350zM1077 602q2 109 93 162t228 53q135 0 198 -64.5t63 -154.5q0 -92 -77 -175t-237 -190l-82 -57h412v-176h-592v117l174 167q90 86 136 155t46 157 q0 74 -35.5 112.5t-97.5 38.5h-14t-14 -2l-17 -86q-8 -70 -37.5 -91t-60.5 -21q-57 0 -86 55z" />
<glyph unicode="&#xbe;" horiz-adv-x="1789" d="M140 694q12 33 35.5 45.5t48.5 12.5q39 0 64.5 -22.5t33.5 -90.5l10 -88q6 -2 13.5 -2h15.5q174 0 174 174q0 156 -164 156h-45v75h37q74 0 115 36t41 118q0 72 -35 107.5t-97 35.5h-10t-12 -2l-12 -84q-8 -49 -36 -68.5t-63 -19.5q-49 0 -75 37q0 74 36.5 119t97 66.5 t130.5 21.5q145 0 217 -58.5t72 -144.5q0 -63 -43.5 -117.5t-139.5 -76.5q115 -18 163 -71.5t48 -139.5q0 -109 -89 -171.5t-239 -62.5q-143 0 -215.5 57.5t-76.5 157.5zM447 -14l915 1350l96 -66l-915 -1350zM993 182v121l379 498h152v-471h119v-148h-119v-182h-193v182 h-338zM1108 330h223v299z" />
<glyph unicode="&#xbf;" horiz-adv-x="919" d="M119 106q0 109 53 174.5t172 102.5l88 26q49 14 65.5 28.5t18.5 55.5l4 58h117l25 -74q35 -106 34 -172q0 -55 -39 -86t-122 -51l-156 -35q-53 -14 -75.5 -33.5t-22.5 -58.5q0 -25 10 -56l297 -45q111 -16 148.5 -54t37.5 -95q0 -113 -153 -156q-90 18 -179.5 63.5 t-162 111t-116.5 141t-44 155.5zM377 862q0 80 54 134t136 54q80 0 136.5 -54t56.5 -134q0 -78 -56.5 -134t-136.5 -56q-82 0 -136 56t-54 134z" />
<glyph unicode="&#xc0;" horiz-adv-x="1382" d="M18 0v111l166 24l416 1213h211l420 -1227l125 -15v-106h-633v106l158 21l-84 264h-412l-82 -256l156 -24v-111h-441zM336 1698q0 41 31.5 72.5t80.5 31.5q35 0 69 -17.5t83 -64.5q53 -51 111.5 -105.5t115.5 -111.5l-57 -80q-76 35 -156 69t-159 69q-74 35 -96.5 71.5 t-22.5 65.5zM424 510h336l-166 522z" />
<glyph unicode="&#xc1;" horiz-adv-x="1382" d="M18 0v111l166 24l416 1213h211l420 -1227l125 -15v-106h-633v106l158 21l-84 264h-412l-82 -256l156 -24v-111h-441zM424 510h336l-166 522zM549 1503q57 55 114.5 110.5t112.5 106.5q49 47 83 64.5t69 17.5q49 0 80.5 -31.5t31.5 -72.5q0 -29 -22.5 -65t-94.5 -68 q-80 -37 -159.5 -72t-157.5 -70z" />
<glyph unicode="&#xc2;" horiz-adv-x="1382" d="M18 0v111l166 24l416 1213h211l420 -1227l125 -15v-106h-633v106l158 21l-84 264h-412l-82 -256l156 -24v-111h-441zM319 1469l307 309h140l307 -309l-62 -74l-315 174l-315 -174zM424 510h336l-166 522z" />
<glyph unicode="&#xc3;" horiz-adv-x="1382" d="M18 0v111l166 24l416 1213h211l420 -1227l125 -15v-106h-633v106l158 21l-84 264h-412l-82 -256l156 -24v-111h-441zM321 1475q16 135 80 209.5t154 74.5q49 0 87 -17.5t70 -39.5q31 -20 64 -42t72 -22q47 0 78.5 33t52.5 90l86 -35q-16 -135 -79 -210.5t-151 -75.5 q-45 0 -85 16.5t-72 36.5q-35 23 -68 45.5t-74 22.5q-45 0 -76.5 -33t-52.5 -88zM424 510h336l-166 522z" />
<glyph unicode="&#xc4;" horiz-adv-x="1382" d="M18 0v111l166 24l416 1213h211l420 -1227l125 -15v-106h-633v106l158 21l-84 264h-412l-82 -256l156 -24v-111h-441zM296 1602q0 66 46.5 103.5t103.5 37.5q61 0 106.5 -38t45.5 -103q0 -66 -45.5 -104t-106.5 -38q-57 0 -103.5 38t-46.5 104zM424 510h336l-166 522z M806 1602q0 66 46.5 103.5t103.5 37.5q61 0 106.5 -38t45.5 -103q0 -66 -45.5 -104t-106.5 -38q-57 0 -103.5 38t-46.5 104z" />
<glyph unicode="&#xc5;" horiz-adv-x="1382" d="M18 0v111l166 24l416 1213h211l420 -1227l125 -15v-106h-633v106l158 21l-84 264h-412l-82 -256l156 -24v-111h-441zM424 510h336l-166 522zM491 1638q0 92 61.5 147.5t149.5 55.5t149.5 -53t61.5 -150q0 -94 -61.5 -148t-149.5 -54t-149.5 54t-61.5 148zM598 1638 q0 -47 28.5 -77.5t75.5 -30.5t75.5 30.5t28.5 77.5t-28.5 77t-75.5 30t-75.5 -29.5t-28.5 -77.5z" />
<glyph unicode="&#xc6;" horiz-adv-x="1826" d="M18 0v111l136 18l528 1083l-193 23v111h1233l15 -353h-172l-41 238h-344q-2 -117 -3 -235.5t-1 -239.5h225l24 159h119v-440h-119l-24 160h-225q0 -141 1 -268t3 -252h385l41 237h172l-15 -352h-1083v111l151 16q2 92 3.5 186.5t1.5 186.5h-363l-174 -363l160 -26v-111 h-441zM530 618h306v586h-25z" />
<glyph unicode="&#xc7;" horiz-adv-x="1273" d="M70 674q0 182 58 315t159.5 221t232.5 131t275 43q117 0 213 -25.5t188 -76.5l8 -317h-155l-60 268q-70 35 -147 35q-109 0 -202 -61.5t-150.5 -193.5t-57.5 -341t55.5 -339t146.5 -191.5t200 -61.5q43 0 86 10t86 29l57 262h156l-9 -315q-82 -45 -189.5 -75t-240.5 -30 q-197 0 -358.5 79t-256.5 236.5t-95 397.5zM564 -434l22 94q29 -8 55.5 -12t53.5 -4q55 0 80.5 21.5t25.5 55.5q0 89 -129 97l29 190h106l-12 -112q109 -20 157 -66.5t48 -108.5q0 -78 -68.5 -130t-208.5 -52q-49 0 -87 7.5t-72 19.5z" />
<glyph unicode="&#xc8;" horiz-adv-x="1218" d="M68 0v111l153 16q4 125 4 252v256v76v255t-4 253l-153 16v111h1044l14 -353h-170l-41 238h-342q-2 -117 -3 -235.5t-1 -239.5h222l24 159h119v-440h-119l-24 160h-222q0 -141 1 -268t3 -252h383l41 237h170l-14 -352h-1085zM273 1698q0 41 31.5 72.5t80.5 31.5 q35 0 69 -17.5t83 -64.5q53 -51 111.5 -105.5t115.5 -111.5l-57 -80q-76 35 -156 69t-159 69q-74 35 -96.5 71.5t-22.5 65.5z" />
<glyph unicode="&#xc9;" horiz-adv-x="1218" d="M68 0v111l153 16q4 125 4 252v256v76v255t-4 253l-153 16v111h1044l14 -353h-170l-41 238h-342q-2 -117 -3 -235.5t-1 -239.5h222l24 159h119v-440h-119l-24 160h-222q0 -141 1 -268t3 -252h383l41 237h170l-14 -352h-1085zM492 1503q57 55 114.5 110.5t112.5 106.5 q49 47 83 64.5t69 17.5q49 0 80.5 -31.5t31.5 -72.5q0 -29 -22.5 -65t-94.5 -68q-80 -37 -159.5 -72t-157.5 -70z" />
<glyph unicode="&#xca;" horiz-adv-x="1218" d="M68 0v111l153 16q4 125 4 252v256v76v255t-4 253l-153 16v111h1044l14 -353h-170l-41 238h-342q-2 -117 -3 -235.5t-1 -239.5h222l24 159h119v-440h-119l-24 160h-222q0 -141 1 -268t3 -252h383l41 237h170l-14 -352h-1085zM285 1481l307 309h140l307 -309l-62 -74 l-315 174l-315 -174z" />
<glyph unicode="&#xcb;" horiz-adv-x="1218" d="M68 0v111l153 16q4 125 4 252v256v76v255t-4 253l-153 16v111h1044l14 -353h-170l-41 238h-342q-2 -117 -3 -235.5t-1 -239.5h222l24 159h119v-440h-119l-24 160h-222q0 -141 1 -268t3 -252h383l41 237h170l-14 -352h-1085zM231 1602q0 66 46.5 103.5t103.5 37.5 q61 0 106.5 -38t45.5 -103q0 -66 -45.5 -104t-106.5 -38q-57 0 -103.5 38t-46.5 104zM741 1602q0 66 46.5 103.5t103.5 37.5q61 0 106.5 -38t45.5 -103q0 -66 -45.5 -104t-106.5 -38q-57 0 -103.5 38t-46.5 104z" />
<glyph unicode="&#xcc;" horiz-adv-x="794" d="M60 1698q0 41 31.5 72.5t80.5 31.5q35 0 69 -17.5t83 -64.5q53 -51 111.5 -105.5t115.5 -111.5l-57 -80q-76 35 -156 69t-159 69q-74 35 -96.5 71.5t-22.5 65.5zM68 0v111l153 16q4 125 4 252v256v76v255t-4 253l-153 16v111h659v-111l-154 -16q-2 -125 -3 -252t-1 -256 v-74q0 -127 1 -255t3 -255l154 -16v-111h-659z" />
<glyph unicode="&#xcd;" horiz-adv-x="794" d="M68 0v111l153 16q4 125 4 252v256v76v255t-4 253l-153 16v111h659v-111l-154 -16q-2 -125 -3 -252t-1 -256v-74q0 -127 1 -255t3 -255l154 -16v-111h-659zM254 1503q57 55 114.5 110.5t112.5 106.5q49 47 83 64.5t69 17.5q49 0 80.5 -31.5t31.5 -72.5q0 -29 -22.5 -65 t-94.5 -68q-80 -37 -159.5 -72t-157.5 -70z" />
<glyph unicode="&#xce;" horiz-adv-x="794" d="M20 1481l307 309h140l307 -309l-62 -74l-315 174l-315 -174zM68 0v111l153 16q4 125 4 252v256v76v255t-4 253l-153 16v111h659v-111l-154 -16q-2 -125 -3 -252t-1 -256v-74q0 -127 1 -255t3 -255l154 -16v-111h-659z" />
<glyph unicode="&#xcf;" horiz-adv-x="794" d="M55 1602q0 66 44 103.5t102 37.5q55 0 98 -38t43 -103q0 -66 -43 -104t-98 -38q-57 0 -101.5 38t-44.5 104zM68 0v111l153 16q4 125 4 252v256v76v255t-4 253l-153 16v111h659v-111l-154 -16q-2 -125 -3 -252t-1 -256v-74q0 -127 1 -255t3 -255l154 -16v-111h-659z M453 1602q0 66 44 103.5t101 37.5q53 0 97 -38t44 -103q0 -66 -44 -104t-97 -38q-57 0 -101 38t-44 104z" />
<glyph unicode="&#xd0;" horiz-adv-x="1443" d="M68 0v111l153 16q4 125 4 252v252h-157v119h157v234.5t-4 234.5l-153 16v111h608q219 0 374.5 -81t239.5 -230.5t84 -358.5q0 -213 -90 -364.5t-255 -231.5t-390 -80h-571zM569 631q0 -139 1 -265t3 -247h68q176 0 277.5 144.5t101.5 410.5q0 270 -101.5 411.5 t-275.5 141.5h-70q-2 -127 -3 -251t-1 -226h238v-119h-238z" />
<glyph unicode="&#xd1;" horiz-adv-x="1490" d="M57 0v111l174 24v1047l-28 39l-142 14v111h463l602 -828v690l-233 27v111h539v-111l-175 -27v-1212h-172l-720 999v-858l233 -26v-111h-541zM379 1469q16 135 80 209.5t154 74.5q49 0 87 -17.5t70 -39.5q31 -20 64 -42t72 -22q47 0 78.5 33t52.5 90l86 -35 q-16 -135 -79 -210.5t-151 -75.5q-45 0 -85 16.5t-72 36.5q-35 23 -68 45.5t-74 22.5q-45 0 -76.5 -33t-52.5 -88z" />
<glyph unicode="&#xd2;" horiz-adv-x="1437" d="M70 674q0 176 53 309t145 222t209 134t242 45q127 0 242.5 -44t208 -132t145.5 -222t53 -312t-53 -311.5t-144.5 -222.5t-208 -134t-243.5 -45t-244 44t-208 133t-144 222.5t-53 313.5zM381 1704q0 41 31.5 72.5t80.5 31.5q35 0 69 -17.5t83 -64.5q53 -51 111.5 -105.5 t115.5 -111.5l-57 -80q-76 35 -156 69t-159 69q-74 35 -96.5 71.5t-22.5 65.5zM432 674q0 -170 28.5 -304t92.5 -212t166 -78q104 0 166.5 78t91.5 212t29 304t-29 303t-91.5 211t-166.5 78q-102 0 -166 -78t-92.5 -211t-28.5 -303z" />
<glyph unicode="&#xd3;" horiz-adv-x="1437" d="M70 674q0 176 53 309t145 222t209 134t242 45q127 0 242.5 -44t208 -132t145.5 -222t53 -312t-53 -311.5t-144.5 -222.5t-208 -134t-243.5 -45t-244 44t-208 133t-144 222.5t-53 313.5zM432 674q0 -170 28.5 -304t92.5 -212t166 -78q104 0 166.5 78t91.5 212t29 304 t-29 303t-91.5 211t-166.5 78q-102 0 -166 -78t-92.5 -211t-28.5 -303zM576 1509q57 55 114.5 110.5t112.5 106.5q49 47 83 64.5t69 17.5q49 0 80.5 -31.5t31.5 -72.5q0 -29 -22.5 -65t-94.5 -68q-80 -37 -159.5 -72t-157.5 -70z" />
<glyph unicode="&#xd4;" horiz-adv-x="1437" d="M70 674q0 176 53 309t145 222t209 134t242 45q127 0 242.5 -44t208 -132t145.5 -222t53 -312t-53 -311.5t-144.5 -222.5t-208 -134t-243.5 -45t-244 44t-208 133t-144 222.5t-53 313.5zM342 1481l307 309h140l307 -309l-62 -74l-315 174l-315 -174zM432 674 q0 -170 28.5 -304t92.5 -212t166 -78q104 0 166.5 78t91.5 212t29 304t-29 303t-91.5 211t-166.5 78q-102 0 -166 -78t-92.5 -211t-28.5 -303z" />
<glyph unicode="&#xd5;" horiz-adv-x="1437" d="M70 674q0 176 53 309t145 222t209 134t242 45q127 0 242.5 -44t208 -132t145.5 -222t53 -312t-53 -311.5t-144.5 -222.5t-208 -134t-243.5 -45t-244 44t-208 133t-144 222.5t-53 313.5zM348 1489q16 135 80 209.5t154 74.5q49 0 87 -17.5t70 -39.5q31 -20 64 -42t72 -22 q47 0 78.5 33t52.5 90l86 -35q-16 -135 -79 -210.5t-151 -75.5q-45 0 -85 16.5t-72 36.5q-35 23 -68 45.5t-74 22.5q-45 0 -76.5 -33t-52.5 -88zM432 674q0 -170 28.5 -304t92.5 -212t166 -78q104 0 166.5 78t91.5 212t29 304t-29 303t-91.5 211t-166.5 78q-102 0 -166 -78 t-92.5 -211t-28.5 -303z" />
<glyph unicode="&#xd6;" horiz-adv-x="1437" d="M70 674q0 176 53 309t145 222t209 134t242 45q127 0 242.5 -44t208 -132t145.5 -222t53 -312t-53 -311.5t-144.5 -222.5t-208 -134t-243.5 -45t-244 44t-208 133t-144 222.5t-53 313.5zM313 1602q0 66 46.5 103.5t103.5 37.5q61 0 106.5 -38t45.5 -103q0 -66 -45.5 -104 t-106.5 -38q-57 0 -103.5 38t-46.5 104zM432 674q0 -170 28.5 -304t92.5 -212t166 -78q104 0 166.5 78t91.5 212t29 304t-29 303t-91.5 211t-166.5 78q-102 0 -166 -78t-92.5 -211t-28.5 -303zM823 1602q0 66 46.5 103.5t103.5 37.5q61 0 106.5 -38t45.5 -103 q0 -66 -45.5 -104t-106.5 -38q-57 0 -103.5 38t-46.5 104z" />
<glyph unicode="&#xd7;" horiz-adv-x="1114" d="M80 313l348 349l-348 348l129 129l348 -348l348 348l131 -129l-348 -348l348 -349l-131 -131l-348 348l-348 -348z" />
<glyph unicode="&#xd8;" horiz-adv-x="1437" d="M70 674q0 176 53 309t145 222t209 134t242 45q102 0 200.5 -29.5t180.5 -88.5l121 149l114 -94l-127 -156q74 -88 117 -211t43 -280q0 -178 -53 -311.5t-144.5 -222.5t-208 -134t-243.5 -45q-104 0 -202.5 29.5t-182.5 91.5l-123 -152l-113 95l127 157q-72 88 -113.5 211 t-41.5 281zM412 674q0 -131 18 -240l528 656q-37 84 -96 130t-143 46q-111 0 -178.5 -78t-98 -211t-30.5 -303zM477 260q37 -84 96.5 -132t145.5 -48q111 0 178.5 78t98 212t30.5 304q0 135 -18 241z" />
<glyph unicode="&#xd9;" horiz-adv-x="1497" d="M59 1235v111h668v-111l-170 -16q-2 -121 -2 -243v-245v-158q0 -236 73.5 -331t219.5 -95q137 0 215 100.5t78 332.5v639l-187 16v111h490v-111l-170 -14v-641q0 -326 -142.5 -472.5t-396.5 -146.5q-152 0 -270.5 54.5t-186 174t-67.5 318.5v223v244t-4 246zM471 1692 q0 41 31.5 72.5t80.5 31.5q35 0 69 -17.5t83 -64.5q53 -51 111.5 -105.5t115.5 -111.5l-57 -80q-76 35 -156 69t-159 69q-74 35 -96.5 71.5t-22.5 65.5z" />
<glyph unicode="&#xda;" horiz-adv-x="1497" d="M59 1235v111h668v-111l-170 -16q-2 -121 -2 -243v-245v-158q0 -236 73.5 -331t219.5 -95q137 0 215 100.5t78 332.5v639l-187 16v111h490v-111l-170 -14v-641q0 -326 -142.5 -472.5t-396.5 -146.5q-152 0 -270.5 54.5t-186 174t-67.5 318.5v223v244t-4 246zM656 1497 q57 55 114.5 110.5t112.5 106.5q49 47 83 64.5t69 17.5q49 0 80.5 -31.5t31.5 -72.5q0 -29 -22.5 -65t-94.5 -68q-80 -37 -159.5 -72t-157.5 -70z" />
<glyph unicode="&#xdb;" horiz-adv-x="1497" d="M59 1235v111h668v-111l-170 -16q-2 -121 -2 -243v-245v-158q0 -236 73.5 -331t219.5 -95q137 0 215 100.5t78 332.5v639l-187 16v111h490v-111l-170 -14v-641q0 -326 -142.5 -472.5t-396.5 -146.5q-152 0 -270.5 54.5t-186 174t-67.5 318.5v223v244t-4 246zM457 1475 l307 309h140l307 -309l-62 -74l-315 174l-315 -174z" />
<glyph unicode="&#xdc;" horiz-adv-x="1497" d="M59 1235v111h668v-111l-170 -16q-2 -121 -2 -243v-245v-158q0 -236 73.5 -331t219.5 -95q137 0 215 100.5t78 332.5v639l-187 16v111h490v-111l-170 -14v-641q0 -326 -142.5 -472.5t-396.5 -146.5q-152 0 -270.5 54.5t-186 174t-67.5 318.5v223v244t-4 246zM428 1602 q0 66 46.5 103.5t103.5 37.5q61 0 106.5 -38t45.5 -103q0 -66 -45.5 -104t-106.5 -38q-57 0 -103.5 38t-46.5 104zM938 1602q0 66 46.5 103.5t103.5 37.5q61 0 106.5 -38t45.5 -103q0 -66 -45.5 -104t-106.5 -38q-57 0 -103.5 38t-46.5 104z" />
<glyph unicode="&#xdd;" horiz-adv-x="1277" d="M16 1235v111h660v-111l-154 -18l234 -519l235 514l-141 23v111h424v-111l-150 -25l-309 -628v-258.5t2 -194.5l178 -18v-111h-702v111l176 18q2 84 2 176v223l-340 695zM609 1497q57 55 114.5 110.5t112.5 106.5q49 47 83 64.5t69 17.5q49 0 80.5 -31.5t31.5 -72.5 q0 -29 -22.5 -65t-94.5 -68q-80 -37 -159.5 -72t-157.5 -70z" />
<glyph unicode="&#xde;" horiz-adv-x="1273" d="M68 0v111l153 16q4 125 4 252v256v76v254t-4 254l-153 16v111h669v-111l-172 -18q-2 -29 -2 -60v-61h76q324 0 461 -104.5t137 -289.5q0 -119 -55.5 -213t-190.5 -148t-377 -54h-53q2 -39 2 -78t2 -80l172 -18v-111h-669zM561 406h64q135 0 212.5 79.5t77.5 208.5 q0 135 -70.5 209t-217.5 74h-66v-132.5v-131.5v-76v-114.5v-116.5z" />
<glyph unicode="&#xdf;" horiz-adv-x="1349" d="M53 0v96l113 23q2 78 3 155.5t1 155.5v485q0 170 39 265.5t115 169.5q82 84 200.5 120.5t243.5 36.5q213 0 327.5 -88t114.5 -215q0 -82 -41 -138t-139 -112q-94 -53 -120.5 -83.5t-26.5 -59.5q0 -23 12 -43t54 -47t128 -70q131 -68 188.5 -145.5t57.5 -200.5 q0 -145 -113.5 -240.5t-316.5 -95.5q-76 0 -149.5 14.5t-139.5 49.5l6 256h160l37 -203q16 -2 34.5 -3t37.5 -1q82 0 126 34t44 97q0 61 -36 100t-136 84q-111 49 -177.5 109.5t-66.5 177.5q0 86 47 142.5t133 125.5q72 57 95.5 110.5t23.5 117.5q0 96 -51.5 158.5 t-141.5 62.5q-98 0 -151 -53q-35 -35 -54.5 -90.5t-27.5 -147.5t-8 -240v-440q0 -215 6 -430h-451z" />
<glyph unicode="&#xe0;" horiz-adv-x="1087" d="M63 231q0 74 33 133.5t119 110.5t244 96q31 10 71.5 20.5t83.5 20.5v68q0 137 -33.5 186t-131.5 49h-26.5t-29.5 -2l-10 -90q-2 -100 -46 -145t-104 -45q-113 0 -137 102q8 127 129 207t342 80q197 0 282 -90t85 -297v-459q0 -59 45 -59q16 0 30.5 9t30.5 36l56 -37 q-37 -82 -95.5 -118t-150.5 -36q-178 0 -225 148q-66 -70 -126.5 -110t-166.5 -40q-119 0 -194 67.5t-75 194.5zM229 1477q0 53 36 82.5t77 29.5q51 0 84.5 -29.5t74.5 -97.5q66 -106 100.5 -162.5t61.5 -103.5l-78 -63q-39 31 -88 67.5t-139 104.5q-59 47 -94 87t-35 85z M367 285q0 -76 35.5 -113t86.5 -37q23 0 47.5 10.5t77.5 47.5v331q-27 -8 -52 -17t-44 -18q-70 -29 -110.5 -80.5t-40.5 -123.5z" />
<glyph unicode="&#xe1;" horiz-adv-x="1087" d="M63 231q0 74 33 133.5t119 110.5t244 96q31 10 71.5 20.5t83.5 20.5v68q0 137 -33.5 186t-131.5 49h-26.5t-29.5 -2l-10 -90q-2 -100 -46 -145t-104 -45q-113 0 -137 102q8 127 129 207t342 80q197 0 282 -90t85 -297v-459q0 -59 45 -59q16 0 30.5 9t30.5 36l56 -37 q-37 -82 -95.5 -118t-150.5 -36q-178 0 -225 148q-66 -70 -126.5 -110t-166.5 -40q-119 0 -194 67.5t-75 194.5zM367 285q0 -76 35.5 -113t86.5 -37q23 0 47.5 10.5t77.5 47.5v331q-27 -8 -52 -17t-44 -18q-70 -29 -110.5 -80.5t-40.5 -123.5zM421 1196q27 47 61 102.5 t99 161.5q41 70 76 99.5t86 29.5q41 0 76 -29.5t35 -82.5q0 -45 -34 -86t-95 -86q-88 -68 -136.5 -105t-89.5 -67z" />
<glyph unicode="&#xe2;" horiz-adv-x="1087" d="M63 231q0 74 33 133.5t119 110.5t244 96q31 10 71.5 20.5t83.5 20.5v68q0 137 -33.5 186t-131.5 49h-26.5t-29.5 -2l-10 -90q-2 -100 -46 -145t-104 -45q-113 0 -137 102q8 127 129 207t342 80q197 0 282 -90t85 -297v-459q0 -59 45 -59q16 0 30.5 9t30.5 36l56 -37 q-37 -82 -95.5 -118t-150.5 -36q-178 0 -225 148q-66 -70 -126.5 -110t-166.5 -40q-119 0 -194 67.5t-75 194.5zM209 1184l282 358h132l282 -358l-74 -68l-274 211l-274 -211zM367 285q0 -76 35.5 -113t86.5 -37q23 0 47.5 10.5t77.5 47.5v331q-27 -8 -52 -17t-44 -18 q-70 -29 -110.5 -80.5t-40.5 -123.5z" />
<glyph unicode="&#xe3;" horiz-adv-x="1087" d="M63 231q0 74 33 133.5t119 110.5t244 96q31 10 71.5 20.5t83.5 20.5v68q0 137 -33.5 186t-131.5 49h-26.5t-29.5 -2l-10 -90q-2 -100 -46 -145t-104 -45q-113 0 -137 102q8 127 129 207t342 80q197 0 282 -90t85 -297v-459q0 -59 45 -59q16 0 30.5 9t30.5 36l56 -37 q-37 -82 -95.5 -118t-150.5 -36q-178 0 -225 148q-66 -70 -126.5 -110t-166.5 -40q-119 0 -194 67.5t-75 194.5zM175 1204q16 137 78.5 211t150.5 74q47 0 84 -16.5t67 -38.5q35 -25 65 -44.5t69 -19.5q45 0 75.5 32t51.5 89l83 -35q-16 -135 -77.5 -211t-147.5 -76 q-43 0 -82 17.5t-73 38.5q-31 23 -63 44t-73 21q-43 0 -73.5 -31.5t-51.5 -89.5zM367 285q0 -76 35.5 -113t86.5 -37q23 0 47.5 10.5t77.5 47.5v331q-27 -8 -52 -17t-44 -18q-70 -29 -110.5 -80.5t-40.5 -123.5z" />
<glyph unicode="&#xe4;" horiz-adv-x="1087" d="M63 231q0 74 33 133.5t119 110.5t244 96q31 10 71.5 20.5t83.5 20.5v68q0 137 -33.5 186t-131.5 49h-26.5t-29.5 -2l-10 -90q-2 -100 -46 -145t-104 -45q-113 0 -137 102q8 127 129 207t342 80q197 0 282 -90t85 -297v-459q0 -59 45 -59q16 0 30.5 9t30.5 36l56 -37 q-37 -82 -95.5 -118t-150.5 -36q-178 0 -225 148q-66 -70 -126.5 -110t-166.5 -40q-119 0 -194 67.5t-75 194.5zM138 1327q0 70 48 110t109 40q66 0 112 -40t46 -110t-46 -109.5t-112 -39.5q-61 0 -109 39.5t-48 109.5zM367 285q0 -76 35.5 -113t86.5 -37q23 0 47.5 10.5 t77.5 47.5v331q-27 -8 -52 -17t-44 -18q-70 -29 -110.5 -80.5t-40.5 -123.5zM629 1327q0 70 48 110t110 40q63 0 110 -40t47 -110t-47 -109.5t-110 -39.5q-61 0 -109.5 39.5t-48.5 109.5z" />
<glyph unicode="&#xe5;" horiz-adv-x="1087" d="M63 231q0 74 33 133.5t119 110.5t244 96q31 10 71.5 20.5t83.5 20.5v68q0 137 -33.5 186t-131.5 49h-26.5t-29.5 -2l-10 -90q-2 -100 -46 -145t-104 -45q-113 0 -137 102q8 127 129 207t342 80q197 0 282 -90t85 -297v-459q0 -59 45 -59q16 0 30.5 9t30.5 36l56 -37 q-37 -82 -95.5 -118t-150.5 -36q-178 0 -225 148q-66 -70 -126.5 -110t-166.5 -40q-119 0 -194 67.5t-75 194.5zM297 1368q0 109 73 171.5t175 62.5t175 -60.5t73 -173.5t-73 -174t-175 -61t-175 63.5t-73 171.5zM367 285q0 -76 35.5 -113t86.5 -37q23 0 47.5 10.5 t77.5 47.5v331q-27 -8 -52 -17t-44 -18q-70 -29 -110.5 -80.5t-40.5 -123.5zM424 1368q0 -47 32 -89t89 -42q59 0 90 42t31 89q0 49 -31 89t-90 40q-57 0 -89 -40t-32 -89z" />
<glyph unicode="&#xe6;" horiz-adv-x="1615" d="M63 231q0 74 33 132.5t119 109.5t244 96q33 10 72.5 20.5t82.5 22.5v68q0 135 -33.5 185t-129.5 50h-27.5t-30.5 -2l-8 -92q-2 -100 -47 -146t-105 -46q-113 0 -137 104q8 127 129 208t342 81q190 0 277 -107q63 55 139 81t152 26q137 0 231 -57.5t143.5 -154.5 t49.5 -222q0 -33 -2.5 -58.5t-8.5 -50.5h-594q10 -162 89 -238.5t186 -76.5q84 0 143.5 31.5t106.5 78.5l69 -65q-63 -121 -171.5 -180.5t-258.5 -59.5q-127 0 -231.5 48.5t-171.5 136.5q-88 -106 -175 -145.5t-192 -39.5q-131 0 -208 68.5t-77 193.5zM367 287 q0 -82 38.5 -117t90.5 -35q45 0 78.5 17.5t95.5 72.5q-29 57 -45.5 125t-16.5 146v13v11q-27 -8 -49 -15t-41 -18q-70 -29 -110.5 -78.5t-40.5 -121.5zM954 586h176q74 0 98.5 29.5t24.5 99.5q0 102 -41 151t-98 49t-104 -70.5t-56 -258.5z" />
<glyph unicode="&#xe7;" horiz-adv-x="1050" d="M57 492q0 168 75 286.5t201 181t277 62.5q109 0 193 -41t134 -108.5t56 -149.5q-33 -106 -139 -107q-59 0 -104 43t-52 152l-14 102q-8 2 -18.5 2h-20.5q-57 0 -114.5 -38.5t-94.5 -122.5t-37 -224q0 -176 79 -271t208 -95q74 0 129 31.5t100 83.5l72 -64 q-59 -125 -167 -185.5t-253 -60.5q-139 0 -254.5 58.5t-185.5 175t-70 289.5zM367 -434l22 94q29 -8 55.5 -12t53.5 -4q55 0 80.5 21.5t25.5 55.5q0 89 -129 97l29 190h106l-12 -112q109 -20 157 -66.5t48 -108.5q0 -78 -68.5 -130t-208.5 -52q-49 0 -87 7.5t-72 19.5z" />
<glyph unicode="&#xe8;" horiz-adv-x="1067" d="M59 494q0 172 77 289.5t198 178t252 60.5q135 0 230 -57.5t144.5 -154.5t49.5 -222q0 -59 -13 -109h-591q10 -162 88.5 -238.5t185.5 -76.5q84 0 143.5 31.5t104.5 78.5l71 -65q-63 -121 -171.5 -180.5t-258.5 -59.5t-264.5 62.5t-180 180.5t-65.5 282zM262 1477 q0 53 36 82.5t77 29.5q51 0 84.5 -29.5t74.5 -97.5q66 -106 100.5 -162.5t61.5 -103.5l-78 -63q-39 31 -88 67.5t-139 104.5q-59 47 -94 87t-35 85zM406 586h174q74 0 99.5 29.5t25.5 99.5q0 102 -41.5 151t-98.5 49t-105 -70.5t-54 -258.5z" />
<glyph unicode="&#xe9;" horiz-adv-x="1067" d="M59 494q0 172 77 289.5t198 178t252 60.5q135 0 230 -57.5t144.5 -154.5t49.5 -222q0 -59 -13 -109h-591q10 -162 88.5 -238.5t185.5 -76.5q84 0 143.5 31.5t104.5 78.5l71 -65q-63 -121 -171.5 -180.5t-258.5 -59.5t-264.5 62.5t-180 180.5t-65.5 282zM406 586h174 q74 0 99.5 29.5t25.5 99.5q0 102 -41.5 151t-98.5 49t-105 -70.5t-54 -258.5zM444 1196q27 47 61 102.5t99 161.5q41 70 76 99.5t86 29.5q41 0 76 -29.5t35 -82.5q0 -45 -34 -86t-95 -86q-88 -68 -136.5 -105t-89.5 -67z" />
<glyph unicode="&#xea;" horiz-adv-x="1067" d="M59 494q0 172 77 289.5t198 178t252 60.5q135 0 230 -57.5t144.5 -154.5t49.5 -222q0 -59 -13 -109h-591q10 -162 88.5 -238.5t185.5 -76.5q84 0 143.5 31.5t104.5 78.5l71 -65q-63 -121 -171.5 -180.5t-258.5 -59.5t-264.5 62.5t-180 180.5t-65.5 282zM223 1184l282 358 h132l282 -358l-74 -68l-274 211l-274 -211zM406 586h174q74 0 99.5 29.5t25.5 99.5q0 102 -41.5 151t-98.5 49t-105 -70.5t-54 -258.5z" />
<glyph unicode="&#xeb;" horiz-adv-x="1067" d="M59 494q0 172 77 289.5t198 178t252 60.5q135 0 230 -57.5t144.5 -154.5t49.5 -222q0 -59 -13 -109h-591q10 -162 88.5 -238.5t185.5 -76.5q84 0 143.5 31.5t104.5 78.5l71 -65q-63 -121 -171.5 -180.5t-258.5 -59.5t-264.5 62.5t-180 180.5t-65.5 282zM177 1327 q0 70 48 110t109 40q66 0 112 -40t46 -110t-46 -109.5t-112 -39.5q-61 0 -109 39.5t-48 109.5zM406 586h174q74 0 99.5 29.5t25.5 99.5q0 102 -41.5 151t-98.5 49t-105 -70.5t-54 -258.5zM668 1327q0 70 48 110t110 40q63 0 110 -40t47 -110t-47 -109.5t-110 -39.5 q-61 0 -109.5 39.5t-48.5 109.5z" />
<glyph unicode="&#xec;" horiz-adv-x="647" d="M18 1477q0 53 36 82.5t77 29.5q51 0 84.5 -29.5t74.5 -97.5q66 -106 100.5 -162.5t61.5 -103.5l-78 -63q-39 31 -88 67.5t-139 104.5q-59 47 -94 87t-35 85zM43 805v80l428 137l35 -23l-6 -297v-272v-150t2 -163l102 -21v-96h-543v96l111 25q2 74 2 160v149v98 q0 84 -1 140.5t-5 117.5z" />
<glyph unicode="&#xed;" horiz-adv-x="647" d="M43 805v80l428 137l35 -23l-6 -297v-272v-150t2 -163l102 -21v-96h-543v96l111 25q2 74 2 160v149v98q0 84 -1 140.5t-5 117.5zM229 1196q27 47 61 102.5t99 161.5q41 70 76 99.5t86 29.5q41 0 76 -29.5t35 -82.5q0 -45 -34 -86t-95 -86q-88 -68 -136.5 -105t-89.5 -67z " />
<glyph unicode="&#xee;" horiz-adv-x="647" d="M-8 1184l282 358h132l282 -358l-74 -68l-274 211l-274 -211zM43 805v80l428 137l35 -23l-6 -297v-272v-150t2 -163l102 -21v-96h-543v96l111 25q2 74 2 160v149v98q0 84 -1 140.5t-5 117.5z" />
<glyph unicode="&#xef;" horiz-adv-x="647" d="M-29 1327q0 70 48.5 110t109.5 40q63 0 110.5 -40t47.5 -110t-47.5 -109.5t-110.5 -39.5q-61 0 -109.5 39.5t-48.5 109.5zM43 805v80l428 137l35 -23l-6 -297v-272v-150t2 -163l102 -21v-96h-543v96l111 25q2 74 2 160v149v98q0 84 -1 140.5t-5 117.5zM377 1327 q0 70 48 110t110 40q63 0 110 -40t47 -110t-47 -109.5t-110 -39.5q-61 0 -109.5 39.5t-48.5 109.5z" />
<glyph unicode="&#xf0;" horiz-adv-x="1134" d="M59 489q0 160 71 271.5t184.5 170t240.5 58.5q33 0 63.5 -6t57.5 -20q-25 63 -53.5 114t-65.5 94l-287 -135l-55 113l248 117q-45 37 -100.5 69.5t-122.5 65.5l53 106q94 -29 181 -68.5t163 -90.5l321 151l54 -113l-264 -124q152 -131 238.5 -306.5t86.5 -384.5 t-72.5 -342t-192.5 -196.5t-259 -63.5q-119 0 -231.5 57.5t-185.5 173t-73 289.5zM406 477q0 -197 42.5 -299t122.5 -102q76 0 122 104.5t46 311.5q0 190 -43 291.5t-125 101.5q-76 0 -120.5 -101.5t-44.5 -306.5z" />
<glyph unicode="&#xf1;" horiz-adv-x="1261" d="M39 805v80l403 137l37 -23l13 -147q80 94 158.5 132t168.5 38q133 0 214 -88t81 -264v-240v-152.5t2 -160.5l103 -21v-96h-541v96l106 23q2 76 2 161v150v215q0 98 -26.5 138t-85.5 40q-80 0 -176 -73v-320v-150t2 -163l96 -21v-96h-539v96l111 25q2 74 2 160v149v119 q0 84 -1 130t-5 107zM269 1204q16 137 78.5 211t150.5 74q47 0 84 -16.5t67 -38.5q35 -25 65 -44.5t69 -19.5q45 0 75.5 32t51.5 89l83 -35q-16 -135 -77.5 -211t-147.5 -76q-43 0 -82 17.5t-73 38.5q-31 23 -63 44t-73 21q-43 0 -73.5 -31.5t-51.5 -89.5z" />
<glyph unicode="&#xf2;" horiz-adv-x="1157" d="M59 500q0 158 69 274.5t187.5 182t264.5 65.5q145 0 263 -63.5t187.5 -181.5t69.5 -277q0 -160 -63.5 -279t-180 -185.5t-276.5 -66.5t-277 66.5t-180.5 186.5t-63.5 278zM258 1477q0 53 36 82.5t77 29.5q51 0 84.5 -29.5t74.5 -97.5q66 -106 100.5 -162.5t61.5 -103.5 l-78 -63q-39 31 -88 67.5t-139 104.5q-59 47 -94 87t-35 85zM406 494q0 -217 43 -317.5t131 -100.5q86 0 129 100t43 318q0 219 -43 319t-129 100q-88 0 -131 -100t-43 -319z" />
<glyph unicode="&#xf3;" horiz-adv-x="1157" d="M59 500q0 158 69 274.5t187.5 182t264.5 65.5q145 0 263 -63.5t187.5 -181.5t69.5 -277q0 -160 -63.5 -279t-180 -185.5t-276.5 -66.5t-277 66.5t-180.5 186.5t-63.5 278zM406 494q0 -217 43 -317.5t131 -100.5q86 0 129 100t43 318q0 219 -43 319t-129 100 q-88 0 -131 -100t-43 -319zM485 1196q27 47 61 102.5t99 161.5q41 70 76 99.5t86 29.5q41 0 76 -29.5t35 -82.5q0 -45 -34 -86t-95 -86q-88 -68 -136.5 -105t-89.5 -67z" />
<glyph unicode="&#xf4;" horiz-adv-x="1157" d="M59 500q0 158 69 274.5t187.5 182t264.5 65.5q145 0 263 -63.5t187.5 -181.5t69.5 -277q0 -160 -63.5 -279t-180 -185.5t-276.5 -66.5t-277 66.5t-180.5 186.5t-63.5 278zM232 1184l282 358h132l282 -358l-74 -68l-274 211l-274 -211zM406 494q0 -217 43 -317.5 t131 -100.5q86 0 129 100t43 318q0 219 -43 319t-129 100q-88 0 -131 -100t-43 -319z" />
<glyph unicode="&#xf5;" horiz-adv-x="1157" d="M59 500q0 158 69 274.5t187.5 182t264.5 65.5q145 0 263 -63.5t187.5 -181.5t69.5 -277q0 -160 -63.5 -279t-180 -185.5t-276.5 -66.5t-277 66.5t-180.5 186.5t-63.5 278zM218 1204q16 137 78.5 211t150.5 74q47 0 84 -16.5t67 -38.5q35 -25 65 -44.5t69 -19.5 q45 0 75.5 32t51.5 89l83 -35q-16 -135 -77.5 -211t-147.5 -76q-43 0 -82 17.5t-73 38.5q-31 23 -63 44t-73 21q-43 0 -73.5 -31.5t-51.5 -89.5zM406 494q0 -217 43 -317.5t131 -100.5q86 0 129 100t43 318q0 219 -43 319t-129 100q-88 0 -131 -100t-43 -319z" />
<glyph unicode="&#xf6;" horiz-adv-x="1157" d="M59 500q0 158 69 274.5t187.5 182t264.5 65.5q145 0 263 -63.5t187.5 -181.5t69.5 -277q0 -160 -63.5 -279t-180 -185.5t-276.5 -66.5t-277 66.5t-180.5 186.5t-63.5 278zM177 1327q0 70 48 110t109 40q66 0 112 -40t46 -110t-46 -109.5t-112 -39.5q-61 0 -109 39.5 t-48 109.5zM406 494q0 -217 43 -317.5t131 -100.5q86 0 129 100t43 318q0 219 -43 319t-129 100q-88 0 -131 -100t-43 -319zM668 1327q0 70 48 110t110 40q63 0 110 -40t47 -110t-47 -109.5t-110 -39.5q-61 0 -109.5 39.5t-48.5 109.5z" />
<glyph unicode="&#xf7;" horiz-adv-x="1114" d="M61 571v181h994v-181h-994zM406 279q0 61 44 103t107 42q66 0 109 -42t43 -103t-43 -102.5t-109 -41.5q-63 0 -107 41t-44 103zM406 1042q0 61 44 103.5t107 42.5q66 0 109 -42t43 -104q0 -61 -43 -103t-109 -42q-63 0 -107 42t-44 103z" />
<glyph unicode="&#xf8;" horiz-adv-x="1157" d="M59 500q0 158 69 274.5t187.5 182t264.5 65.5q156 0 280 -74l92 115l95 -78l-91 -113q68 -68 106 -162t38 -210q0 -160 -63.5 -279t-180.5 -185.5t-276 -66.5q-82 0 -155 19.5t-132 52.5l-88 -111l-96 76l90 113q-139 143 -140 381zM389 494q0 -35 1 -68t3 -61l340 423 q-49 125 -153 125q-96 0 -143.5 -100t-47.5 -319zM424 205q45 -129 156 -129q96 0 143 100t47 318q0 76 -6 137z" />
<glyph unicode="&#xf9;" horiz-adv-x="1243" d="M39 864v86l418 60l32 -23l-10 -289v-362q0 -94 30 -131t81 -37q43 0 89 26.5t87 65.5l8 580l-112 24v80l407 66l33 -23l-6 -289v-581l106 -23v-96l-420 -21l-12 173q-66 -86 -149.5 -133.5t-182.5 -47.5q-131 0 -211 83t-77 286l8 500zM305 1477q0 53 36 82.5t77 29.5 q51 0 84.5 -29.5t74.5 -97.5q66 -106 100.5 -162.5t61.5 -103.5l-78 -63q-39 31 -88 67.5t-139 104.5q-59 47 -94 87t-35 85z" />
<glyph unicode="&#xfa;" horiz-adv-x="1243" d="M39 864v86l418 60l32 -23l-10 -289v-362q0 -94 30 -131t81 -37q43 0 89 26.5t87 65.5l8 580l-112 24v80l407 66l33 -23l-6 -289v-581l106 -23v-96l-420 -21l-12 173q-66 -86 -149.5 -133.5t-182.5 -47.5q-131 0 -211 83t-77 286l8 500zM475 1196q27 47 61 102.5t99 161.5 q41 70 76 99.5t86 29.5q41 0 76 -29.5t35 -82.5q0 -45 -34 -86t-95 -86q-88 -68 -136.5 -105t-89.5 -67z" />
<glyph unicode="&#xfb;" horiz-adv-x="1243" d="M39 864v86l418 60l32 -23l-10 -289v-362q0 -94 30 -131t81 -37q43 0 89 26.5t87 65.5l8 580l-112 24v80l407 66l33 -23l-6 -289v-581l106 -23v-96l-420 -21l-12 173q-66 -86 -149.5 -133.5t-182.5 -47.5q-131 0 -211 83t-77 286l8 500zM283 1184l282 358h132l282 -358 l-74 -68l-274 211l-274 -211z" />
<glyph unicode="&#xfc;" horiz-adv-x="1243" d="M39 864v86l418 60l32 -23l-10 -289v-362q0 -94 30 -131t81 -37q43 0 89 26.5t87 65.5l8 580l-112 24v80l407 66l33 -23l-6 -289v-581l106 -23v-96l-420 -21l-12 173q-66 -86 -149.5 -133.5t-182.5 -47.5q-131 0 -211 83t-77 286l8 500zM232 1327q0 70 48 110t109 40 q66 0 112 -40t46 -110t-46 -109.5t-112 -39.5q-61 0 -109 39.5t-48 109.5zM723 1327q0 70 48 110t110 40q63 0 110 -40t47 -110t-47 -109.5t-110 -39.5q-61 0 -109.5 39.5t-48.5 109.5z" />
<glyph unicode="&#xfd;" horiz-adv-x="1093" d="M-4 901v88h582v-88l-138 -24l201 -553l195 553l-136 24v88h385v-88l-116 -20l-373 -965q-76 -197 -158 -299t-225 -102q-82 0 -144.5 45t-66.5 108q12 68 60.5 100.5t107.5 32.5q41 0 88 -17t88 -79l14 -20q90 96 140 235v2l-408 963zM542 1196q27 47 61 102.5t99 161.5 q41 70 76 99.5t86 29.5q41 0 76 -29.5t35 -82.5q0 -45 -34 -86t-95 -86q-88 -68 -136.5 -105t-89.5 -67z" />
<glyph unicode="&#xfe;" horiz-adv-x="1234" d="M33 1309v86l422 92l34 -21l-8 -286v-287q127 129 293 129q113 0 204 -59.5t144.5 -175t53.5 -285.5q0 -164 -61.5 -284t-161 -184.5t-214.5 -64.5q-82 0 -144.5 28t-113.5 81v-84q0 -74 1 -156t3 -176l131 -31v-96h-573v96l113 25q2 96 3 179t1 159v1298zM487 195 q31 -27 64 -40.5t72 -13.5q90 0 148 87.5t58 267.5q0 182 -56 265t-148 83q-37 0 -72 -16.5t-66 -41.5v-591z" />
<glyph unicode="&#xff;" horiz-adv-x="1093" d="M-4 901v88h582v-88l-138 -24l201 -553l195 553l-136 24v88h385v-88l-116 -20l-373 -965q-76 -197 -158 -299t-225 -102q-82 0 -144.5 45t-66.5 108q12 68 60.5 100.5t107.5 32.5q41 0 88 -17t88 -79l14 -20q90 96 140 235v2l-408 963zM244 1327q0 70 48 110t109 40 q66 0 112 -40t46 -110t-46 -109.5t-112 -39.5q-61 0 -109 39.5t-48 109.5zM735 1327q0 70 48 110t110 40q63 0 110 -40t47 -110t-47 -109.5t-110 -39.5q-61 0 -109.5 39.5t-48.5 109.5z" />
<glyph unicode="&#x152;" horiz-adv-x="1904" d="M70 674q0 242 99 399.5t265 234t367 76.5q147 0 280 -38h719l15 -353h-173l-38 238h-344q-2 -117 -3.5 -235.5t-1.5 -239.5h222l24 159h119v-440h-119l-24 160h-222q0 -141 1 -268t4 -252h385l38 237h172l-14 -352h-760q-57 -16 -129.5 -27.5t-150.5 -11.5 q-201 0 -367 77t-265 235.5t-99 400.5zM432 674q0 -176 44 -310.5t132 -209t219 -74.5q20 0 40 1t40 3q4 135 4 273.5v277.5v76v275t-4 276q-20 2 -39.5 3t-40.5 1q-131 0 -219 -75t-132 -208t-44 -309z" />
<glyph unicode="&#x153;" horiz-adv-x="1757" d="M59 500q0 158 69 275.5t187.5 182t264.5 64.5q102 0 192 -40t156 -110q70 72 162 111t186 39q137 0 231.5 -57.5t143.5 -154.5t49 -222q0 -33 -2 -58.5t-8 -50.5h-594q10 -162 89 -238.5t185 -76.5q84 0 144.5 32.5t105.5 77.5l70 -65q-63 -123 -173 -181.5t-257 -58.5 q-106 0 -190.5 37t-147.5 107q-63 -68 -148.5 -106t-193.5 -38q-160 0 -277 66.5t-180.5 186.5t-63.5 278zM406 496q0 -219 43 -319.5t131 -100.5q86 0 129 99t43 319q0 219 -43 319t-129 100q-88 0 -131 -99t-43 -318zM1096 586h176q72 0 97.5 29.5t25.5 99.5 q0 102 -40.5 151t-99.5 49q-57 0 -104 -70.5t-55 -258.5z" />
<glyph unicode="&#x178;" horiz-adv-x="1277" d="M16 1235v111h660v-111l-154 -18l234 -519l235 514l-141 23v111h424v-111l-150 -25l-309 -628v-258.5t2 -194.5l178 -18v-111h-702v111l176 18q2 84 2 176v223l-340 695zM346 1602q0 66 46.5 103.5t103.5 37.5q61 0 106.5 -38t45.5 -103q0 -66 -45.5 -104t-106.5 -38 q-57 0 -103.5 38t-46.5 104zM856 1602q0 66 46.5 103.5t103.5 37.5q61 0 106.5 -38t45.5 -103q0 -66 -45.5 -104t-106.5 -38q-57 0 -103.5 38t-46.5 104z" />
<glyph unicode="&#x2c6;" horiz-adv-x="735" d="M21 1184l282 358h132l282 -358l-74 -68l-274 211l-274 -211z" />
<glyph unicode="&#x2dc;" horiz-adv-x="819" d="M52 1204q16 137 78.5 211t150.5 74q47 0 84 -16.5t67 -38.5q35 -25 65 -44.5t69 -19.5q45 0 75.5 32t51.5 89l83 -35q-16 -135 -77.5 -211t-147.5 -76q-43 0 -82 17.5t-73 38.5q-31 23 -63 44t-73 21q-43 0 -73.5 -31.5t-51.5 -89.5z" />
<glyph unicode="&#x2000;" horiz-adv-x="920" />
<glyph unicode="&#x2001;" horiz-adv-x="1841" />
<glyph unicode="&#x2002;" horiz-adv-x="920" />
<glyph unicode="&#x2003;" horiz-adv-x="1841" />
<glyph unicode="&#x2004;" horiz-adv-x="613" />
<glyph unicode="&#x2005;" horiz-adv-x="460" />
<glyph unicode="&#x2006;" horiz-adv-x="306" />
<glyph unicode="&#x2007;" horiz-adv-x="306" />
<glyph unicode="&#x2008;" horiz-adv-x="230" />
<glyph unicode="&#x2009;" horiz-adv-x="368" />
<glyph unicode="&#x200a;" horiz-adv-x="102" />
<glyph unicode="&#x2010;" horiz-adv-x="694" d="M82 428v184h530v-184h-530z" />
<glyph unicode="&#x2011;" horiz-adv-x="694" d="M82 428v184h530v-184h-530z" />
<glyph unicode="&#x2012;" horiz-adv-x="694" d="M82 428v184h530v-184h-530z" />
<glyph unicode="&#x2013;" horiz-adv-x="1103" d="M82 428v184h940v-184h-940z" />
<glyph unicode="&#x2014;" horiz-adv-x="1718" d="M82 428v184h1554v-184h-1554z" />
<glyph unicode="&#x2018;" horiz-adv-x="442" d="M49 1096q0 133 89 242.5t229 168.5l36 -77q-49 -29 -99 -77t-87 -112l90 -63q47 -35 63.5 -73t16.5 -79q0 -70 -47 -113t-111 -43q-45 0 -77.5 17.5t-57.5 38.5q-45 76 -45 170z" />
<glyph unicode="&#x2019;" horiz-adv-x="442" d="M39 950q49 29 99 77t87 112l-90 63q-45 35 -62.5 73t-17.5 79q0 70 47.5 112.5t110.5 42.5q45 0 78 -17t57 -38q45 -76 45 -170q0 -133 -89 -242.5t-228 -169.5z" />
<glyph unicode="&#x201a;" horiz-adv-x="442" d="M39 -234q49 29 99 77t87 112l-90 63q-45 35 -62.5 73t-17.5 79q0 70 47.5 112.5t110.5 42.5q45 0 78 -17t57 -38q45 -76 45 -170q0 -133 -89 -242.5t-228 -169.5z" />
<glyph unicode="&#x201c;" horiz-adv-x="880" d="M49 1096q0 133 89 242.5t229 168.5l36 -77q-49 -29 -99 -77t-87 -112l90 -63q47 -35 63.5 -73t16.5 -79q0 -70 -47 -113t-111 -43q-45 0 -77.5 17.5t-57.5 38.5q-45 76 -45 170zM487 1096q0 133 89 242.5t229 168.5l36 -77q-49 -29 -99 -77t-87 -112l90 -63 q47 -35 63.5 -73t16.5 -79q0 -70 -47 -113t-111 -43q-45 0 -77.5 17.5t-57.5 38.5q-45 76 -45 170z" />
<glyph unicode="&#x201d;" horiz-adv-x="880" d="M39 950q49 29 99 77t87 112l-90 63q-45 35 -62.5 73t-17.5 79q0 70 47.5 112.5t110.5 42.5q45 0 78 -17t57 -38q45 -76 45 -170q0 -133 -89 -242.5t-228 -169.5zM477 950q49 29 99 77t87 112l-90 63q-45 35 -62.5 73t-17.5 79q0 70 47.5 112.5t110.5 42.5q45 0 78 -17 t57 -38q45 -76 45 -170q0 -133 -89 -242.5t-228 -169.5z" />
<glyph unicode="&#x201e;" horiz-adv-x="880" d="M39 -234q49 29 99 77t87 112l-90 63q-45 35 -62.5 73t-17.5 79q0 70 47.5 112.5t110.5 42.5q45 0 78 -17t57 -38q45 -76 45 -170q0 -133 -89 -242.5t-228 -169.5zM477 -234q49 29 99 77t87 112l-90 63q-45 35 -62.5 73t-17.5 79q0 70 47.5 112.5t110.5 42.5q45 0 78 -17 t57 -38q45 -76 45 -170q0 -133 -89 -242.5t-228 -169.5z" />
<glyph unicode="&#x2022;" horiz-adv-x="675" d="M68 662q0 125 79.5 198.5t190.5 73.5t190.5 -74t79.5 -198q0 -82 -36.5 -144.5t-98 -96.5t-135.5 -34t-135.5 34t-98 96.5t-36.5 144.5z" />
<glyph unicode="&#x2026;" horiz-adv-x="1843" d="M123 152q0 76 53 131t131 55t131.5 -55.5t53.5 -130.5q0 -76 -53.5 -129.5t-131.5 -53.5t-131 53.5t-53 129.5zM737 152q0 76 53 131t131 55t131.5 -55.5t53.5 -130.5q0 -76 -53.5 -129.5t-131.5 -53.5t-131 53.5t-53 129.5zM1352 152q0 76 53 131t131 55t131.5 -55.5 t53.5 -130.5q0 -76 -53.5 -129.5t-131.5 -53.5t-131 53.5t-53 129.5z" />
<glyph unicode="&#x202f;" horiz-adv-x="368" />
<glyph unicode="&#x2039;" horiz-adv-x="684" d="M53 451v133l479 389l72 -74l-315 -383l315 -381l-72 -74z" />
<glyph unicode="&#x203a;" horiz-adv-x="684" d="M80 135l315 381l-315 383l72 74l479 -389v-133l-479 -390z" />
<glyph unicode="&#x205f;" horiz-adv-x="460" />
<glyph unicode="&#x20ac;" d="M20 451v116h115q-2 18 -2 39v41q0 23 1 46.5t3 43.5h-117v119h134q33 160 113.5 263.5t194 153.5t247.5 50q158 0 261 -74.5t109 -199.5q-8 -57 -44 -81t-72 -24q-53 0 -98.5 32t-63.5 138l-21 98q-14 2 -28.5 2h-30.5q-94 0 -170 -88t-107 -270h402v-119h-414 q-2 -20 -2 -43.5v-46.5v-40.5t2 -39.5h414v-116h-402q31 -186 115 -280.5t195 -94.5h17t15 2l19 98q18 106 64 138t100 32q39 0 71.5 -23.5t40.5 -78.5q-4 -125 -112.5 -200t-272.5 -75q-211 0 -357 117t-189 365h-130z" />
<glyph unicode="&#x2122;" horiz-adv-x="1597" d="M82 1165l2 181h578v-181h-95l-12 115h-82v-469l72 -6v-66h-344v66l69 6v469h-82l-12 -115h-94zM686 739v66l90 12l6 457l-67 6v66h248l149 -340l131 340h260v-66l-61 -6v-463l61 -6v-66h-327v66l65 6v346l-168 -418h-59l-166 408l-2 -330l86 -12v-66h-246z" />
<glyph unicode="&#x25fc;" horiz-adv-x="993" d="M0 0v993h993v-993h-993z" />
</font>
</defs>
</svg>
