<?xml version="1.0" standalone="no"?>
<!DOCTYPE svg PUBLIC "-//W3C//DTD SVG 1.1//EN" "http://www.w3.org/Graphics/SVG/1.1/DTD/svg11.dtd" >
<svg xmlns="http://www.w3.org/2000/svg" xmlns:xlink="http://www.w3.org/1999/xlink" version="1.1">
<metadata></metadata>
<defs>
<font id="source_sans_proSBdIt" horiz-adv-x="494" >
<font-face units-per-em="1000" ascent="750" descent="-250" />
<missing-glyph horiz-adv-x="200" />
<glyph horiz-adv-x="0" />
<glyph horiz-adv-x="333" />
<glyph unicode=" "  horiz-adv-x="200" />
<glyph unicode="&#x09;" horiz-adv-x="200" />
<glyph unicode="&#xa0;" horiz-adv-x="200" />
<glyph unicode="!" horiz-adv-x="307" d="M44 50q0 32 23.5 59t59.5 27q27 0 43 -18t16 -45q0 -32 -23 -58.5t-59 -26.5q-27 0 -43.5 17.5t-16.5 44.5zM109 212l73 459h107l-24 -110l-84 -349h-72z" />
<glyph unicode="&#x22;" horiz-adv-x="460" d="M124 394l22 167l17 110h106l-24 -110l-49 -167h-72zM317 394l22 167l17 110h106l-24 -110l-49 -167h-72z" />
<glyph unicode="#" horiz-adv-x="493" d="M21 196l17 73h82l41 132h-78l18 73h83l56 176h67l-56 -176h112l56 176h67l-56 -176h77l-18 -73h-82l-41 -132h78l-17 -73h-84l-62 -196h-66l62 196h-113l-62 -196h-66l62 196h-77zM187 269h113l41 132h-113z" />
<glyph unicode="$" d="M11 85l67 66q23 -30 56.5 -53t75.5 -23q48 0 76.5 26.5t28.5 69.5q0 38 -21 65.5t-52 51t-61.5 48t-51.5 56.5t-21 77q0 77 50 127.5t131 56.5l19 99h74l-20 -105q35 -10 65 -31.5t54 -51.5l-69 -61q-19 28 -47 46t-59 18q-41 0 -66.5 -23.5t-25.5 -61.5q0 -33 21 -57 t51.5 -46t61.5 -47.5t52 -60.5t21 -85q0 -53 -23.5 -95.5t-65.5 -69.5t-100 -32l-20 -99h-74l21 103q-43 10 -81.5 34.5t-66.5 57.5z" />
<glyph unicode="%" horiz-adv-x="810" d="M57 414q0 66 22.5 125t64.5 96t100 37q59 0 95 -43.5t36 -112.5q0 -66 -22.5 -125t-64.5 -96t-100 -37t-94.5 43.5t-36.5 112.5zM136 417q0 -41 13.5 -67t44.5 -26q32 0 54.5 27t35 70.5t12.5 91.5q0 41 -13.5 67t-44.5 26t-54 -27t-35.5 -70t-12.5 -92zM138 -12l479 684 h66l-479 -684h-66zM455 144q0 66 22.5 125t64.5 96t100 37q59 0 95 -43.5t36 -112.5q0 -66 -22.5 -125t-64.5 -96t-100 -37t-94.5 43.5t-36.5 112.5zM534 147q0 -41 13.5 -67t44.5 -26q32 0 54.5 27t35 70.5t12.5 91.5q0 41 -13.5 67t-44.5 26t-54 -27t-35.5 -70t-12.5 -92z " />
<glyph unicode="&#x26;" horiz-adv-x="608" d="M15 146q0 54 22.5 93.5t58.5 68.5t77 53q-9 29 -14 57t-5 54q0 55 25.5 99t67.5 69.5t93 25.5q59 0 90 -33t31 -86q0 -50 -26 -88.5t-67 -68.5t-85 -57q21 -43 50.5 -83t63.5 -74q37 40 65 86t50 98h98q-30 -64 -67.5 -124t-84.5 -113q26 -19 52 -31t47 -19l-43 -85 q-66 17 -129 67q-43 -31 -91.5 -49t-103.5 -18q-81 0 -128 43.5t-47 114.5zM119 158q0 -39 25 -63.5t66 -24.5q57 0 115 40q-73 76 -121 172q-37 -26 -61 -56t-24 -68zM245 476q0 -16 2.5 -34t7.5 -35q50 29 85.5 61t35.5 78q0 20 -10.5 33.5t-32.5 13.5q-36 0 -62 -32 t-26 -85z" />
<glyph unicode="'" horiz-adv-x="267" d="M124 394l22 167l17 110h106l-24 -110l-49 -167h-72z" />
<glyph unicode="(" horiz-adv-x="310" d="M60 132q0 116 27.5 217t79.5 194.5t127 188.5l63 -33q-106 -137 -157.5 -280.5t-51.5 -295.5q0 -44 4 -93.5t13 -96t23 -83.5l-70 -28q-23 64 -40.5 146t-17.5 164z" />
<glyph unicode=")" horiz-adv-x="312" d="M-38 -144q105 137 156.5 281t51.5 295q0 45 -4 94t-12.5 95.5t-22.5 83.5l69 27q24 -63 41 -145t17 -164q0 -116 -27 -217t-79.5 -195t-127.5 -189z" />
<glyph unicode="*" horiz-adv-x="421" d="M113 584l25 52l102 -33l29 110l58 -4l-8 -113l108 14l9 -56l-107 -35l38 -102l-52 -30l-57 91l-84 -79l-42 39l72 94z" />
<glyph unicode="+" d="M48 292v77h172v190h80v-190h172v-77h-173v-193h-81v193h-170z" />
<glyph unicode="," horiz-adv-x="267" d="M-29 -115q53 17 83 47.5t38 65.5q-28 0 -47 16t-19 44q0 30 21 54t57 24q34 0 52 -22t18 -60q0 -84 -52 -146.5t-138 -83.5z" />
<glyph unicode="-" horiz-adv-x="310" d="M34 213l16 79h227l-17 -79h-226z" />
<glyph unicode="&#xad;" horiz-adv-x="310" d="M34 213l16 79h227l-17 -79h-226z" />
<glyph unicode="." horiz-adv-x="267" d="M23 50q0 32 23.5 59t59.5 27q27 0 42.5 -18t15.5 -45q0 -32 -22.5 -58.5t-59.5 -26.5q-27 0 -43 17.5t-16 44.5z" />
<glyph unicode="/" horiz-adv-x="334" d="M-70 -160l402 870h74l-404 -870h-72z" />
<glyph unicode="0" d="M40 210q0 98 22.5 178.5t61.5 138.5t87.5 89.5t100.5 31.5q76 0 121.5 -60t45.5 -164q0 -97 -22.5 -177.5t-60.5 -138t-86.5 -89t-100.5 -31.5q-77 0 -123 59.5t-46 162.5zM140 202q0 -62 19 -96t56 -34q33 0 62.5 30t52.5 81t36.5 115.5t13.5 133.5q0 63 -18.5 98 t-56.5 35q-33 0 -62.5 -30.5t-52.5 -82t-36.5 -116.5t-13.5 -134z" />
<glyph unicode="1" d="M22 0l18 87h135l87 430h-115l14 68q47 8 83.5 20t67.5 31h81l-111 -549h123l-17 -87h-366z" />
<glyph unicode="2" d="M-12 0l12 62q115 97 195.5 167t123 127.5t42.5 115.5q0 39 -22.5 64.5t-67.5 25.5q-29 0 -58 -15t-59 -42l-53 64q45 38 90 58.5t93 20.5q86 0 134 -45.5t48 -118.5q0 -67 -34.5 -125t-100 -121.5t-159.5 -146.5h244l-17 -91h-411z" />
<glyph unicode="3" d="M-12 100l68 56q25 -34 60.5 -57.5t77.5 -23.5q60 0 96.5 31t36.5 80q0 46 -36.5 74t-134.5 28l16 78q73 0 114.5 17t58.5 43.5t17 54.5q0 36 -22.5 58.5t-66.5 22.5q-54 0 -113 -45l-53 70q44 32 90.5 46.5t94.5 14.5q83 0 131 -40.5t48 -108.5q0 -61 -34 -105t-108 -67 v-4q52 -19 78.5 -54.5t26.5 -81.5q0 -62 -31 -107t-85.5 -68.5t-123.5 -23.5q-61 0 -115.5 30t-90.5 82z" />
<glyph unicode="4" d="M12 165l14 74l329 397h124l-77 -387h78l-17 -84h-78l-33 -165h-98l33 165h-275zM137 249h166l30 151q7 32 16 66t16 68h-4q-19 -28 -39 -56t-40 -54z" />
<glyph unicode="5" d="M-2 99l69 56q23 -34 54.5 -57t78.5 -23q36 0 67.5 17.5t50.5 50.5t19 77q0 53 -27 79t-74 26q-28 0 -48 -7t-52 -24l-42 34l79 308h321l-18 -90h-228l-43 -156q16 8 33.5 12t38.5 4q72 0 120 -42.5t48 -125.5q0 -77 -35.5 -133t-92 -86.5t-120.5 -30.5q-62 0 -112.5 29.5 t-86.5 81.5z" />
<glyph unicode="6" d="M51 209q0 130 40 229t109.5 154.5t158.5 55.5q56 0 93 -26t57 -58l-70 -57q-15 26 -36 40t-51 14q-65 0 -118 -61.5t-73 -174.5q31 33 69.5 49.5t67.5 16.5q69 0 113 -42t44 -124q0 -62 -28 -116t-77 -87.5t-112 -33.5q-57 0 -99 28t-65 78t-23 115zM151 201 q0 -61 25.5 -96.5t67.5 -35.5q34 0 59 22t39 55t14 67q0 47 -22 74.5t-63 27.5q-22 0 -54 -14.5t-65 -55.5q-1 -10 -1 -21.5v-22.5z" />
<glyph unicode="7" d="M100 546l18 90h415l-14 -68q-98 -91 -155.5 -183.5t-89 -188t-53.5 -196.5h-111q29 115 66 211t90 178.5t128 156.5h-294z" />
<glyph unicode="8" d="M33 153q0 46 20 82t53 62t72 42v4q-28 29 -43 59t-15 68q0 56 27.5 96t73 61t99.5 21q42 0 80.5 -15.5t63 -48t24.5 -83.5q0 -61 -33 -104.5t-87 -72.5v-4q32 -22 58.5 -58t26.5 -86q0 -58 -31 -100t-82.5 -65t-111.5 -23q-46 0 -91 17.5t-74.5 54t-29.5 93.5zM129 164 q0 -44 30 -72t76 -28q31 0 58 12.5t44 37t17 59.5q0 31 -17.5 53t-47 41t-65.5 39q-40 -25 -67.5 -59t-27.5 -83zM215 475q0 -43 26.5 -69t74.5 -51q31 23 55.5 55t24.5 76q0 39 -22.5 62t-61.5 23q-38 0 -67.5 -25t-29.5 -71z" />
<glyph unicode="9" d="M13 72l69 57q16 -25 37 -39.5t50 -14.5q65 0 118 62.5t74 174.5q-30 -34 -69 -50.5t-69 -16.5q-69 0 -112.5 42.5t-43.5 123.5q0 62 28 116t77 87.5t111 33.5q58 0 100 -28t65 -78t23 -115q0 -97 -23 -178t-64.5 -139t-98 -90t-123.5 -32q-56 0 -92.5 26.5t-56.5 57.5z M166 423q0 -47 21.5 -74.5t62.5 -27.5q23 0 54.5 15t65.5 57q1 11 1 21.5v20.5q0 61 -25.5 96.5t-67.5 35.5q-33 0 -58.5 -22t-39.5 -55t-14 -67z" />
<glyph unicode=":" horiz-adv-x="267" d="M23 50q0 32 23.5 59t59.5 27q27 0 42.5 -18t15.5 -45q0 -32 -22.5 -58.5t-59.5 -26.5q-27 0 -43 17.5t-16 44.5zM83 401q0 32 23.5 59t59.5 27q27 0 42.5 -18t15.5 -45q0 -32 -22.5 -58.5t-59.5 -26.5q-27 0 -43 17.5t-16 44.5z" />
<glyph unicode=";" horiz-adv-x="267" d="M-29 -115q53 17 83 47.5t38 65.5q-28 0 -47 16t-19 44q0 30 21 54t57 24q34 0 52 -22t18 -60q0 -84 -52 -146.5t-138 -83.5zM83 401q0 32 23.5 59t59.5 27q27 0 42.5 -18t15.5 -45q0 -32 -22.5 -58.5t-59.5 -26.5q-27 0 -43 17.5t-16 44.5z" />
<glyph unicode="&#x3c;" d="M46 292v77l426 171v-89l-187 -70l-127 -48v-4l127 -47l187 -70v-91z" />
<glyph unicode="=" d="M48 180v77h424v-77h-424zM48 403v77h424v-77h-424z" />
<glyph unicode="&#x3e;" d="M48 121v91l187 70l127 47v4l-127 48l-187 70v89l426 -171v-77z" />
<glyph unicode="?" horiz-adv-x="427" d="M92 50q0 32 23 59t60 27q27 0 42.5 -18t15.5 -45q0 -32 -22.5 -58.5t-59.5 -26.5q-27 0 -43 17.5t-16 44.5zM112 612q32 32 73 51t86 19q76 0 121.5 -38.5t45.5 -106.5q0 -48 -18.5 -82t-47 -61t-57.5 -53.5t-51 -57.5t-27 -74l-92 8q4 49 24 84.5t47.5 62t54 50t44.5 49 t18 57.5q0 35 -20 55t-55 20q-24 0 -47 -12t-43 -33z" />
<glyph unicode="@" horiz-adv-x="840" d="M44 163q0 105 36.5 194.5t99.5 156t143.5 104t168.5 37.5q99 0 169 -40t106.5 -108t36.5 -154q0 -102 -31.5 -171t-82.5 -104t-111 -35q-35 0 -61 19.5t-34 55.5h-3q-21 -28 -51 -47t-62 -19q-49 0 -84.5 37.5t-35.5 102.5q0 46 15.5 89t43 77.5t63.5 55t77 20.5 q47 0 71 -49h2l15 41h67l-50 -219q-10 -44 0.5 -69.5t46.5 -25.5q30 0 60.5 26t51.5 77.5t21 125.5q0 68 -25 124t-80 90t-145 34q-66 0 -130 -31.5t-116.5 -87.5t-84 -131t-31.5 -163q0 -89 36 -149t94 -90.5t125 -30.5q68 0 127 35l30 -60q-82 -43 -166 -43q-88 0 -161 37 t-117 109.5t-44 178.5zM330 200q0 -39 16 -58.5t43 -19.5q19 0 38 13t39 42l34 149q-10 21 -23 29.5t-28 8.5q-34 0 -61 -26t-42.5 -64t-15.5 -74z" />
<glyph unicode="A" horiz-adv-x="529" d="M-58 0l350 654h128l70 -654h-112l-13 184h-213l-91 -184h-119zM192 266h167l-7 99q-3 50 -6.5 100t-5.5 103h-4q-24 -53 -46.5 -102.5t-48.5 -100.5z" />
<glyph unicode="B" horiz-adv-x="594" d="M32 0l130 654h188q96 0 153.5 -36.5t57.5 -110.5q0 -41 -19.5 -74t-52 -56t-72.5 -33l-1 -4q53 -13 84.5 -44t31.5 -84q0 -75 -37 -121.5t-99.5 -68.5t-140.5 -22h-223zM156 84h99q81 0 127 30t46 93q0 45 -32.5 71t-94.5 26h-101zM215 380h80q80 0 118 30.5t38 79.5 q0 38 -30 59t-93 21h-74z" />
<glyph unicode="C" horiz-adv-x="559" d="M57 257q0 81 25 154.5t71.5 131t109 90.5t137.5 33q56 0 98.5 -27.5t68.5 -72.5l-74 -57q-19 30 -43 47t-56 17q-50 0 -91.5 -26.5t-72 -70.5t-47 -99t-16.5 -112q0 -82 36 -133t115 -51q35 0 66 15t59 39l47 -69q-33 -29 -81.5 -53.5t-111.5 -24.5q-75 0 -129 33 t-82.5 93.5t-28.5 142.5z" />
<glyph unicode="D" horiz-adv-x="604" d="M32 0l130 654h133q137 0 210 -65.5t73 -190.5q0 -124 -44 -213t-124 -137t-188 -48h-190zM157 87h63q74 0 129.5 36t87 104t31.5 164q0 87 -46.5 131.5t-129.5 44.5h-40z" />
<glyph unicode="E" horiz-adv-x="515" d="M32 0l130 654h375l-18 -91h-268l-35 -176h227l-18 -91h-226l-42 -205h276l-18 -91h-383z" />
<glyph unicode="F" horiz-adv-x="489" d="M32 0l130 654h375l-18 -91h-268l-38 -193h227l-18 -91h-226l-56 -279h-108z" />
<glyph unicode="G" horiz-adv-x="600" d="M57 257q0 81 25.5 155t72.5 131t111.5 90t143.5 33q61 0 104 -27.5t69 -72.5l-74 -57q-19 30 -44 47t-61 17q-53 0 -96.5 -26.5t-75 -70.5t-48.5 -99t-17 -112q0 -81 36.5 -133t121.5 -52q28 0 51.5 9t39.5 22l32 154h-121l17 88h217l-59 -298q-36 -29 -86 -48t-109 -19 q-119 0 -184.5 72.5t-65.5 196.5z" />
<glyph unicode="H" horiz-adv-x="638" d="M32 0l130 654h108l-54 -265h259l53 265h108l-131 -654h-108l60 295h-259l-58 -295h-108z" />
<glyph unicode="I" horiz-adv-x="273" d="M32 0l130 654h108l-130 -654h-108z" />
<glyph unicode="J" horiz-adv-x="474" d="M-5 88l68 63q14 -31 41 -50.5t64 -19.5q44 0 72 33.5t41 96.5l88 443h108l-92 -460q-11 -58 -38 -104.5t-71.5 -74t-107.5 -27.5q-58 0 -103 27t-70 73z" />
<glyph unicode="K" horiz-adv-x="582" d="M32 0l130 654h108l-59 -296h4l286 296h119l-241 -260l147 -394h-112l-115 326l-118 -120l-41 -206h-108z" />
<glyph unicode="L" horiz-adv-x="481" d="M32 0l130 654h108l-112 -563h261l-18 -91h-369z" />
<glyph unicode="M" horiz-adv-x="723" d="M32 0l130 654h120l52 -327l19 -126h4l65 126l180 327h119l-131 -654h-102l65 314q10 47 25 103.5t28 101.5h-3l-80 -148l-173 -307h-50l-54 307l-21 148h-4q-5 -46 -11.5 -102.5t-15.5 -102.5l-63 -314h-99z" />
<glyph unicode="N" horiz-adv-x="631" d="M32 0l130 654h106l128 -379l38 -141h4q6 50 12 110t17 113l59 297h104l-131 -654h-105l-127 378l-38 143h-4q-6 -52 -13 -110t-18 -111l-59 -300h-103z" />
<glyph unicode="O" horiz-adv-x="647" d="M58 263q0 81 25 153.5t69.5 129t104 88.5t127.5 32q111 0 173.5 -74t62.5 -201q0 -81 -25 -153.5t-69.5 -129t-103.5 -88.5t-128 -32q-110 0 -173 74t-63 201zM169 271q0 -87 32.5 -138.5t98.5 -51.5q44 0 82 25.5t66.5 68.5t45 97t16.5 111q0 87 -33 138.5t-99 51.5 q-43 0 -81 -25.5t-67 -68.5t-45 -97t-16 -111z" />
<glyph unicode="P" horiz-adv-x="567" d="M32 0l130 654h196q63 0 111.5 -16.5t76 -53.5t27.5 -97q0 -85 -39 -138.5t-105.5 -78.5t-149.5 -25h-91l-48 -245h-108zM206 331h82q86 0 132 35.5t46 105.5q0 50 -33 73t-95 23h-86z" />
<glyph unicode="Q" horiz-adv-x="647" d="M58 263q0 81 25 153.5t69.5 129t104 88.5t127.5 32q111 0 173.5 -74t62.5 -201q0 -75 -21.5 -143.5t-60.5 -123t-91.5 -89.5t-114.5 -44q20 -37 59.5 -54.5t86.5 -17.5q17 0 31.5 2t28.5 6l6 -83q-36 -13 -73 -13q-91 0 -156 41t-95 126q-76 23 -119 92t-43 173zM169 271 q0 -91 32.5 -142t98.5 -51q44 0 82 25t66.5 68.5t45 98t16.5 113.5q0 87 -33 138.5t-99 51.5q-43 0 -81 -25.5t-67 -68.5t-45 -97t-16 -111z" />
<glyph unicode="R" horiz-adv-x="576" d="M32 0l130 654h193q63 0 111 -16t75.5 -51t27.5 -93q0 -91 -51 -146.5t-128 -76.5l108 -271h-115l-95 258h-97l-51 -258h-108zM209 344h83q83 0 126.5 37t43.5 98q0 47 -32.5 68t-95.5 21h-82z" />
<glyph unicode="S" horiz-adv-x="518" d="M8 107l78 60q29 -40 69 -63.5t88 -23.5q51 0 84 26.5t33 72.5q0 31 -21.5 51.5t-57.5 42.5l-69 42q-43 26 -71 63.5t-28 95.5q0 53 28.5 96.5t78 69.5t110.5 26q59 0 108.5 -26.5t83.5 -69.5l-69 -63q-25 28 -56.5 47t-72.5 19q-47 0 -73.5 -27t-26.5 -61q0 -31 23 -51 t60 -43l70 -42q47 -28 71 -63.5t24 -91.5q0 -58 -30 -105t-83.5 -74t-124.5 -27q-65 0 -123.5 28.5t-102.5 90.5z" />
<glyph unicode="T" horiz-adv-x="521" d="M88 562l18 92h470l-18 -92h-181l-112 -562h-108l112 562h-181z" />
<glyph unicode="U" horiz-adv-x="630" d="M77 205q0 22 4 48t8 51l70 350h108l-73 -366q-9 -42 -9 -77q0 -63 27.5 -96.5t88.5 -33.5q52 0 90 42t57 141l78 390h106l-79 -390q-29 -146 -94 -211t-162 -65q-108 0 -164 54t-56 163z" />
<glyph unicode="V" horiz-adv-x="526" d="M80 654h112l22 -342q3 -52 6.5 -106t4.5 -107h4q24 53 48.5 107t48.5 106l164 342h117l-339 -654h-130z" />
<glyph unicode="W" horiz-adv-x="775" d="M86 0l16 654h110l-15 -336q-4 -52 -7 -105.5t-8 -106.5h4q22 53 45 106.5t44 105.5l149 336h93l6 -336q0 -105 -3 -212h4q19 53 39 106.5t39 105.5l126 336h104l-262 -654h-136l-2 356q0 34 2 74.5t4 78.5h-4q-13 -38 -29 -76.5t-32 -76.5l-153 -356h-134z" />
<glyph unicode="X" horiz-adv-x="524" d="M-36 0l247 338l-105 316h119l44 -152q6 -22 12 -46l13 -52h4q17 27 33.5 52.5t30.5 47.5l99 150h115l-234 -322l114 -332h-119l-48 163l-14 50t-15 53h-3q-19 -28 -36 -54t-33 -52l-109 -160h-115z" />
<glyph unicode="Y" horiz-adv-x="486" d="M82 654h111l37 -172q8 -37 14.5 -71.5t13.5 -72.5h4q40 72 85 145l107 171h116l-275 -408l-49 -246h-108l49 246z" />
<glyph unicode="Z" horiz-adv-x="519" d="M-3 0l14 65l390 498h-278l18 91h407l-13 -65l-387 -498h306l-19 -91h-438z" />
<glyph unicode="[" horiz-adv-x="311" d="M2 -152l172 860h185l-10 -59h-106l-148 -742h105l-13 -59h-185z" />
<glyph unicode="\" horiz-adv-x="334" d="M86 710h71l97 -870h-72z" />
<glyph unicode="]" horiz-adv-x="311" d="M-39 -152l13 59h104l149 742h-105l11 59h186l-172 -860h-186z" />
<glyph unicode="^" horiz-adv-x="493" d="M78 279l147 391h85l148 -391h-88l-55 156l-45 134h-3l-45 -134l-55 -156h-89z" />
<glyph unicode="_" horiz-adv-x="482" d="M-42 -131l14 64h456l-13 -64h-457z" />
<glyph unicode="`" horiz-adv-x="526" d="M223 737l92 69l117 -185l-66 -52z" />
<glyph unicode="a" horiz-adv-x="544" d="M35 167q0 71 22 132t59 106.5t84.5 71.5t98.5 26q36 0 66.5 -18.5t46.5 -50.5h2l21 57h86l-98 -491h-88l5 68h-3q-34 -36 -77 -58t-85 -22q-64 0 -102 46.5t-38 132.5zM146 182q0 -54 19.5 -80t53.5 -26q32 0 65.5 19.5t63.5 63.5l40 196q-16 32 -38 46t-45 14 q-41 0 -77.5 -32t-59 -85t-22.5 -116z" />
<glyph unicode="b" horiz-adv-x="545" d="M22 0l142 706h107l-35 -174l-24 -94h2q35 28 74.5 46.5t79.5 18.5q65 0 102.5 -46t37.5 -133q0 -70 -22 -131.5t-59 -107t-84 -71.5t-98 -26q-37 0 -65.5 19t-45.5 50h-2l-21 -57h-89zM157 136q16 -31 37 -45.5t44 -14.5q42 0 78.5 32t59 85.5t22.5 116.5q0 53 -20 79 t-54 26q-28 0 -62.5 -17.5t-62.5 -53.5z" />
<glyph unicode="c" horiz-adv-x="439" d="M33 188q0 66 22.5 123t61.5 100.5t90 67.5t108 24q45 0 77 -18t52 -42l-60 -65q-17 20 -34 29t-42 9q-44 0 -81.5 -30.5t-60.5 -81.5t-23 -112q0 -55 25 -86t74 -31q29 0 51.5 11.5t41.5 26.5l46 -68q-28 -20 -66.5 -38.5t-94.5 -18.5q-81 0 -134 52.5t-53 147.5z" />
<glyph unicode="d" horiz-adv-x="540" d="M35 167q0 71 22 132t59 106.5t84.5 71.5t98.5 26q36 0 64 -18t44 -47h3l14 94l34 174h107l-142 -706h-88l5 68h-3q-34 -36 -77 -58t-85 -22q-64 0 -102 46.5t-38 132.5zM146 182q0 -54 19.5 -80t53.5 -26q32 0 65 19.5t64 63.5l40 196q-16 32 -38 46t-45 14 q-41 0 -77.5 -32t-59 -85t-22.5 -116z" />
<glyph unicode="e" horiz-adv-x="488" d="M33 196q0 69 23.5 125t62.5 97t86.5 63t95.5 22q57 0 91 -24t49.5 -65t15.5 -92q0 -31 -7.5 -60t-12.5 -42h-300q-2 -15 -2 -28q-1 -34 11 -58q16 -33 45.5 -48.5t66.5 -15.5q26 0 53 12t47 27l40 -69q-30 -21 -72.5 -36.5t-95.5 -15.5q-88 0 -142.5 54.5t-54.5 153.5z M146 288h217q2 10 3.5 20t1.5 21q0 36 -17.5 63.5t-62.5 27.5q-44 0 -84 -35t-58 -97z" />
<glyph unicode="f" horiz-adv-x="305" d="M40 0l81 406h-63l16 80l65 5l11 57q15 75 57.5 122.5t115.5 47.5q28 0 52 -7t45 -18l-36 -76q-9 5 -22.5 10t-28.5 5q-60 0 -76 -81l-12 -60h93l-17 -85h-94l-80 -406h-107z" />
<glyph unicode="g" horiz-adv-x="538" d="M-2 -143l48 73q28 -23 61 -39t71 -16q53 0 87.5 31t47.5 86l25 95q-35 -36 -75.5 -56.5t-84.5 -20.5q-62 0 -102.5 43.5t-40.5 129.5q0 67 21.5 125t58 102t82.5 68.5t96 24.5q36 0 65.5 -18.5t45.5 -50.5h3l21 57h87l-100 -498q-20 -102 -82 -153t-159 -51 q-46 0 -91.5 18.5t-84.5 49.5zM146 197q0 -49 19.5 -73.5t51.5 -24.5q29 0 64 17.5t63 56.5l37 182q-17 32 -38 46t-44 14q-40 0 -75 -30t-56.5 -79.5t-21.5 -108.5z" />
<glyph unicode="h" horiz-adv-x="535" d="M22 0l142 706h107l-43 -208l-19 -71h4q38 32 78 54t84 22q62 0 89 -32.5t27 -91.5q0 -17 -1.5 -33t-6.5 -36l-62 -310h-107l60 296q3 17 5.5 29t2.5 23q0 63 -62 63q-25 0 -55 -18t-69 -58l-66 -335h-108z" />
<glyph unicode="i" horiz-adv-x="251" d="M22 0l99 491h107l-98 -491h-108zM137 634q0 29 21.5 49.5t50.5 20.5q24 0 43 -14.5t19 -41.5q0 -30 -21 -50t-51 -20q-24 0 -43 14.5t-19 41.5z" />
<glyph unicode="j" horiz-adv-x="252" d="M-128 -186l34 78q20 -12 44 -12q27 0 41.5 21t24.5 63l106 527h107l-106 -529q-16 -73 -53.5 -120.5t-111.5 -47.5q-46 0 -86 20zM134 634q0 29 21.5 49.5t50.5 20.5q24 0 43 -14.5t19 -41.5q0 -30 -21 -50t-51 -20q-24 0 -43 14.5t-19 41.5z" />
<glyph unicode="k" horiz-adv-x="501" d="M22 0l142 706h107l-89 -444h4l217 229h120l-198 -210l117 -281h-108l-84 218l-96 -97l-24 -121h-108z" />
<glyph unicode="l" horiz-adv-x="262" d="M40 68q0 23 7 52l117 586h107l-118 -591q-1 -7 -1.5 -11.5t-0.5 -7.5q0 -21 17 -21q5 0 8 0.5t10 2.5l-2 -80q-11 -4 -26 -7t-35 -3q-43 0 -63 21.5t-20 58.5z" />
<glyph unicode="m" horiz-adv-x="813" d="M22 0l99 491h87l-4 -69h4q37 33 77.5 57t80.5 24q57 0 82 -25.5t32 -65.5q44 41 87 66t83 25q61 0 88.5 -32.5t27.5 -91.5q0 -17 -2 -33t-6 -36l-62 -310h-108l60 296q4 17 6 29t2 23q0 63 -60 63q-19 0 -49 -18t-68 -58l-67 -335h-107l59 296q4 17 6 29t2 23 q0 63 -59 63q-19 0 -49.5 -18t-67.5 -58l-66 -335h-108z" />
<glyph unicode="n" horiz-adv-x="539" d="M22 0l99 491h87l-4 -69h4q38 33 79.5 57t87.5 24q62 0 89 -32.5t27 -91.5q0 -17 -1.5 -33t-6.5 -36l-62 -310h-107l60 296q3 17 5.5 29t2.5 23q0 63 -62 63q-25 0 -55 -18t-69 -58l-66 -335h-108z" />
<glyph unicode="o" horiz-adv-x="524" d="M34 188q0 71 23 128.5t62 99.5t87 64.5t98 22.5q83 0 133.5 -54t50.5 -146q0 -70 -23 -128t-62 -100t-87 -64.5t-99 -22.5q-82 0 -132.5 54.5t-50.5 145.5zM142 192q0 -55 22 -86t65 -31q39 0 73.5 30t55.5 81t21 114q0 56 -22 86t-64 30q-39 0 -73.5 -30t-56 -80.5 t-21.5 -113.5z" />
<glyph unicode="p" horiz-adv-x="544" d="M-17 -194l138 685h87l-2 -60h3q35 31 76 51.5t83 20.5q65 0 102.5 -46.5t37.5 -132.5q0 -70 -22 -131.5t-59 -107t-84 -71.5t-98 -26q-34 0 -62.5 18t-46.5 46h-2l-16 -100l-28 -146h-107zM157 134q16 -31 37 -44.5t44 -13.5q42 0 78.5 32t59 85.5t22.5 116.5 q0 53 -20 79t-54 26q-28 0 -62.5 -17.5t-62.5 -53.5z" />
<glyph unicode="q" horiz-adv-x="544" d="M35 167q0 71 22 132t59 106.5t84.5 71.5t98.5 26q36 0 66.5 -18.5t46.5 -50.5h2l21 57h86l-137 -685h-108l30 146l34 117h-2q-35 -37 -78 -59t-85 -22q-64 0 -102 46.5t-38 132.5zM146 182q0 -54 19.5 -80t53.5 -26q32 0 65 19.5t64 63.5l40 196q-16 32 -38 46t-45 14 q-41 0 -77.5 -32t-59 -85t-22.5 -116z" />
<glyph unicode="r" horiz-adv-x="363" d="M22 0l99 491h87l-8 -95h4q29 46 67.5 76.5t82.5 30.5q30 0 49 -9l-36 -94q-9 5 -21 6.5t-25 1.5q-34 0 -68.5 -27.5t-64.5 -83.5l-58 -297h-108z" />
<glyph unicode="s" horiz-adv-x="413" d="M-6 82l64 52q24 -31 53.5 -48.5t62.5 -17.5q35 0 60.5 18t25.5 46q0 23 -21 40t-71 45q-43 24 -72 56.5t-29 76.5q0 45 24 79.5t64 54t88 19.5q49 0 88 -19.5t68 -51.5l-61 -56q-18 20 -42 33t-54 13q-33 0 -53.5 -18t-20.5 -44t26.5 -42.5t57.5 -34.5q53 -29 81 -59.5 t28 -78.5q0 -47 -25.5 -82.5t-69.5 -55t-100 -19.5q-46 0 -95 25.5t-77 68.5z" />
<glyph unicode="t" horiz-adv-x="346" d="M53 406l16 80l75 5l39 132h90l-26 -132h118l-17 -85h-120l-50 -244q-3 -18 -3 -35q0 -27 13 -40.5t44 -13.5q13 0 24.5 4t21.5 9l20 -76q-18 -7 -44 -14.5t-60 -7.5q-69 0 -98.5 34.5t-29.5 85.5q0 15 2 29t4 29l50 240h-69z" />
<glyph unicode="u" horiz-adv-x="537" d="M47 112q0 17 2 33.5t6 35.5l62 310h107l-59 -296q-4 -17 -6 -29t-2 -23q0 -63 61 -63q49 0 121 76l66 335h107l-97 -491h-87l4 70h-4q-37 -33 -78.5 -57.5t-85.5 -24.5q-61 0 -89 33t-28 91z" />
<glyph unicode="v" horiz-adv-x="474" d="M59 491h107l26 -261q4 -37 6 -74t4 -75h4q17 38 34.5 75t34.5 74l127 261h106l-256 -491h-126z" />
<glyph unicode="w" horiz-adv-x="728" d="M71 491h106l8 -263q0 -18 0.5 -35t-0.5 -35q-1 -35 -1 -71h4q14 36 27.5 71.5t29.5 69.5l114 263h98l13 -263q1 -35 1 -70t1 -71h4q14 36 26.5 71t27.5 70l109 263h100l-216 -491h-128l-9 236q0 35 -0.5 71.5t-0.5 73.5h-4q-14 -37 -27.5 -73.5t-27.5 -71.5l-101 -236 h-125z" />
<glyph unicode="x" horiz-adv-x="460" d="M-42 0l214 262l-89 229h109l36 -97q7 -22 13 -41.5t13 -40.5h4q14 20 29 40.5t28 41.5l68 97h115l-197 -253l95 -238h-110l-37 100q-7 22 -15.5 44.5t-16.5 43.5h-4q-14 -21 -29.5 -42.5t-32.5 -44.5l-77 -101h-116z" />
<glyph unicode="y" horiz-adv-x="474" d="M-48 -184l34 78q17 -10 36 -10q32 0 61 25t49 66l15 30l-85 486h107l31 -248q4 -33 7.5 -72.5t4.5 -74.5h4q17 35 34.5 74t34.5 73l122 248h104l-276 -517q-46 -80 -96 -128t-124 -48q-12 0 -30.5 5t-32.5 13z" />
<glyph unicode="z" horiz-adv-x="427" d="M-10 0l12 61l292 345h-200l17 85h335l-12 -62l-293 -344h231l-17 -85h-365z" />
<glyph unicode="{" horiz-adv-x="309" d="M29 246l14 64q51 2 72 26.5t26 52.5q9 47 13.5 87.5t14.5 92.5q16 80 46.5 109.5t93.5 29.5h55l-13 -59h-22q-35 0 -51 -20t-24 -65q-8 -41 -14.5 -83.5t-14.5 -87.5q-11 -53 -32.5 -80t-58.5 -36l-1 -4q50 -14 50 -66q0 -26 -7.5 -60.5t-17 -71t-17 -69.5t-7.5 -55 t10.5 -33t38.5 -11h20l-12 -59h-53q-49 0 -70.5 20.5t-21.5 63.5q0 29 8 64.5t18.5 72t18.5 68t8 51.5q0 21 -14 39t-56 19z" />
<glyph unicode="|" horiz-adv-x="243" d="M92 -250v1000h69v-1000h-69z" />
<glyph unicode="}" horiz-adv-x="312" d="M-45 -152l13 59h22q35 0 51 19.5t24 64.5q8 41 14.5 83.5t14.5 87.5q11 54 32.5 81t58.5 36l1 4q-27 8 -38.5 24t-11.5 42t7.5 60t17 70.5t17 69.5t7.5 55q0 23 -10 34t-39 11h-20l12 59h53q50 0 71 -21t21 -63q0 -28 -8 -64t-18.5 -72.5t-18.5 -68.5t-8 -52t14 -37.5 t56 -19.5l-14 -64q-51 -1 -72 -26t-26 -53q-9 -47 -13 -88t-15 -93q-16 -79 -47 -108.5t-93 -29.5h-55z" />
<glyph unicode="~" d="M42 313q29 52 63 74t68 22q28 0 50.5 -12t41.5 -28.5t37.5 -28.5t38.5 -12q41 0 71 58l56 -37q-28 -52 -62.5 -74t-68.5 -22q-28 0 -50.5 12t-41.5 28.5t-37.5 28.5t-38.5 12q-41 0 -71 -58z" />
<glyph unicode="&#xa1;" horiz-adv-x="307" d="M19 -180l24 110l85 350h72l-74 -460h-107zM123 418q0 32 22.5 58.5t59.5 26.5q27 0 43 -17.5t16 -44.5q0 -31 -23 -58.5t-60 -27.5q-27 0 -42.5 18t-15.5 45z" />
<glyph unicode="&#xa2;" d="M75 287q0 63 21 113.5t57 87t80.5 58.5t90.5 28l20 99h63l-20 -100q37 -6 63.5 -25t47.5 -43l-64 -60q-15 17 -29.5 27.5t-34.5 14.5l-62 -316q27 3 50.5 13.5t43.5 25.5l34 -71q-32 -21 -67.5 -35.5t-77.5 -19.5l-20 -100h-63l20 102q-70 10 -111.5 62t-41.5 139z M180 304q0 -99 66 -127l61 307q-52 -14 -89.5 -62t-37.5 -118z" />
<glyph unicode="&#xa3;" d="M1 0l13 65q68 32 104.5 86.5t36.5 122.5v2h-96l15 73l75 5q-2 18 -3.5 35t-1.5 33q0 69 29 120t79 78.5t112 27.5q51 0 87.5 -24t60.5 -60l-70 -57q-16 25 -36.5 39.5t-47.5 14.5q-48 0 -81 -38.5t-33 -112.5q0 -13 1.5 -27t2.5 -29h151l-15 -78h-131q-1 -57 -20 -100 t-57 -81v-4h247l-16 -91h-406z" />
<glyph unicode="&#xa4;" d="M9 160l68 59q-15 33 -15 76q0 46 15.5 84.5t43.5 68.5l-47 59l59 50l49 -63q26 15 54.5 23.5t57.5 8.5q59 0 99 -31l73 63l47 -56l-69 -61q15 -31 15 -75t-15 -82.5t-41 -67.5l50 -64l-58 -49l-54 67q-52 -35 -114 -35q-59 0 -99 32l-72 -63zM160 305q0 -44 20.5 -68 t57.5 -24q31 0 58.5 18.5t45.5 51.5t18 74q0 44 -20 68t-58 24q-30 0 -58 -18.5t-46 -51t-18 -74.5z" />
<glyph unicode="&#xa5;" d="M23 155l11 54h152l12 63h-152l11 55h127l-86 310h109l32 -158q6 -33 12.5 -66t13.5 -68h3q21 35 41 68.5t40 65.5l92 158h108l-209 -310h127l-11 -55h-152l-12 -63h152l-12 -54h-151l-31 -155h-106l31 155h-152z" />
<glyph unicode="&#xa6;" horiz-adv-x="243" d="M92 209h69v-459h-69v459zM92 299v451h69v-451h-69z" />
<glyph unicode="&#xa7;" horiz-adv-x="491" d="M8 10l55 67q25 -26 59.5 -46t70.5 -20q32 0 52.5 18t20.5 46q0 26 -21.5 45.5t-53.5 37.5t-64 39.5t-53.5 52.5t-21.5 76q0 52 30.5 89.5t76.5 57.5q-17 28 -17 60q0 68 46 111t118 43q46 0 87.5 -21t73.5 -55l-57 -61q-20 22 -47 38.5t-58 16.5q-25 0 -45 -15.5 t-20 -44.5q0 -24 22 -43.5t54.5 -38t64.5 -41.5t54 -54.5t22 -75.5q0 -56 -27.5 -92t-77.5 -59q12 -24 12 -53q0 -46 -22.5 -82t-62.5 -56t-92 -20q-46 0 -93.5 21t-85.5 59zM145 339q0 -25 15.5 -43.5t40.5 -34.5t53 -31.5t52 -34.5q27 12 42 31.5t15 52.5q0 24 -15 43 t-39 35t-51.5 32t-52.5 35q-26 -12 -43 -32.5t-17 -52.5z" />
<glyph unicode="&#xa8;" horiz-adv-x="526" d="M188 630q0 26 18.5 45.5t44.5 19.5q21 0 35.5 -13.5t14.5 -37.5q0 -27 -18.5 -45.5t-44.5 -18.5q-22 0 -36 13t-14 37zM386 630q0 26 18.5 45.5t44.5 19.5q22 0 36 -13.5t14 -37.5q0 -27 -18.5 -45.5t-44.5 -18.5q-22 0 -36 13t-14 37z" />
<glyph unicode="&#xa9;" horiz-adv-x="668" d="M33 268q0 77 26.5 146t75.5 123.5t116.5 85.5t149.5 31q78 0 137.5 -35.5t93.5 -98t34 -143.5q0 -76 -26.5 -146t-75.5 -124t-116.5 -85.5t-149.5 -31.5q-77 0 -137 35.5t-94 98.5t-34 144zM86 273q0 -65 25.5 -118t73.5 -83.5t117 -30.5q68 0 124.5 27.5t98.5 74t65 106 t23 123.5q0 66 -25 118.5t-73.5 83t-117.5 30.5q-67 0 -124 -27.5t-99 -74t-65 -106t-23 -123.5zM177 279q0 54 19 97.5t51 74.5t70 47t75 16q35 0 59.5 -16t40.5 -36l-48 -45q-27 31 -62 31q-29 0 -58 -20.5t-48.5 -56t-19.5 -81.5q0 -47 24 -72.5t64 -25.5q25 0 44.5 9.5 t41.5 24.5l32 -50q-31 -24 -63.5 -37t-70.5 -13q-67 0 -109 40t-42 113z" />
<glyph unicode="&#xaa;" horiz-adv-x="360" d="M81 496q0 62 25.5 112.5t66 80t85.5 29.5q48 0 71 -45h4l14 37h62l-64 -325h-63l4 45h-4q-22 -25 -50 -39t-57 -14q-43 0 -68.5 30.5t-25.5 88.5zM160 506q0 -34 13 -50t32 -16q20 0 43 13.5t42 41.5l23 122q-10 20 -23.5 29t-27.5 9q-25 0 -48.5 -20.5t-38.5 -54 t-15 -74.5z" />
<glyph unicode="&#xab;" horiz-adv-x="437" d="M40 216l14 80l155 144l35 -38l-137 -154l81 -157l-45 -29zM214 216l14 80l155 144l35 -38l-137 -154l81 -157l-45 -29z" />
<glyph unicode="&#xac;" d="M48 292v77h424v-270h-80v193h-344z" />
<glyph unicode="&#xae;" horiz-adv-x="425" d="M77 490q0 57 26 108t72 82.5t106 31.5q45 0 83 -22t61.5 -61t23.5 -90q0 -57 -26.5 -107.5t-72.5 -82t-105 -31.5q-45 0 -83.5 22t-61.5 61t-23 89zM121 494q0 -58 34.5 -97t92.5 -39q45 0 80.5 24.5t56 65t20.5 87.5q0 58 -34.5 97t-92.5 39q-45 0 -80.5 -24.5 t-56 -64.5t-20.5 -88zM173 417l41 199h74q29 0 47 -15.5t18 -42.5q0 -22 -13 -39.5t-36 -25.5l26 -76h-47l-20 65h-30l-14 -65h-46zM240 517h19q21 0 32.5 10t11.5 26q0 27 -30 27h-21z" />
<glyph unicode="&#xaf;" horiz-adv-x="526" d="M200 597l14 71h269l-13 -71h-270z" />
<glyph unicode="&#xb0;" horiz-adv-x="331" d="M98 536q0 41 19.5 75t51.5 54t70 20q51 0 83.5 -32.5t32.5 -85.5q0 -41 -19.5 -75t-51.5 -54t-70 -20q-51 0 -83.5 32.5t-32.5 85.5zM158 538q0 -27 16 -46t44 -19q35 0 55.5 28.5t20.5 63.5q0 27 -15 46t-44 19q-34 0 -55.5 -28.5t-21.5 -63.5z" />
<glyph unicode="&#xb1;" d="M48 0v78h424v-78h-424zM48 313v78h172v168h80v-168h172v-78h-173v-171h-81v171h-170z" />
<glyph unicode="&#xb2;" horiz-adv-x="358" d="M71 385l8 47q114 77 167 130t53 102q0 25 -13.5 39t-42.5 14q-18 0 -36 -12t-35 -29l-45 48q30 29 60.5 46t69.5 17q57 0 90 -29.5t33 -79.5q0 -58 -44 -110t-125 -115h140l-13 -68h-267z" />
<glyph unicode="&#xb3;" horiz-adv-x="356" d="M71 453l54 38q14 -24 33.5 -38.5t47.5 -14.5q32 0 53 17t21 43t-21 43.5t-75 17.5l11 51q62 0 84 21.5t22 46.5q0 20 -14 32.5t-38 12.5q-36 0 -75 -28l-34 54q32 21 62 29.5t64 8.5q50 0 82.5 -26t32.5 -70q0 -78 -85 -108q31 -13 47 -36.5t16 -49.5q0 -39 -20 -67 t-53.5 -42.5t-73.5 -14.5q-51 0 -86 23t-55 57z" />
<glyph unicode="&#xb4;" horiz-adv-x="526" d="M261 640l177 160l65 -83l-194 -138z" />
<glyph unicode="&#xb5;" horiz-adv-x="536" d="M-17 -186l135 677h107l-59 -296q-4 -17 -6 -29t-2 -23q0 -63 61 -63q47 0 121 75l66 336h106l-96 -491h-88l5 70h-4q-28 -32 -61 -54.5t-66 -22.5q-25 0 -44.5 8.5t-28.5 30.5l-11 -72l-28 -146h-107z" />
<glyph unicode="&#xb6;" horiz-adv-x="572" d="M71 393q0 68 23.5 117t63.5 81t90.5 47.5t105.5 15.5h46l-88 -441h-23q-58 0 -108 20.5t-80 61t-30 98.5zM307 -80l146 734h107l-146 -734h-107z" />
<glyph unicode="&#xb7;" horiz-adv-x="267" d="M77 316q0 32 23.5 59t59.5 27q27 0 42.5 -18t15.5 -45q0 -32 -22.5 -58.5t-59.5 -26.5q-27 0 -43 17.5t-16 44.5z" />
<glyph unicode="&#xb8;" horiz-adv-x="526" d="M78 -184q59 3 85.5 15.5t29.5 34.5q1 17 -13.5 27.5t-55.5 14.5l63 95h70l-41 -66q36 -9 50.5 -25t11.5 -43q-6 -49 -58.5 -74.5t-140.5 -27.5z" />
<glyph unicode="&#xb9;" horiz-adv-x="366" d="M163 683l10 51q41 6 65 15.5t49 25.5h62l-76 -390h-82l60 298h-88z" />
<glyph unicode="&#xba;" horiz-adv-x="353" d="M82 510q0 63 27 110t69 72.5t87 25.5q55 0 90 -35t35 -98t-27 -110t-68.5 -72.5t-87.5 -25.5q-55 0 -90 35t-35 98zM160 512q0 -34 13.5 -53.5t40.5 -19.5q28 0 50 19.5t35 52.5t13 72q0 35 -13.5 54t-40.5 19t-49 -19.5t-35.5 -52t-13.5 -72.5z" />
<glyph unicode="&#xbb;" horiz-adv-x="437" d="M25 100l137 154l-82 157l46 29l103 -154l-15 -80l-154 -144zM199 100l137 154l-82 157l46 29l103 -154l-15 -80l-154 -144z" />
<glyph unicode="&#xbc;" horiz-adv-x="762" d="M112 568l10 51q41 6 65 15.5t49 25.5h62l-76 -390h-82l60 298h-88zM122 -12l479 684h66l-479 -684h-66zM404 97l8 43l204 250h95l-47 -238h58l-12 -55h-57l-19 -97h-70l19 97h-179zM490 152h105l12 62l27 114h-4l-64 -84z" />
<glyph unicode="&#xbd;" horiz-adv-x="793" d="M104 -12l479 684h66l-479 -684h-66zM108 568l10 51q41 6 65 15.5t49 25.5h62l-76 -390h-82l60 298h-88zM432 0l8 47q114 77 167 130t53 102q0 25 -13.5 39t-42.5 14q-18 0 -36 -12t-35 -29l-45 48q30 29 60.5 46t69.5 17q57 0 90 -29.5t33 -79.5q0 -58 -44 -110 t-125 -115h140l-13 -68h-267z" />
<glyph unicode="&#xbe;" horiz-adv-x="776" d="M42 338l54 38q14 -24 33.5 -38.5t47.5 -14.5q32 0 53 17t21 43t-21 43.5t-75 17.5l11 51q62 0 84 21.5t22 46.5q0 20 -14 32.5t-38 12.5q-36 0 -75 -28l-34 54q32 21 62 29.5t64 8.5q50 0 82.5 -26t32.5 -70q0 -78 -85 -108q31 -13 47 -36.5t16 -49.5q0 -39 -20 -67 t-53.5 -42.5t-73.5 -14.5q-51 0 -86 23t-55 57zM151 -12l479 684h66l-479 -684h-66zM419 97l8 43l204 250h95l-47 -238h58l-12 -55h-57l-19 -97h-70l19 97h-179zM505 152h105l12 62l27 114h-4l-64 -84z" />
<glyph unicode="&#xbf;" horiz-adv-x="427" d="M-2 -45q0 48 18.5 82t47 61t57.5 53.5t50.5 57.5t26.5 74l92 -8q-4 -49 -24 -84.5t-47.5 -62t-54 -50t-44.5 -49t-18 -57.5q0 -35 20.5 -55t54.5 -20q24 0 47 12t44 33l55 -62q-32 -32 -73 -51t-86 -19q-75 0 -120.5 38.5t-45.5 106.5zM202 419q0 32 23 58.5t59 26.5 q27 0 43 -17.5t16 -44.5q0 -31 -23 -58.5t-60 -27.5q-27 0 -42.5 18t-15.5 45z" />
<glyph unicode="&#xc0;" horiz-adv-x="529" d="M-58 0l350 654h128l70 -654h-112l-13 184h-213l-91 -184h-119zM192 266h167l-7 99q-3 50 -6.5 100t-5.5 103h-4q-24 -53 -46.5 -102.5t-48.5 -100.5zM235 815l75 68l135 -146l-61 -53z" />
<glyph unicode="&#xc1;" horiz-adv-x="529" d="M-58 0l350 654h128l70 -654h-112l-13 184h-213l-91 -184h-119zM192 266h167l-7 99q-3 50 -6.5 100t-5.5 103h-4q-24 -53 -46.5 -102.5t-48.5 -100.5zM287 756l180 120l50 -80l-188 -102z" />
<glyph unicode="&#xc2;" horiz-adv-x="529" d="M-58 0l350 654h128l70 -654h-112l-13 184h-213l-91 -184h-119zM192 266h167l-7 99q-3 50 -6.5 100t-5.5 103h-4q-24 -53 -46.5 -102.5t-48.5 -100.5zM206 728l117 108h124l76 -111l-53 -32l-88 88h-4l-127 -89z" />
<glyph unicode="&#xc3;" horiz-adv-x="529" d="M-58 0l350 654h128l70 -654h-112l-13 184h-213l-91 -184h-119zM181 713q15 68 52 100.5t86 32.5q26 0 44 -9.5t31.5 -22.5t26 -22.5t27.5 -9.5q34 0 53 58l73 -6q-14 -67 -51 -100.5t-86 -33.5q-26 0 -44 10t-32 22.5t-26.5 22.5t-26.5 10q-36 0 -53 -58zM192 266h167 l-7 99q-3 50 -6.5 100t-5.5 103h-4q-24 -53 -46.5 -102.5t-48.5 -100.5z" />
<glyph unicode="&#xc4;" horiz-adv-x="529" d="M-58 0l350 654h128l70 -654h-112l-13 184h-213l-91 -184h-119zM192 266h167l-7 99q-3 50 -6.5 100t-5.5 103h-4q-24 -53 -46.5 -102.5t-48.5 -100.5zM221 757q0 25 18 45t44 20q20 0 34.5 -13t14.5 -36q0 -24 -18 -44.5t-44 -20.5q-21 0 -35 13t-14 36zM419 757 q0 25 18 45t44 20q20 0 34.5 -13t14.5 -36q0 -24 -18 -44.5t-44 -20.5q-21 0 -35 13t-14 36z" />
<glyph unicode="&#xc5;" horiz-adv-x="529" d="M-58 0l350 654h128l70 -654h-112l-13 184h-213l-91 -184h-119zM192 266h167l-7 99q-3 50 -6.5 100t-5.5 103h-4q-24 -53 -46.5 -102.5t-48.5 -100.5zM274 781q0 29 15.5 52.5t42 37.5t57.5 14q38 0 67.5 -20t29.5 -62q0 -44 -33.5 -74.5t-81.5 -30.5q-38 0 -67.5 20 t-29.5 63zM334 785q0 -18 10 -30t29 -12q21 0 37 16.5t16 38.5q0 19 -10 30.5t-29 11.5q-22 0 -37.5 -16t-15.5 -39z" />
<glyph unicode="&#xc6;" horiz-adv-x="821" d="M-34 0l440 654h436l-18 -91h-257l-35 -176h217l-18 -91h-216l-42 -205h266l-18 -91h-373l35 174h-184l-111 -174h-122zM254 259h145l63 315h-3q-34 -52 -66.5 -101t-65.5 -100z" />
<glyph unicode="&#xc7;" horiz-adv-x="559" d="M57 257q0 81 25 154.5t71.5 131t109 90.5t137.5 33q56 0 98.5 -27.5t68.5 -72.5l-74 -57q-19 30 -43 47t-56 17q-50 0 -91.5 -26.5t-72 -70.5t-47 -99t-16.5 -112q0 -82 36 -133t115 -51q35 0 66 15t59 39l47 -69q-33 -29 -81.5 -53.5t-111.5 -24.5q-75 0 -129 33 t-82.5 93.5t-28.5 142.5zM138 -184q59 3 85.5 15.5t29.5 34.5q1 17 -13.5 27.5t-55.5 14.5l63 95h70l-41 -66q36 -9 50.5 -25t11.5 -43q-6 -49 -58.5 -74.5t-140.5 -27.5z" />
<glyph unicode="&#xc8;" horiz-adv-x="515" d="M32 0l130 654h375l-18 -91h-268l-35 -176h227l-18 -91h-226l-42 -205h276l-18 -91h-383zM236 815l75 68l135 -146l-61 -53z" />
<glyph unicode="&#xc9;" horiz-adv-x="515" d="M32 0l130 654h375l-18 -91h-268l-35 -176h227l-18 -91h-226l-42 -205h276l-18 -91h-383zM288 756l180 120l50 -80l-188 -102z" />
<glyph unicode="&#xca;" horiz-adv-x="515" d="M32 0l130 654h375l-18 -91h-268l-35 -176h227l-18 -91h-226l-42 -205h276l-18 -91h-383zM207 728l117 108h124l76 -111l-53 -32l-88 88h-4l-127 -89z" />
<glyph unicode="&#xcb;" horiz-adv-x="515" d="M32 0l130 654h375l-18 -91h-268l-35 -176h227l-18 -91h-226l-42 -205h276l-18 -91h-383zM222 757q0 25 18 45t44 20q20 0 34.5 -13t14.5 -36q0 -24 -18 -44.5t-44 -20.5q-21 0 -35 13t-14 36zM420 757q0 25 18 45t44 20q20 0 34.5 -13t14.5 -36q0 -24 -18 -44.5 t-44 -20.5q-21 0 -35 13t-14 36z" />
<glyph unicode="&#xcc;" horiz-adv-x="273" d="M32 0l130 654h108l-130 -654h-108zM100 815l75 68l135 -146l-61 -53z" />
<glyph unicode="&#xcd;" horiz-adv-x="273" d="M32 0l130 654h108l-130 -654h-108zM152 756l180 120l50 -80l-188 -102z" />
<glyph unicode="&#xce;" horiz-adv-x="273" d="M32 0l130 654h108l-130 -654h-108zM71 728l117 108h124l76 -111l-53 -32l-88 88h-4l-127 -89z" />
<glyph unicode="&#xcf;" horiz-adv-x="273" d="M32 0l130 654h108l-130 -654h-108zM86 757q0 25 18 45t44 20q20 0 34.5 -13t14.5 -36q0 -24 -18 -44.5t-44 -20.5q-21 0 -35 13t-14 36zM284 757q0 25 18 45t44 20q20 0 34.5 -13t14.5 -36q0 -24 -18 -44.5t-44 -20.5q-21 0 -35 13t-14 36z" />
<glyph unicode="&#xd0;" horiz-adv-x="622" d="M42 315l11 52l71 4l56 283h133q137 0 210 -65.5t73 -190.5q0 -124 -44 -213t-124 -137t-188 -48h-190l63 315h-71zM175 87h63q74 0 129.5 36t87 104t31.5 164q0 87 -46.5 131.5t-129.5 44.5h-40l-39 -196h137l-12 -56h-136z" />
<glyph unicode="&#xd1;" horiz-adv-x="631" d="M32 0l130 654h106l128 -379l38 -141h4q6 50 12 110t17 113l59 297h104l-131 -654h-105l-127 378l-38 143h-4q-6 -52 -13 -110t-18 -111l-59 -300h-103zM226 713q15 68 52 100.5t86 32.5q26 0 44 -9.5t31.5 -22.5t26 -22.5t27.5 -9.5q34 0 53 58l73 -6q-14 -67 -51 -100.5 t-86 -33.5q-26 0 -44 10t-32 22.5t-26.5 22.5t-26.5 10q-36 0 -53 -58z" />
<glyph unicode="&#xd2;" horiz-adv-x="647" d="M58 263q0 81 25 153.5t69.5 129t104 88.5t127.5 32q111 0 173.5 -74t62.5 -201q0 -81 -25 -153.5t-69.5 -129t-103.5 -88.5t-128 -32q-110 0 -173 74t-63 201zM169 271q0 -87 32.5 -138.5t98.5 -51.5q44 0 82 25.5t66.5 68.5t45 97t16.5 111q0 87 -33 138.5t-99 51.5 q-43 0 -81 -25.5t-67 -68.5t-45 -97t-16 -111zM284 815l75 68l135 -146l-61 -53z" />
<glyph unicode="&#xd3;" horiz-adv-x="647" d="M58 263q0 81 25 153.5t69.5 129t104 88.5t127.5 32q111 0 173.5 -74t62.5 -201q0 -81 -25 -153.5t-69.5 -129t-103.5 -88.5t-128 -32q-110 0 -173 74t-63 201zM169 271q0 -87 32.5 -138.5t98.5 -51.5q44 0 82 25.5t66.5 68.5t45 97t16.5 111q0 87 -33 138.5t-99 51.5 q-43 0 -81 -25.5t-67 -68.5t-45 -97t-16 -111zM336 756l180 120l50 -80l-188 -102z" />
<glyph unicode="&#xd4;" horiz-adv-x="647" d="M58 263q0 81 25 153.5t69.5 129t104 88.5t127.5 32q111 0 173.5 -74t62.5 -201q0 -81 -25 -153.5t-69.5 -129t-103.5 -88.5t-128 -32q-110 0 -173 74t-63 201zM169 271q0 -87 32.5 -138.5t98.5 -51.5q44 0 82 25.5t66.5 68.5t45 97t16.5 111q0 87 -33 138.5t-99 51.5 q-43 0 -81 -25.5t-67 -68.5t-45 -97t-16 -111zM255 728l117 108h124l76 -111l-53 -32l-88 88h-4l-127 -89z" />
<glyph unicode="&#xd5;" horiz-adv-x="647" d="M58 263q0 81 25 153.5t69.5 129t104 88.5t127.5 32q111 0 173.5 -74t62.5 -201q0 -81 -25 -153.5t-69.5 -129t-103.5 -88.5t-128 -32q-110 0 -173 74t-63 201zM169 271q0 -87 32.5 -138.5t98.5 -51.5q44 0 82 25.5t66.5 68.5t45 97t16.5 111q0 87 -33 138.5t-99 51.5 q-43 0 -81 -25.5t-67 -68.5t-45 -97t-16 -111zM230 713q15 68 52 100.5t86 32.5q26 0 44 -9.5t31.5 -22.5t26 -22.5t27.5 -9.5q34 0 53 58l73 -6q-14 -67 -51 -100.5t-86 -33.5q-26 0 -44 10t-32 22.5t-26.5 22.5t-26.5 10q-36 0 -53 -58z" />
<glyph unicode="&#xd6;" horiz-adv-x="647" d="M58 263q0 81 25 153.5t69.5 129t104 88.5t127.5 32q111 0 173.5 -74t62.5 -201q0 -81 -25 -153.5t-69.5 -129t-103.5 -88.5t-128 -32q-110 0 -173 74t-63 201zM169 271q0 -87 32.5 -138.5t98.5 -51.5q44 0 82 25.5t66.5 68.5t45 97t16.5 111q0 87 -33 138.5t-99 51.5 q-43 0 -81 -25.5t-67 -68.5t-45 -97t-16 -111zM270 757q0 25 18 45t44 20q20 0 34.5 -13t14.5 -36q0 -24 -18 -44.5t-44 -20.5q-21 0 -35 13t-14 36zM468 757q0 25 18 45t44 20q20 0 34.5 -13t14.5 -36q0 -24 -18 -44.5t-44 -20.5q-21 0 -35 13t-14 36z" />
<glyph unicode="&#xd7;" d="M64 182l142 149l-142 148l54 54l142 -148l142 148l54 -54l-142 -148l142 -149l-54 -54l-142 149l-142 -149z" />
<glyph unicode="&#xd8;" horiz-adv-x="647" d="M-6 10l96 100q-32 64 -32 153q0 81 25 153.5t69.5 129t104 88.5t127.5 32q53 0 96 -18t73 -51l91 95l48 -45l-102 -107q30 -61 30 -149q0 -81 -25 -153.5t-69.5 -129t-103.5 -88.5t-128 -32q-103 0 -166 66l-84 -89zM169 271q0 -38 6 -71l304 319q-16 26 -41.5 40 t-59.5 14q-43 0 -81 -25.5t-67 -68.5t-45 -97t-16 -111zM202 131q17 -24 41 -37t57 -13q44 0 82 25.5t66.5 68.5t45 97t16.5 111q0 36 -6 66z" />
<glyph unicode="&#xd9;" horiz-adv-x="630" d="M77 205q0 22 4 48t8 51l70 350h108l-73 -366q-9 -42 -9 -77q0 -63 27.5 -96.5t88.5 -33.5q52 0 90 42t57 141l78 390h106l-79 -390q-29 -146 -94 -211t-162 -65q-108 0 -164 54t-56 163zM285 815l75 68l135 -146l-61 -53z" />
<glyph unicode="&#xda;" horiz-adv-x="630" d="M77 205q0 22 4 48t8 51l70 350h108l-73 -366q-9 -42 -9 -77q0 -63 27.5 -96.5t88.5 -33.5q52 0 90 42t57 141l78 390h106l-79 -390q-29 -146 -94 -211t-162 -65q-108 0 -164 54t-56 163zM337 756l180 120l50 -80l-188 -102z" />
<glyph unicode="&#xdb;" horiz-adv-x="630" d="M77 205q0 22 4 48t8 51l70 350h108l-73 -366q-9 -42 -9 -77q0 -63 27.5 -96.5t88.5 -33.5q52 0 90 42t57 141l78 390h106l-79 -390q-29 -146 -94 -211t-162 -65q-108 0 -164 54t-56 163zM256 728l117 108h124l76 -111l-53 -32l-88 88h-4l-127 -89z" />
<glyph unicode="&#xdc;" horiz-adv-x="630" d="M77 205q0 22 4 48t8 51l70 350h108l-73 -366q-9 -42 -9 -77q0 -63 27.5 -96.5t88.5 -33.5q52 0 90 42t57 141l78 390h106l-79 -390q-29 -146 -94 -211t-162 -65q-108 0 -164 54t-56 163zM271 757q0 25 18 45t44 20q20 0 34.5 -13t14.5 -36q0 -24 -18 -44.5t-44 -20.5 q-21 0 -35 13t-14 36zM469 757q0 25 18 45t44 20q20 0 34.5 -13t14.5 -36q0 -24 -18 -44.5t-44 -20.5q-21 0 -35 13t-14 36z" />
<glyph unicode="&#xdd;" horiz-adv-x="486" d="M82 654h111l37 -172q8 -37 14.5 -71.5t13.5 -72.5h4q40 72 85 145l107 171h116l-275 -408l-49 -246h-108l49 246zM258 756l180 120l50 -80l-188 -102z" />
<glyph unicode="&#xde;" horiz-adv-x="579" d="M32 0l130 660h108l-21 -110h101q60 0 106 -16.5t72 -53t26 -96.5q0 -86 -39.5 -139.5t-106 -78.5t-149.5 -25h-93l-28 -141h-106zM184 227h83q88 0 134 36t46 105q0 51 -32 73.5t-91 22.5h-93z" />
<glyph unicode="&#xdf;" horiz-adv-x="583" d="M22 0l104 515q12 57 41.5 103t76.5 73t109 27q44 0 81.5 -15t60.5 -46t23 -79q0 -36 -12.5 -62.5t-30.5 -47t-36.5 -37.5t-31 -33.5t-12.5 -36.5q0 -19 14 -35t34.5 -31.5t41 -34.5t34.5 -44.5t14 -61.5q0 -46 -23 -83.5t-63 -60t-90 -22.5q-37 0 -74.5 11.5t-69.5 35.5 l46 71q22 -16 45.5 -26.5t51.5 -10.5q33 0 55 21t22 52q0 24 -14.5 42.5t-35.5 34.5t-42.5 33.5t-36 39.5t-14.5 53q0 29 12.5 51t31 40.5t37 36.5t31 39.5t12.5 50.5q0 31 -15.5 50t-50.5 19q-46 0 -76.5 -40.5t-43.5 -98.5l-98 -493h-108z" />
<glyph unicode="&#xe0;" horiz-adv-x="544" d="M35 167q0 71 22 132t59 106.5t84.5 71.5t98.5 26q36 0 66.5 -18.5t46.5 -50.5h2l21 57h86l-98 -491h-88l5 68h-3q-34 -36 -77 -58t-85 -22q-64 0 -102 46.5t-38 132.5zM146 182q0 -54 19.5 -80t53.5 -26q32 0 65.5 19.5t63.5 63.5l40 196q-16 32 -38 46t-45 14 q-41 0 -77.5 -32t-59 -85t-22.5 -116zM221 737l92 69l117 -185l-66 -52z" />
<glyph unicode="&#xe1;" horiz-adv-x="544" d="M35 167q0 71 22 132t59 106.5t84.5 71.5t98.5 26q36 0 66.5 -18.5t46.5 -50.5h2l21 57h86l-98 -491h-88l5 68h-3q-34 -36 -77 -58t-85 -22q-64 0 -102 46.5t-38 132.5zM146 182q0 -54 19.5 -80t53.5 -26q32 0 65.5 19.5t63.5 63.5l40 196q-16 32 -38 46t-45 14 q-41 0 -77.5 -32t-59 -85t-22.5 -116zM259 640l177 160l65 -83l-194 -138z" />
<glyph unicode="&#xe2;" horiz-adv-x="544" d="M35 167q0 71 22 132t59 106.5t84.5 71.5t98.5 26q36 0 66.5 -18.5t46.5 -50.5h2l21 57h86l-98 -491h-88l5 68h-3q-34 -36 -77 -58t-85 -22q-64 0 -102 46.5t-38 132.5zM146 182q0 -54 19.5 -80t53.5 -26q32 0 65.5 19.5t63.5 63.5l40 196q-16 32 -38 46t-45 14 q-41 0 -77.5 -32t-59 -85t-22.5 -116zM163 609l134 133h117l87 -136l-50 -42l-100 106h-4l-145 -106z" />
<glyph unicode="&#xe3;" horiz-adv-x="544" d="M35 167q0 71 22 132t59 106.5t84.5 71.5t98.5 26q36 0 66.5 -18.5t46.5 -50.5h2l21 57h86l-98 -491h-88l5 68h-3q-34 -36 -77 -58t-85 -22q-64 0 -102 46.5t-38 132.5zM146 182q0 -54 19.5 -80t53.5 -26q32 0 65.5 19.5t63.5 63.5l40 196q-16 32 -38 46t-45 14 q-41 0 -77.5 -32t-59 -85t-22.5 -116zM155 586q13 68 46 106t85 38q25 0 42 -11t29.5 -26t25.5 -26t30 -11q38 0 52 67l73 -4q-13 -67 -46 -105.5t-85 -38.5q-25 0 -42 11.5t-29.5 26t-25.5 26t-30 11.5q-40 0 -52 -68z" />
<glyph unicode="&#xe4;" horiz-adv-x="544" d="M35 167q0 71 22 132t59 106.5t84.5 71.5t98.5 26q36 0 66.5 -18.5t46.5 -50.5h2l21 57h86l-98 -491h-88l5 68h-3q-34 -36 -77 -58t-85 -22q-64 0 -102 46.5t-38 132.5zM146 182q0 -54 19.5 -80t53.5 -26q32 0 65.5 19.5t63.5 63.5l40 196q-16 32 -38 46t-45 14 q-41 0 -77.5 -32t-59 -85t-22.5 -116zM186 630q0 26 18.5 45.5t44.5 19.5q21 0 35.5 -13.5t14.5 -37.5q0 -27 -18.5 -45.5t-44.5 -18.5q-22 0 -36 13t-14 37zM384 630q0 26 18.5 45.5t44.5 19.5q22 0 36 -13.5t14 -37.5q0 -27 -18.5 -45.5t-44.5 -18.5q-22 0 -36 13t-14 37z " />
<glyph unicode="&#xe5;" horiz-adv-x="544" d="M35 167q0 71 22 132t59 106.5t84.5 71.5t98.5 26q36 0 66.5 -18.5t46.5 -50.5h2l21 57h86l-98 -491h-88l5 68h-3q-34 -36 -77 -58t-85 -22q-64 0 -102 46.5t-38 132.5zM146 182q0 -54 19.5 -80t53.5 -26q32 0 65.5 19.5t63.5 63.5l40 196q-16 32 -38 46t-45 14 q-41 0 -77.5 -32t-59 -85t-22.5 -116zM228 647q0 47 37 80t94 33q46 0 75.5 -22.5t29.5 -63.5q0 -46 -37 -79.5t-94 -33.5q-45 0 -75 22.5t-30 63.5zM297 650q0 -19 11 -31.5t32 -12.5q23 0 39 19.5t16 45.5q0 18 -11 31t-32 13q-22 0 -38.5 -19.5t-16.5 -45.5z" />
<glyph unicode="&#xe6;" horiz-adv-x="758" d="M27 109q0 71 40.5 113t111 61.5t159.5 22.5q3 20 3 32q0 80 -75 80q-30 0 -63.5 -11t-68.5 -29l-26 75q41 22 88.5 36t93.5 14q47 0 79 -20t44 -61q33 38 74 59.5t83 21.5q57 0 91.5 -24t49.5 -65t15 -92q0 -31 -7.5 -60t-12.5 -42h-288q-9 -73 23 -111.5t87 -38.5 q26 0 52.5 12t47.5 27l39 -69q-28 -21 -69.5 -36.5t-91.5 -15.5q-52 0 -94 25.5t-62 62.5q-46 -41 -93 -64.5t-101 -23.5t-91.5 32t-37.5 89zM132 131q0 -28 18.5 -43.5t47.5 -15.5q26 0 59 17.5t67 54.5q-4 25 -4 46t4 48q-93 -2 -142.5 -30t-49.5 -77zM427 288h205 q2 11 3.5 20.5t1.5 20.5q0 36 -17.5 63.5t-62.5 27.5q-38 0 -75.5 -35t-54.5 -97z" />
<glyph unicode="&#xe7;" horiz-adv-x="439" d="M33 188q0 66 22.5 123t61.5 100.5t90 67.5t108 24q45 0 77 -18t52 -42l-60 -65q-17 20 -34 29t-42 9q-44 0 -81.5 -30.5t-60.5 -81.5t-23 -112q0 -55 25 -86t74 -31q29 0 51.5 11.5t41.5 26.5l46 -68q-28 -20 -66.5 -38.5t-94.5 -18.5q-81 0 -134 52.5t-53 147.5z M68 -184q59 3 85.5 15.5t29.5 34.5q1 17 -13.5 27.5t-55.5 14.5l63 95h70l-41 -66q36 -9 50.5 -25t11.5 -43q-6 -49 -58.5 -74.5t-140.5 -27.5z" />
<glyph unicode="&#xe8;" horiz-adv-x="488" d="M33 196q0 69 23.5 125t62.5 97t86.5 63t95.5 22q57 0 91 -24t49.5 -65t15.5 -92q0 -31 -7.5 -60t-12.5 -42h-300q-6 -53 9.5 -86t45 -48.5t66.5 -15.5q26 0 53 12t47 27l40 -69q-30 -21 -72.5 -36.5t-95.5 -15.5q-88 0 -142.5 54.5t-54.5 153.5zM146 288h217q2 10 3.5 20 t1.5 21q0 36 -17.5 63.5t-62.5 27.5q-44 0 -84 -35t-58 -97zM213 737l92 69l117 -185l-66 -52z" />
<glyph unicode="&#xe9;" horiz-adv-x="488" d="M33 196q0 69 23.5 125t62.5 97t86.5 63t95.5 22q57 0 91 -24t49.5 -65t15.5 -92q0 -31 -7.5 -60t-12.5 -42h-300q-6 -53 9.5 -86t45 -48.5t66.5 -15.5q26 0 53 12t47 27l40 -69q-30 -21 -72.5 -36.5t-95.5 -15.5q-88 0 -142.5 54.5t-54.5 153.5zM146 288h217q2 10 3.5 20 t1.5 21q0 36 -17.5 63.5t-62.5 27.5q-44 0 -84 -35t-58 -97zM251 640l177 160l65 -83l-194 -138z" />
<glyph unicode="&#xea;" horiz-adv-x="488" d="M33 196q0 69 23.5 125t62.5 97t86.5 63t95.5 22q57 0 91 -24t49.5 -65t15.5 -92q0 -31 -7.5 -60t-12.5 -42h-300q-6 -53 9.5 -86t45 -48.5t66.5 -15.5q26 0 53 12t47 27l40 -69q-30 -21 -72.5 -36.5t-95.5 -15.5q-88 0 -142.5 54.5t-54.5 153.5zM146 288h217q2 10 3.5 20 t1.5 21q0 36 -17.5 63.5t-62.5 27.5q-44 0 -84 -35t-58 -97zM155 609l134 133h117l87 -136l-50 -42l-100 106h-4l-145 -106z" />
<glyph unicode="&#xeb;" horiz-adv-x="488" d="M33 196q0 69 23.5 125t62.5 97t86.5 63t95.5 22q57 0 91 -24t49.5 -65t15.5 -92q0 -31 -7.5 -60t-12.5 -42h-300q-6 -53 9.5 -86t45 -48.5t66.5 -15.5q26 0 53 12t47 27l40 -69q-30 -21 -72.5 -36.5t-95.5 -15.5q-88 0 -142.5 54.5t-54.5 153.5zM146 288h217q2 10 3.5 20 t1.5 21q0 36 -17.5 63.5t-62.5 27.5q-44 0 -84 -35t-58 -97zM178 630q0 26 18.5 45.5t44.5 19.5q21 0 35.5 -13.5t14.5 -37.5q0 -27 -18.5 -45.5t-44.5 -18.5q-22 0 -36 13t-14 37zM376 630q0 26 18.5 45.5t44.5 19.5q22 0 36 -13.5t14 -37.5q0 -27 -18.5 -45.5t-44.5 -18.5 q-22 0 -36 13t-14 37z" />
<glyph unicode="&#xec;" horiz-adv-x="251" d="M22 0l99 491h107l-98 -491h-108zM84 737l92 69l117 -185l-66 -52z" />
<glyph unicode="&#xed;" horiz-adv-x="251" d="M22 0l99 491h107l-98 -491h-108zM122 640l177 160l65 -83l-194 -138z" />
<glyph unicode="&#xee;" horiz-adv-x="251" d="M22 0l99 491h107l-98 -491h-108zM26 609l134 133h117l87 -136l-50 -42l-100 106h-4l-145 -106z" />
<glyph unicode="&#xef;" horiz-adv-x="251" d="M22 0l99 491h107l-98 -491h-108zM49 630q0 26 18.5 45.5t44.5 19.5q21 0 35.5 -13.5t14.5 -37.5q0 -27 -18.5 -45.5t-44.5 -18.5q-22 0 -36 13t-14 37zM247 630q0 26 18.5 45.5t44.5 19.5q22 0 36 -13.5t14 -37.5q0 -27 -18.5 -45.5t-44.5 -18.5q-22 0 -36 13t-14 37z " />
<glyph unicode="&#xf0;" horiz-adv-x="531" d="M38 177q0 51 15.5 99.5t45.5 88t72.5 63t96.5 23.5q35 0 64 -16.5t48 -47.5q-4 50 -17 92t-36 77l-147 -60l-21 53l130 53q-18 19 -40 36.5t-48 33.5l49 63q36 -20 68 -44.5t58 -53.5l145 59l21 -53l-129 -52q33 -49 51 -108.5t18 -130.5q0 -70 -16.5 -135t-50 -116.5 t-82 -82t-113.5 -30.5q-51 0 -92 23.5t-65.5 66.5t-24.5 99zM136 186q0 -45 24 -78t70 -33q42 0 73.5 30t51.5 81.5t25 115.5q-16 26 -40.5 46t-58.5 20q-46 0 -78.5 -27t-49.5 -68.5t-17 -86.5z" />
<glyph unicode="&#xf1;" horiz-adv-x="539" d="M22 0l99 491h87l-4 -69h4q38 33 79.5 57t87.5 24q62 0 89 -32.5t27 -91.5q0 -17 -1.5 -33t-6.5 -36l-62 -310h-107l60 296q3 17 5.5 29t2.5 23q0 63 -62 63q-25 0 -55 -18t-69 -58l-66 -335h-108zM181 586q13 68 46 106t85 38q25 0 42 -11t29.5 -26t25.5 -26t30 -11 q38 0 52 67l73 -4q-13 -67 -46 -105.5t-85 -38.5q-25 0 -42 11.5t-29.5 26t-25.5 26t-30 11.5q-40 0 -52 -68z" />
<glyph unicode="&#xf2;" horiz-adv-x="524" d="M34 188q0 71 23 128.5t62 99.5t87 64.5t98 22.5q83 0 133.5 -54t50.5 -146q0 -70 -23 -128t-62 -100t-87 -64.5t-99 -22.5q-82 0 -132.5 54.5t-50.5 145.5zM142 192q0 -55 22 -86t65 -31q39 0 73.5 30t55.5 81t21 114q0 56 -22 86t-64 30q-39 0 -73.5 -30t-56 -80.5 t-21.5 -113.5zM223 737l92 69l117 -185l-66 -52z" />
<glyph unicode="&#xf3;" horiz-adv-x="524" d="M34 188q0 71 23 128.5t62 99.5t87 64.5t98 22.5q83 0 133.5 -54t50.5 -146q0 -70 -23 -128t-62 -100t-87 -64.5t-99 -22.5q-82 0 -132.5 54.5t-50.5 145.5zM142 192q0 -55 22 -86t65 -31q39 0 73.5 30t55.5 81t21 114q0 56 -22 86t-64 30q-39 0 -73.5 -30t-56 -80.5 t-21.5 -113.5zM261 640l177 160l65 -83l-194 -138z" />
<glyph unicode="&#xf4;" horiz-adv-x="524" d="M34 188q0 71 23 128.5t62 99.5t87 64.5t98 22.5q83 0 133.5 -54t50.5 -146q0 -70 -23 -128t-62 -100t-87 -64.5t-99 -22.5q-82 0 -132.5 54.5t-50.5 145.5zM142 192q0 -55 22 -86t65 -31q39 0 73.5 30t55.5 81t21 114q0 56 -22 86t-64 30q-39 0 -73.5 -30t-56 -80.5 t-21.5 -113.5zM165 609l134 133h117l87 -136l-50 -42l-100 106h-4l-145 -106z" />
<glyph unicode="&#xf5;" horiz-adv-x="524" d="M34 188q0 71 23 128.5t62 99.5t87 64.5t98 22.5q83 0 133.5 -54t50.5 -146q0 -70 -23 -128t-62 -100t-87 -64.5t-99 -22.5q-82 0 -132.5 54.5t-50.5 145.5zM142 192q0 -55 22 -86t65 -31q39 0 73.5 30t55.5 81t21 114q0 56 -22 86t-64 30q-39 0 -73.5 -30t-56 -80.5 t-21.5 -113.5zM157 586q13 68 46 106t85 38q25 0 42 -11t29.5 -26t25.5 -26t30 -11q38 0 52 67l73 -4q-13 -67 -46 -105.5t-85 -38.5q-25 0 -42 11.5t-29.5 26t-25.5 26t-30 11.5q-40 0 -52 -68z" />
<glyph unicode="&#xf6;" horiz-adv-x="524" d="M34 188q0 71 23 128.5t62 99.5t87 64.5t98 22.5q83 0 133.5 -54t50.5 -146q0 -70 -23 -128t-62 -100t-87 -64.5t-99 -22.5q-82 0 -132.5 54.5t-50.5 145.5zM142 192q0 -55 22 -86t65 -31q39 0 73.5 30t55.5 81t21 114q0 56 -22 86t-64 30q-39 0 -73.5 -30t-56 -80.5 t-21.5 -113.5zM188 630q0 26 18.5 45.5t44.5 19.5q21 0 35.5 -13.5t14.5 -37.5q0 -27 -18.5 -45.5t-44.5 -18.5q-22 0 -36 13t-14 37zM386 630q0 26 18.5 45.5t44.5 19.5q22 0 36 -13.5t14 -37.5q0 -27 -18.5 -45.5t-44.5 -18.5q-22 0 -36 13t-14 37z" />
<glyph unicode="&#xf7;" d="M48 292v77h424v-77h-424zM196 148q0 26 18.5 44t45.5 18t45.5 -18t18.5 -44q0 -27 -18.5 -44.5t-45.5 -17.5t-45.5 17.5t-18.5 44.5zM196 512q0 26 18.5 43.5t45.5 17.5t45.5 -17.5t18.5 -43.5q0 -27 -18.5 -45t-45.5 -18t-45.5 18t-18.5 45z" />
<glyph unicode="&#xf8;" horiz-adv-x="524" d="M0 10l62 63q-28 48 -28 115q0 71 23 128.5t62 99.5t87 64.5t98 22.5q77 0 128 -48l57 59l37 -34l-64 -66q26 -46 26 -111q0 -71 -23 -129t-62 -99.5t-87 -64t-99 -22.5q-74 0 -125 46l-56 -58zM135 192q0 -21 3 -39l226 232q-25 33 -68 33q-35 0 -64.5 -19.5t-51 -52 t-33.5 -73t-12 -81.5zM159 103q24 -30 66 -30q48 0 84.5 33.5t56.5 85t20 106.5q0 19 -3 35z" />
<glyph unicode="&#xf9;" horiz-adv-x="537" d="M47 112q0 17 2 33.5t6 35.5l62 310h107l-59 -296q-4 -17 -6 -29t-2 -23q0 -63 61 -63q49 0 121 76l66 335h107l-97 -491h-87l4 70h-4q-37 -33 -78.5 -57.5t-85.5 -24.5q-61 0 -89 33t-28 91zM219 737l92 69l117 -185l-66 -52z" />
<glyph unicode="&#xfa;" horiz-adv-x="537" d="M47 112q0 17 2 33.5t6 35.5l62 310h107l-59 -296q-4 -17 -6 -29t-2 -23q0 -63 61 -63q49 0 121 76l66 335h107l-97 -491h-87l4 70h-4q-37 -33 -78.5 -57.5t-85.5 -24.5q-61 0 -89 33t-28 91zM257 640l177 160l65 -83l-194 -138z" />
<glyph unicode="&#xfb;" horiz-adv-x="537" d="M47 112q0 17 2 33.5t6 35.5l62 310h107l-59 -296q-4 -17 -6 -29t-2 -23q0 -63 61 -63q49 0 121 76l66 335h107l-97 -491h-87l4 70h-4q-37 -33 -78.5 -57.5t-85.5 -24.5q-61 0 -89 33t-28 91zM161 609l134 133h117l87 -136l-50 -42l-100 106h-4l-145 -106z" />
<glyph unicode="&#xfc;" horiz-adv-x="537" d="M47 112q0 17 2 33.5t6 35.5l62 310h107l-59 -296q-4 -17 -6 -29t-2 -23q0 -63 61 -63q49 0 121 76l66 335h107l-97 -491h-87l4 70h-4q-37 -33 -78.5 -57.5t-85.5 -24.5q-61 0 -89 33t-28 91zM184 630q0 26 18.5 45.5t44.5 19.5q21 0 35.5 -13.5t14.5 -37.5 q0 -27 -18.5 -45.5t-44.5 -18.5q-22 0 -36 13t-14 37zM382 630q0 26 18.5 45.5t44.5 19.5q22 0 36 -13.5t14 -37.5q0 -27 -18.5 -45.5t-44.5 -18.5q-22 0 -36 13t-14 37z" />
<glyph unicode="&#xfd;" horiz-adv-x="474" d="M-48 -184l34 78q17 -10 36 -10q32 0 61 25t49 66l15 30l-85 486h107l31 -248q4 -33 7.5 -72.5t4.5 -74.5h4q17 35 34.5 74t34.5 73l122 248h104l-276 -517q-46 -80 -96 -128t-124 -48q-12 0 -30.5 5t-32.5 13zM227 640l177 160l65 -83l-194 -138z" />
<glyph unicode="&#xfe;" horiz-adv-x="544" d="M-17 -194l181 900h107l-35 -174l-24 -94h2q35 28 74.5 46.5t79.5 18.5q65 0 102.5 -46.5t37.5 -132.5q0 -70 -22 -131.5t-59 -107t-84 -71.5t-98 -26q-34 0 -62.5 18t-46.5 46h-2l-16 -100l-28 -146h-107zM157 134q16 -31 37 -44.5t44 -13.5q42 0 78.5 32t59 85.5 t22.5 116.5q0 53 -20 79t-54 26q-28 0 -62.5 -17.5t-62.5 -53.5z" />
<glyph unicode="&#xff;" horiz-adv-x="474" d="M-48 -184l34 78q17 -10 36 -10q32 0 61 25t49 66l15 30l-85 486h107l31 -248q4 -33 7.5 -72.5t4.5 -74.5h4q17 35 34.5 74t34.5 73l122 248h104l-276 -517q-46 -80 -96 -128t-124 -48q-12 0 -30.5 5t-32.5 13zM154 630q0 26 18.5 45.5t44.5 19.5q21 0 35.5 -13.5 t14.5 -37.5q0 -27 -18.5 -45.5t-44.5 -18.5q-22 0 -36 13t-14 37zM352 630q0 26 18.5 45.5t44.5 19.5q22 0 36 -13.5t14 -37.5q0 -27 -18.5 -45.5t-44.5 -18.5q-22 0 -36 13t-14 37z" />
<glyph unicode="&#x152;" horiz-adv-x="825" d="M58 256q0 124 44.5 213t125 137t187.5 48h431l-18 -91h-252l-34 -176h211l-18 -91h-211l-42 -205h261l-18 -91h-383q-136 0 -210 66t-74 190zM169 263q0 -87 46.5 -131.5t129.5 -44.5h30l95 480h-53q-73 0 -129 -36t-87.5 -103.5t-31.5 -164.5z" />
<glyph unicode="&#x153;" horiz-adv-x="805" d="M34 188q0 71 22.5 128.5t60.5 99.5t85 64.5t96 22.5q58 0 93.5 -28.5t52.5 -81.5q33 53 80 81.5t93 28.5q57 0 91.5 -24t50 -65t15.5 -92q0 -31 -8 -59.5t-13 -42.5h-287q-6 -81 27 -115.5t82 -34.5q26 0 52.5 12t47.5 27l39 -69q-28 -20 -68 -36t-88 -16q-57 0 -99 29 t-59 87q-35 -55 -85.5 -85.5t-103.5 -30.5q-80 0 -128.5 54.5t-48.5 145.5zM142 192q0 -55 22 -86t65 -31q37 0 70 30t53.5 81t20.5 114q0 56 -22 86t-64 30q-36 0 -69 -30t-54.5 -80.5t-21.5 -113.5zM476 288h204q2 10 3 20t1 21q0 36 -17.5 63.5t-62.5 27.5 q-40 0 -75.5 -35t-52.5 -97z" />
<glyph unicode="&#x178;" horiz-adv-x="486" d="M82 654h111l37 -172q8 -37 14.5 -71.5t13.5 -72.5h4q40 72 85 145l107 171h116l-275 -408l-49 -246h-108l49 246zM192 757q0 25 18 45t44 20q20 0 34.5 -13t14.5 -36q0 -24 -18 -44.5t-44 -20.5q-21 0 -35 13t-14 36zM390 757q0 25 18 45t44 20q20 0 34.5 -13t14.5 -36 q0 -24 -18 -44.5t-44 -20.5q-21 0 -35 13t-14 36z" />
<glyph unicode="&#x2c6;" horiz-adv-x="526" d="M165 609l134 133h117l87 -136l-50 -42l-100 106h-4l-145 -106z" />
<glyph unicode="&#x2dc;" horiz-adv-x="526" d="M157 586q13 68 46 106t85 38q25 0 42 -11t29.5 -26t25.5 -26t30 -11q38 0 52 67l73 -4q-13 -67 -46 -105.5t-85 -38.5q-25 0 -42 11.5t-29.5 26t-25.5 26t-30 11.5q-40 0 -52 -68z" />
<glyph unicode="&#x2000;" horiz-adv-x="442" />
<glyph unicode="&#x2001;" horiz-adv-x="885" />
<glyph unicode="&#x2002;" horiz-adv-x="442" />
<glyph unicode="&#x2003;" horiz-adv-x="885" />
<glyph unicode="&#x2004;" horiz-adv-x="295" />
<glyph unicode="&#x2005;" horiz-adv-x="221" />
<glyph unicode="&#x2006;" horiz-adv-x="147" />
<glyph unicode="&#x2007;" horiz-adv-x="147" />
<glyph unicode="&#x2008;" horiz-adv-x="110" />
<glyph unicode="&#x2009;" horiz-adv-x="177" />
<glyph unicode="&#x200a;" horiz-adv-x="49" />
<glyph unicode="&#x2010;" horiz-adv-x="310" d="M34 213l16 79h227l-17 -79h-226z" />
<glyph unicode="&#x2011;" horiz-adv-x="310" d="M34 213l16 79h227l-17 -79h-226z" />
<glyph unicode="&#x2012;" horiz-adv-x="310" d="M34 213l16 79h227l-17 -79h-226z" />
<glyph unicode="&#x2013;" horiz-adv-x="463" d="M35 216l14 72h379l-15 -72h-378z" />
<glyph unicode="&#x2014;" horiz-adv-x="770" d="M35 216l14 72h687l-15 -72h-686z" />
<glyph unicode="&#x2018;" horiz-adv-x="267" d="M103 476q0 53 21 94.5t55.5 70t76.5 43.5l19 -49q-51 -22 -78 -57t-27 -61h3h2q26 0 43.5 -14t17.5 -40q0 -28 -18.5 -48.5t-50.5 -20.5q-28 0 -46 21.5t-18 60.5z" />
<glyph unicode="&#x2019;" horiz-adv-x="267" d="M109 457q51 22 78 57.5t27 60.5h-2h-3q-26 0 -43.5 14t-17.5 40q0 28 19.5 48.5t50.5 20.5q29 0 46 -21.5t17 -60.5q0 -53 -20.5 -94.5t-55.5 -70t-77 -43.5z" />
<glyph unicode="&#x201a;" horiz-adv-x="267" d="M-4 -104q51 22 78 57.5t27 60.5h-2h-3q-26 0 -43.5 14t-17.5 40q0 28 19.5 48.5t50.5 20.5q29 0 46 -21.5t17 -60.5q0 -53 -20.5 -94.5t-55.5 -70t-77 -43.5z" />
<glyph unicode="&#x201c;" horiz-adv-x="460" d="M103 476q0 53 21 94.5t55.5 70t76.5 43.5l19 -49q-51 -22 -78 -57t-27 -61h3h2q26 0 43.5 -14t17.5 -40q0 -28 -18.5 -48.5t-50.5 -20.5q-28 0 -46 21.5t-18 60.5zM296 476q0 53 21 94.5t55.5 70t76.5 43.5l19 -49q-51 -22 -78 -57t-27 -61h3h2q26 0 43.5 -14t17.5 -40 q0 -28 -18.5 -48.5t-50.5 -20.5q-28 0 -46 21.5t-18 60.5z" />
<glyph unicode="&#x201d;" horiz-adv-x="460" d="M109 457q51 22 78 57.5t27 60.5h-2h-3q-26 0 -43.5 14t-17.5 40q0 28 19.5 48.5t50.5 20.5q29 0 46 -21.5t17 -60.5q0 -53 -20.5 -94.5t-55.5 -70t-77 -43.5zM302 457q51 22 78 57.5t27 60.5h-2h-3q-26 0 -43.5 14t-17.5 40q0 28 19.5 48.5t50.5 20.5q29 0 46 -21.5 t17 -60.5q0 -53 -20.5 -94.5t-55.5 -70t-77 -43.5z" />
<glyph unicode="&#x201e;" horiz-adv-x="460" d="M-4 -104q51 22 78 57.5t27 60.5h-2h-3q-26 0 -43.5 14t-17.5 40q0 28 19.5 48.5t50.5 20.5q29 0 46 -21.5t17 -60.5q0 -53 -20.5 -94.5t-55.5 -70t-77 -43.5zM189 -104q51 22 78 57.5t27 60.5h-2h-3q-26 0 -43.5 14t-17.5 40q0 28 19.5 48.5t50.5 20.5q29 0 46 -21.5 t17 -60.5q0 -53 -20.5 -94.5t-55.5 -70t-77 -43.5z" />
<glyph unicode="&#x2022;" horiz-adv-x="313" d="M40 248q0 35 16 67.5t45 53.5t69 21q45 0 75.5 -31t30.5 -81q0 -35 -16 -67.5t-45 -53.5t-69 -21q-46 0 -76 31.5t-30 80.5z" />
<glyph unicode="&#x2026;" horiz-adv-x="968" d="M76 50q0 32 23.5 59t59.5 27q27 0 42.5 -18t15.5 -45q0 -32 -22.5 -58.5t-59.5 -26.5q-27 0 -43 17.5t-16 44.5zM400 50q0 32 23.5 59t59.5 27q27 0 42.5 -18t15.5 -45q0 -32 -22.5 -58.5t-59.5 -26.5q-27 0 -43 17.5t-16 44.5zM724 50q0 32 23.5 59t59.5 27 q27 0 42.5 -18t15.5 -45q0 -32 -22.5 -58.5t-59.5 -26.5q-27 0 -43 17.5t-16 44.5z" />
<glyph unicode="&#x202f;" horiz-adv-x="177" />
<glyph unicode="&#x2039;" horiz-adv-x="262" d="M40 216l14 80l155 144l35 -38l-137 -154l81 -157l-45 -29z" />
<glyph unicode="&#x203a;" horiz-adv-x="262" d="M25 100l137 154l-82 157l46 29l103 -154l-15 -80l-154 -144z" />
<glyph unicode="&#x205f;" horiz-adv-x="221" />
<glyph unicode="&#x20ac;" d="M18 232l12 52l52 5l4 32t5 31h-49l12 52l51 4q25 75 67.5 130t98 85.5t117.5 30.5q55 0 89.5 -28t56.5 -69l-78 -51q-13 28 -31 44.5t-48 16.5q-55 0 -98 -43.5t-66 -114.5h229l-12 -57h-233q-3 -15 -5 -30.5t-3 -31.5h191l-12 -58h-181q3 -75 32.5 -116t81.5 -41 q30 0 56.5 15.5t48.5 37.5l52 -64q-43 -39 -87.5 -57.5t-90.5 -18.5q-91 0 -144.5 63t-55.5 181h-62z" />
<glyph unicode="&#x2122;" horiz-adv-x="632" d="M74 610l13 66h254l-13 -66h-89l-49 -246h-72l48 246h-92zM323 364l61 312h85l22 -104l9 -76h4l36 76l64 104h87l-61 -312h-71l24 121l36 117h-4l-111 -191h-39l-36 191h-4l-9 -117l-24 -121h-69z" />
<glyph unicode="&#xfb01;" horiz-adv-x="556" d="M40 0l81 406h-63l16 80l65 5l11 57q15 75 57.5 122.5t115.5 47.5q28 0 52 -7t45 -18l-36 -76q-9 5 -22.5 10t-28.5 5q-60 0 -76 -81l-12 -60h93l-17 -85h-94l-80 -406h-107zM327 0l99 491h107l-98 -491h-108zM442 634q0 29 21.5 49.5t50.5 20.5q24 0 43 -14.5t19 -41.5 q0 -30 -21 -50t-51 -20q-24 0 -43 14.5t-19 41.5z" />
<glyph unicode="&#xfb02;" horiz-adv-x="567" d="M40 0l81 406h-63l16 80l65 5l11 57q15 75 57.5 122.5t115.5 47.5q28 0 52 -7t45 -18l-36 -76q-9 5 -22.5 10t-28.5 5q-60 0 -76 -81l-12 -60h93l-17 -85h-94l-80 -406h-107zM345 68q0 23 7 52l117 586h107l-118 -591q-1 -7 -1.5 -11.5t-0.5 -7.5q0 -21 17 -21q5 0 8 0.5 t10 2.5l-2 -80q-11 -4 -26 -7t-35 -3q-43 0 -63 21.5t-20 58.5z" />
<glyph unicode="&#xfb03;" horiz-adv-x="840" d="M40 0l82 406h-64l16 80l64 5l10 47q16 75 59 122.5t118 47.5q29 0 54 -6.5t47 -17.5l-36 -77q-10 5 -24 10t-31 5q-64 0 -80 -81l-10 -50h178l11 57q15 75 57.5 122.5t115.5 47.5q28 0 51.5 -6.5t45.5 -17.5l-36 -77q-9 5 -22.5 10t-28.5 5q-60 0 -76 -81l-12 -60h93 l-17 -85h-93l-81 -406h-107l81 406h-177l-81 -406h-107zM611 0l99 491h107l-98 -491h-108zM726 634q0 29 21.5 49.5t50.5 20.5q24 0 43 -14.5t19 -41.5q0 -30 -21 -50t-51 -20q-24 0 -43 14.5t-19 41.5z" />
<glyph unicode="&#xfb04;" horiz-adv-x="851" d="M40 0l82 406h-64l16 80l64 5l10 47q16 75 59 122.5t118 47.5q29 0 54 -6.5t47 -17.5l-36 -77q-10 5 -24 10t-31 5q-64 0 -80 -81l-10 -50h178l11 57q15 75 57.5 122.5t115.5 47.5q28 0 51.5 -6.5t45.5 -17.5l-36 -77q-9 5 -22.5 10t-28.5 5q-60 0 -76 -81l-12 -60h93 l-17 -85h-93l-81 -406h-107l81 406h-177l-81 -406h-107zM629 68q0 23 7 52l117 586h107l-118 -591q-1 -7 -1.5 -11.5t-0.5 -7.5q0 -21 17 -21q5 0 8 0.5t10 2.5l-2 -80q-11 -4 -26 -7t-35 -3q-43 0 -63 21.5t-20 58.5z" />
</font>
</defs>
</svg>
