<?xml version="1.0" standalone="no"?>
<!DOCTYPE svg PUBLIC "-//W3C//DTD SVG 1.1//EN" "http://www.w3.org/Graphics/SVG/1.1/DTD/svg11.dtd" >
<svg xmlns="http://www.w3.org/2000/svg" xmlns:xlink="http://www.w3.org/1999/xlink" version="1.1">
<metadata></metadata>
<defs>
<font id="source_sans_prosemibold" horiz-adv-x="1050" >
<font-face units-per-em="2048" ascent="1536" descent="-512" />
<missing-glyph horiz-adv-x="409" />
<glyph horiz-adv-x="0" />
<glyph horiz-adv-x="682" />
<glyph unicode=" "  horiz-adv-x="409" />
<glyph unicode="&#x09;" horiz-adv-x="409" />
<glyph unicode="&#xa0;" horiz-adv-x="409" />
<glyph unicode="!" horiz-adv-x="645" d="M170 135q0 70 45 115t109 45q66 0 108.5 -45t42.5 -115t-42.5 -115t-108.5 -45q-63 0 -108.5 45.5t-45.5 114.5zM205 1372h237l-8 -233l-33 -699h-157l-33 699z" />
<glyph unicode="&#x22;" horiz-adv-x="987" d="M160 1409h241l-6 -231l-47 -375h-135l-45 375zM584 1409h241l-6 -231l-47 -375h-135l-45 375z" />
<glyph unicode="#" d="M72 399v156h174l33 264h-166v156h186l45 356h141l-43 -356h240l47 356h139l-43 -356h164v-156h-182l-33 -264h174v-156h-192l-47 -399h-144l47 399h-239l-49 -399h-144l49 399h-157zM389 555h242l33 264h-242z" />
<glyph unicode="$" d="M92 135l107 160q72 -57 146.5 -92t156.5 -35q100 0 149 47t49 129q0 68 -39.5 114t-103 80.5t-135.5 70.5t-135.5 81t-103.5 109.5t-40 161.5q0 143 83 238t220 120v209h164v-205q98 -12 169 -56t128 -104l-121 -137q-57 53 -110 81t-127 28q-82 0 -130 -42t-48 -122 q0 -61 40 -102.5t103.5 -74t135 -66.5t135 -80t103.5 -114.5t40 -173.5q0 -145 -83 -245.5t-235 -128.5v-211h-164v205q-94 10 -189 51t-165 104z" />
<glyph unicode="%" horiz-adv-x="1722" d="M61 942q0 201 89.5 311.5t230.5 110.5t230 -110.5t89 -311.5q0 -203 -89 -314.5t-230 -111.5t-230.5 112t-89.5 314zM231 942q0 -150 43.5 -219t106.5 -69q66 0 107.5 69.5t41.5 218.5q0 152 -42 218.5t-107 66.5q-63 0 -106.5 -66.5t-43.5 -218.5zM424 -25l731 1389h143 l-729 -1389h-145zM1022 401q0 201 89.5 311.5t230.5 110.5t230 -110.5t89 -311.5q0 -203 -89 -314.5t-230 -111.5t-230.5 112t-89.5 314zM1192 401q0 -150 43.5 -219t106.5 -69q66 0 107.5 69.5t41.5 218.5q0 152 -42 218.5t-107 66.5q-63 0 -106.5 -66.5t-43.5 -218.5z" />
<glyph unicode="&#x26;" horiz-adv-x="1308" d="M57 352q0 92 36 162t94.5 123t125.5 98q-41 78 -63.5 152t-22.5 143q0 92 42 168t118 121t178 45q137 0 216 -79t79 -206q0 -88 -42 -156.5t-108.5 -125t-140.5 -107.5q61 -82 140 -161.5t165 -145.5q55 74 99.5 163t70.5 193h218q-37 -125 -94.5 -242.5t-135.5 -222.5 q66 -39 127.5 -67.5t114.5 -38.5l-60 -193q-76 18 -158.5 54.5t-166.5 89.5q-80 -66 -180.5 -105t-223.5 -39q-133 0 -229 50.5t-147.5 135.5t-51.5 191zM283 367q0 -94 65.5 -151.5t165.5 -57.5q55 0 109.5 21.5t105.5 58.5q-88 76 -170 161.5t-147 175.5q-57 -45 -93 -96 t-36 -112zM424 1032q0 -45 14.5 -94t38.5 -102q84 53 141.5 108t57.5 133q0 53 -24.5 90t-84.5 37q-63 0 -103 -47t-40 -125z" />
<glyph unicode="'" horiz-adv-x="563" d="M160 1409h241l-6 -231l-47 -375h-135l-45 375z" />
<glyph unicode="(" horiz-adv-x="663" d="M158 569q0 270 71.5 497.5t198.5 436.5l147 -65q-115 -197 -170 -420t-55 -449q0 -225 55.5 -448t169.5 -420l-147 -66q-127 209 -198.5 436.5t-71.5 497.5z" />
<glyph unicode=")" horiz-adv-x="663" d="M88 -299q115 197 170 420t55 448t-55 448.5t-170 420.5l148 65q127 -209 198.5 -436t71.5 -498q0 -270 -71.5 -497.5t-198.5 -436.5z" />
<glyph unicode="*" horiz-adv-x="897" d="M98 1155l39 123l223 -51l23 231h129l23 -231l225 51l39 -123l-211 -92l119 -201l-105 -76l-153 179l-156 -179l-105 76l119 201z" />
<glyph unicode="+" d="M70 590v172h366v387h178v-387h367v-172h-367v-387h-178v387h-366z" />
<glyph unicode="," horiz-adv-x="563" d="M96 -244q100 39 154.5 105.5t52.5 142.5h-9h-9q-59 0 -105.5 38t-46.5 108q0 66 47 105.5t111 39.5q84 0 130 -63.5t46 -178.5q0 -150 -84 -261.5t-236 -164.5z" />
<glyph unicode="-" horiz-adv-x="659" d="M86 430v172h487v-172h-487z" />
<glyph unicode="&#xad;" horiz-adv-x="659" d="M86 430v172h487v-172h-487z" />
<glyph unicode="." horiz-adv-x="563" d="M129 135q0 70 45 115t109 45q66 0 108.5 -45t42.5 -115t-42.5 -115t-108.5 -45q-63 0 -108.5 45.5t-45.5 114.5z" />
<glyph unicode="/" horiz-adv-x="704" d="M25 -328l477 1782h160l-478 -1782h-159z" />
<glyph unicode="0" d="M82 657q0 330 120 500t322 170q203 0 323 -170t120 -500t-120 -506t-323 -176t-322.5 176.5t-119.5 505.5zM307 657q0 -184 29 -292.5t78 -156.5t110 -48q63 0 112.5 48t77 156.5t27.5 292.5t-27.5 291t-76.5 151t-113 44q-61 0 -110 -44t-78 -150.5t-29 -291.5z" />
<glyph unicode="1" d="M152 0v193h290v856h-239v147q96 18 167.5 44t133.5 63h176v-1110h256v-193h-784z" />
<glyph unicode="2" d="M68 1126q90 96 186 148.5t229 52.5q188 0 300 -108.5t112 -290.5q0 -115 -64.5 -235t-172 -244.5t-236.5 -262.5q51 4 110.5 9.5t106.5 5.5h319v-201h-880v137q182 176 314 314.5t204 252t72 211.5q0 102 -55.5 164t-159.5 62q-76 0 -138.5 -43t-115.5 -103z" />
<glyph unicode="3" d="M49 160l113 151q59 -59 135 -101t174 -42q106 0 173 52t67 145q0 68 -34 117.5t-117 76.5t-232 27v172q193 0 266.5 59.5t73.5 149.5q0 82 -51.5 128t-141.5 46q-76 0 -139.5 -34t-122.5 -89l-121 145q84 74 179.5 119t211.5 45q188 0 305 -89t117 -255 q0 -109 -60.5 -183.5t-166.5 -115.5v-8q115 -31 192.5 -113t77.5 -211q0 -119 -62.5 -202.5t-165.5 -129t-228 -45.5q-158 0 -265.5 54.5t-177.5 130.5z" />
<glyph unicode="4" d="M37 336v160l516 807h281v-785h163v-182h-163v-336h-222v336h-575zM270 518h342v295q0 57 4.5 135t6.5 135h-9q-25 -51 -51 -100t-55 -102z" />
<glyph unicode="5" d="M49 156l109 151q59 -55 133 -97t172 -42q109 0 180.5 65.5t71.5 184.5q0 117 -65.5 180.5t-174.5 63.5q-63 0 -106 -17.5t-103 -56.5l-112 71l39 644h696v-199h-492l-26 -316q41 20 81 31.5t91 11.5q113 0 205 -43t148 -133t56 -231t-64.5 -241.5t-168.5 -154t-225 -53.5 q-158 0 -265.5 54.5t-179.5 126.5z" />
<glyph unicode="6" d="M90 612q0 254 73 411t189.5 230.5t249.5 73.5q119 0 205 -43t143 -104l-127 -144q-35 43 -91 71t-116 28q-82 0 -149.5 -45.5t-109.5 -150.5t-48 -286q57 72 135 113t148 41q170 0 275.5 -99.5t105.5 -304.5q0 -129 -56.5 -225t-148.5 -149.5t-205 -53.5 q-127 0 -235.5 68t-173 209t-64.5 360zM315 485q18 -174 84 -251.5t160 -77.5q82 0 138.5 64.5t56.5 182.5q0 115 -54.5 173.5t-150.5 58.5q-55 0 -116.5 -34t-117.5 -116z" />
<glyph unicode="7" d="M90 1104v199h875v-144q-115 -141 -185.5 -270t-110.5 -261t-58.5 -285t-26.5 -343h-240q12 231 49 414.5t113 349.5t201 340h-617z" />
<glyph unicode="8" d="M84 334q0 121 71.5 202.5t163.5 131.5v8q-76 53 -128 128t-52 177q0 106 51.5 183t140.5 120t201 43q176 0 279.5 -97t103.5 -255q0 -96 -55 -174t-119 -125v-8q90 -51 158 -129t68 -209q0 -100 -55.5 -180t-154 -127.5t-231.5 -47.5q-127 0 -227 46.5t-157.5 126 t-57.5 186.5zM291 358q0 -96 69.5 -155.5t169.5 -59.5q94 0 154.5 52.5t60.5 142.5q0 72 -41.5 117t-112.5 78.5t-159 68.5q-61 -45 -101 -106.5t-40 -137.5zM350 981q0 -66 35 -110t95 -75.5t132 -60.5q53 53 81 108.5t28 117.5q0 86 -51.5 142t-141.5 56q-76 0 -127 -47 t-51 -131z" />
<glyph unicode="9" d="M76 901q0 131 56 226.5t149.5 147.5t203.5 52q127 0 234.5 -67.5t172 -208t64.5 -359.5q0 -252 -71.5 -410.5t-188.5 -232.5t-252 -74q-117 0 -202.5 43t-145.5 105l127 143q37 -43 93.5 -70.5t115.5 -27.5q82 0 149.5 45t110.5 150.5t47 285.5q-57 -70 -135 -110.5 t-149 -40.5q-168 0 -273.5 99t-105.5 304zM293 901q0 -115 54 -174t153 -59q57 0 119.5 35.5t113.5 115.5q-18 172 -83.5 250t-162.5 78q-80 0 -137 -63.5t-57 -182.5z" />
<glyph unicode=":" horiz-adv-x="563" d="M129 135q0 70 45 115t109 45q66 0 108.5 -45t42.5 -115t-42.5 -115t-108.5 -45q-63 0 -108.5 45.5t-45.5 114.5zM129 835q0 70 45 115t109 45q66 0 108.5 -45t42.5 -115t-42.5 -115t-108.5 -45q-63 0 -108.5 45.5t-45.5 114.5z" />
<glyph unicode=";" horiz-adv-x="563" d="M96 -244q100 39 154.5 105.5t52.5 142.5h-9h-9q-59 0 -105.5 38t-46.5 108q0 66 47 105.5t111 39.5q84 0 130 -63.5t46 -178.5q0 -150 -84 -261.5t-236 -164.5zM129 835q0 70 45 115t109 45q66 0 108.5 -45t42.5 -115t-42.5 -115t-108.5 -45q-63 0 -108.5 45.5 t-45.5 114.5z" />
<glyph unicode="&#x3c;" d="M70 594v172l911 354v-198l-395 -140l-277 -98v-8l277 -98l395 -140v-198z" />
<glyph unicode="=" d="M70 361v172h911v-172h-911zM70 819v172h911v-172h-911z" />
<glyph unicode="&#x3e;" d="M70 240v198l395 140l276 98v8l-276 98l-395 140v198l911 -354v-172z" />
<glyph unicode="?" horiz-adv-x="909" d="M82 1219q68 78 162 128t209 50q160 0 263 -86t103 -254q0 -78 -31.5 -139.5t-77.5 -114.5t-91.5 -106.5t-72 -115t-18.5 -141.5h-206q-12 90 10 160t64 127t87 108.5t76 100.5t31 104q0 74 -44 119t-122 45q-63 0 -114.5 -28.5t-96.5 -77.5zM274 135q0 70 44 115t108 45 q66 0 110 -45t44 -115t-44 -115t-110 -45q-63 0 -107.5 45.5t-44.5 114.5z" />
<glyph unicode="@" horiz-adv-x="1792" d="M102 418q0 211 71 382t193.5 294t283.5 188.5t341 65.5q215 0 372 -89.5t243 -248t86 -367.5q0 -137 -40 -240.5t-104.5 -173t-141.5 -104.5t-153 -35q-88 0 -149.5 40t-75.5 116h-4q-45 -61 -113.5 -100.5t-134.5 -39.5q-113 0 -185.5 80t-72.5 220q0 88 30 174 t83 157.5t128 114.5t163 43q106 0 159 -100h4l27 84h150l-88 -433q-51 -207 102 -206q63 0 122.5 48t98.5 136t39 211q0 156 -60.5 284t-184.5 204.5t-318 76.5q-135 0 -261 -54t-226.5 -156.5t-160 -245t-59.5 -318.5q0 -201 82 -338t219.5 -205.5t302.5 -68.5 q86 0 170 23.5t152 60.5l55 -131q-180 -103 -395 -103q-152 0 -287 47t-239.5 142.5t-164 236.5t-59.5 328zM700 420q0 -82 34 -121t91 -39q37 0 77 24.5t85 82.5l53 301q-45 72 -112 71q-70 0 -121 -51t-79 -125t-28 -143z" />
<glyph unicode="A" horiz-adv-x="1142" d="M-4 0l436 1339h279l436 -1339h-250l-104 362h-451l-104 -362h-242zM397 549h342l-47 164q-33 106 -62.5 218.5t-58.5 223.5h-8q-27 -113 -56.5 -224.5t-62.5 -217.5z" />
<glyph unicode="B" horiz-adv-x="1222" d="M170 0v1339h428q139 0 246.5 -30.5t170 -103t62.5 -195.5q0 -94 -49 -177t-137 -114v-8q111 -25 183.5 -104t72.5 -214q0 -133 -66.5 -221t-183.5 -130t-264 -42h-463zM408 184h200q147 0 227 54.5t80 167.5q0 106 -77.5 154t-229.5 48h-200v-424zM408 786h170 q139 0 202.5 51.5t63.5 137.5q0 98 -65.5 139t-196.5 41h-174v-369z" />
<glyph unicode="C" horiz-adv-x="1179" d="M100 666q0 219 83 375.5t222.5 239.5t307.5 83q127 0 225 -51t162 -119l-127 -154q-51 53 -113.5 85t-140.5 32q-109 0 -194 -58.5t-133 -167t-48 -259.5q0 -229 100.5 -359.5t268.5 -130.5q90 0 159.5 38t126.5 99l127 -149q-82 -94 -187 -144.5t-234 -50.5 q-168 0 -305.5 80t-218.5 234.5t-81 376.5z" />
<glyph unicode="D" horiz-adv-x="1280" d="M170 0v1339h358q307 0 479.5 -165.5t172.5 -497.5q0 -334 -170 -505t-469 -171h-371zM408 193h104q203 0 313.5 117.5t110.5 365.5q0 246 -110.5 358.5t-313.5 112.5h-104v-954z" />
<glyph unicode="E" horiz-adv-x="1101" d="M170 0v1339h807v-200h-569v-342h481v-201h-481v-395h589v-201h-827z" />
<glyph unicode="F" horiz-adv-x="1044" d="M170 0v1339h809v-200h-571v-379h487v-201h-487v-559h-238z" />
<glyph unicode="G" horiz-adv-x="1286" d="M100 666q0 219 84 375.5t227.5 239.5t321.5 83q143 0 242.5 -52t163.5 -118l-127 -154q-51 49 -113.5 83t-157.5 34q-178 0 -287.5 -130t-109.5 -355q0 -229 104.5 -359.5t305.5 -130.5q57 0 108 15.5t84 44.5v288h-254v195h467v-590q-68 -68 -179.5 -114t-248.5 -46 q-180 0 -323.5 80t-225.5 234.5t-82 376.5z" />
<glyph unicode="H" horiz-adv-x="1357" d="M170 0v1339h238v-538h542v538h238v-1339h-238v594h-542v-594h-238z" />
<glyph unicode="I" horiz-adv-x="577" d="M170 0v1339h238v-1339h-238z" />
<glyph unicode="J" horiz-adv-x="1011" d="M49 203l164 121q41 -74 94 -108t115 -34q94 0 141 57.5t47 200.5v899h238v-919q0 -121 -41 -222.5t-129 -162t-229 -60.5q-139 0 -237.5 57.5t-162.5 170.5z" />
<glyph unicode="K" horiz-adv-x="1222" d="M170 0v1339h238v-608h6l477 608h264l-412 -522l482 -817h-262l-363 631l-192 -240v-391h-238z" />
<glyph unicode="L" horiz-adv-x="1028" d="M170 0v1339h238v-1138h557v-201h-795z" />
<glyph unicode="M" horiz-adv-x="1525" d="M170 0v1339h268l238 -655q23 -63 44 -130t42 -132h8q23 66 43.5 132.5t40.5 129.5l231 655h271v-1339h-219v612q0 63 5 138t12 151t13 137h-8l-108 -311l-220 -602h-141l-221 602l-107 311h-8q6 -61 13.5 -137t12.5 -150.5t5 -138.5v-612h-215z" />
<glyph unicode="N" horiz-adv-x="1343" d="M170 0v1339h244l417 -753l138 -285h8q-8 102 -19.5 223t-11.5 234v581h228v-1339h-244l-418 754l-137 284h-8q8 -106 19 -223t11 -229v-586h-227z" />
<glyph unicode="O" horiz-adv-x="1380" d="M100 676q0 217 75 370.5t208 235.5t307 82q176 0 309.5 -82t208 -235.5t74.5 -370.5t-74.5 -374t-208 -242t-309.5 -85q-174 0 -307 85t-208 242t-75 374zM344 676q0 -225 94 -359.5t252 -134.5t252 134.5t94 359.5t-94 353t-252 128t-252 -128t-94 -353z" />
<glyph unicode="P" horiz-adv-x="1191" d="M170 0v1339h422q150 0 266.5 -38.5t184 -129t67.5 -245.5q0 -147 -67.5 -243.5t-182.5 -143.5t-260 -47h-192v-492h-238zM408 682h174q295 0 295 244q0 127 -77 175t-227 48h-165v-467z" />
<glyph unicode="Q" horiz-adv-x="1380" d="M100 676q0 217 75 370.5t208 235.5t307 82q176 0 309.5 -82t208 -235.5t74.5 -370.5q0 -279 -123 -458t-328 -226q47 -80 131.5 -117t180.5 -37q45 0 81 6t64 15l43 -176q-33 -14 -89 -26.5t-126 -12.5q-199 0 -335 96t-201 246q-143 27 -252 115.5t-168.5 235 t-59.5 339.5zM344 676q0 -236 94 -371t252 -135t252 135t94 371q0 225 -94 353t-252 128t-252 -128t-94 -353z" />
<glyph unicode="R" horiz-adv-x="1212" d="M170 0v1339h453q139 0 250.5 -36.5t176 -123.5t64.5 -237q0 -154 -72.5 -248t-193.5 -135l319 -559h-266l-289 524h-204v-524h-238zM408 713h190q137 0 210 58t73 171q0 115 -73 161t-210 46h-190v-436z" />
<glyph unicode="S" horiz-adv-x="1116" d="M78 172l139 162q72 -68 164 -110t184 -42q115 0 174.5 47t59.5 125q0 84 -58.5 121t-148.5 76l-184 80q-66 29 -128.5 74t-102.5 114.5t-40 167.5q0 106 58.5 191.5t160 135.5t232.5 50q117 0 225.5 -46t185.5 -124l-120 -152q-63 53 -134 84t-157 31q-94 0 -152.5 -42 t-58.5 -116q0 -51 29.5 -84.5t79 -57t104.5 -46.5l182 -76q119 -51 194.5 -134t75.5 -228q0 -109 -57 -199t-164.5 -144.5t-259.5 -54.5q-135 0 -261 51.5t-222 145.5z" />
<glyph unicode="T" horiz-adv-x="1118" d="M53 1139v200h1012v-200h-387v-1139h-238v1139h-387z" />
<glyph unicode="U" horiz-adv-x="1341" d="M164 588v751h237v-770q0 -145 34 -230t95.5 -121t141.5 -36q82 0 144.5 36t98 121t35.5 230v770h228v-751q0 -219 -61.5 -354.5t-175 -197t-269.5 -61.5q-154 0 -268.5 61.5t-177 197t-62.5 354.5z" />
<glyph unicode="V" horiz-adv-x="1097" d="M-8 1339h252l188 -673q33 -113 59.5 -217.5t59.5 -219.5h8q35 115 60.5 219.5t56.5 217.5l186 673h244l-416 -1339h-280z" />
<glyph unicode="W" horiz-adv-x="1638" d="M37 1339h244l116 -675q16 -106 34 -214t32 -214h8q23 106 44.5 213.5t43.5 214.5l164 675h207l164 -675q23 -104 45 -212t45 -216h8q16 109 32.5 215t30.5 213l117 675h227l-256 -1339h-294l-166 705q-16 78 -31.5 155.5t-28.5 153.5h-8q-14 -76 -29.5 -154t-31.5 -155 l-162 -705h-289z" />
<glyph unicode="X" horiz-adv-x="1107" d="M27 0l381 690l-357 649h264l148 -297q25 -45 48.5 -95t53.5 -109h8q25 59 46.5 109t44.5 95l141 297h252l-357 -659l381 -680h-264l-164 315q-27 53 -52.5 105.5t-55.5 114.5h-8q-27 -61 -50.5 -113.5t-48.5 -106.5l-159 -315h-252z" />
<glyph unicode="Y" horiz-adv-x="1026" d="M-8 1339h254l145 -342q29 -76 57.5 -146.5t61.5 -148.5h8q33 78 63.5 149t59.5 146l145 342h248l-403 -841v-498h-238v498z" />
<glyph unicode="Z" horiz-adv-x="1105" d="M82 0v143l647 996h-588v200h883v-143l-649 -995h653v-201h-946z" />
<glyph unicode="[" horiz-adv-x="663" d="M184 -311v1761h402v-129h-224v-1503h224v-129h-402z" />
<glyph unicode="\" horiz-adv-x="704" d="M43 1454h160l479 -1782h-160z" />
<glyph unicode="]" horiz-adv-x="663" d="M78 -182h223v1503h-223v129h401v-1761h-401v129z" />
<glyph unicode="^" d="M113 571l313 801h197l315 -801h-199l-112 310l-99 276h-8l-96 -276l-113 -310h-198z" />
<glyph unicode="_" horiz-adv-x="1024" d="M25 -131h974v-141h-974v141z" />
<glyph unicode="`" horiz-adv-x="1124" d="M217 1491l164 156l301 -357l-117 -116z" />
<glyph unicode="a" horiz-adv-x="1056" d="M96 270q0 162 141.5 251t450.5 122q-2 80 -42 138.5t-142 58.5q-74 0 -144.5 -29t-138.5 -70l-86 158q84 53 189.5 92t224.5 39q188 0 281.5 -111.5t93.5 -322.5v-596h-195l-16 111h-8q-68 -57 -145 -96.5t-167 -39.5q-131 0 -214 82t-83 213zM324 289q0 -68 41 -98.5 t104 -30.5q61 0 111.5 29.5t107.5 80.5v226q-205 -27 -284.5 -79t-79.5 -128z" />
<glyph unicode="b" horiz-adv-x="1153" d="M150 0v1446h235v-373l-6 -168q63 55 139 90t152 35q188 0 292.5 -139t104.5 -371q0 -172 -61.5 -294t-158.5 -186.5t-210 -64.5q-143 0 -275 131h-6l-20 -106h-186zM385 254q53 -45 105.5 -64.5t97.5 -19.5q100 0 167.5 88t67.5 258q0 152 -51 236t-166 84 q-106 0 -221 -113v-469z" />
<glyph unicode="c" horiz-adv-x="946" d="M84 502q0 168 69.5 285.5t185.5 180t249 62.5q96 0 167.5 -32.5t127.5 -79.5l-115 -154q-39 35 -80 54.5t-88 19.5q-121 0 -197.5 -92.5t-76.5 -243.5q0 -150 74.5 -242t193.5 -92q59 0 111.5 25.5t95.5 60.5l96 -156q-70 -61 -156 -92t-172 -31q-137 0 -246.5 62.5 t-174 180.5t-64.5 284z" />
<glyph unicode="d" horiz-adv-x="1155" d="M88 502q0 164 60.5 282.5t159 182t206.5 63.5q86 0 146.5 -29.5t117.5 -80.5l-8 161v365h236v-1446h-195l-16 109h-9q-55 -55 -128.5 -94.5t-155.5 -39.5q-188 0 -301 139.5t-113 387.5zM332 504q0 -162 59 -248t168 -86q113 0 211 113v469q-51 47 -102.5 65.5 t-102.5 18.5q-96 0 -164.5 -87t-68.5 -245z" />
<glyph unicode="e" horiz-adv-x="1038" d="M84 502q0 164 66.5 282.5t173 182t223.5 63.5q137 0 229 -60.5t139.5 -168t47.5 -248.5q0 -74 -11 -115h-639q16 -133 96 -206.5t201 -73.5q66 0 122 19.5t112 53.5l80 -147q-72 -47 -160 -78t-184 -31q-139 0 -252 62.5t-178.5 180.5t-65.5 284zM311 598h447 q0 117 -51.5 183.5t-153.5 66.5q-88 0 -157 -64.5t-85 -185.5z" />
<glyph unicode="f" horiz-adv-x="649" d="M55 819v176l135 11v104q0 158 78 259t256 101q53 0 102.5 -10t82.5 -24l-45 -176q-53 24 -107 24h-4q-127 0 -127 -170v-108h197v-187h-197v-819h-236v819h-135z" />
<glyph unicode="g" horiz-adv-x="1064" d="M82 -182q0 125 143 215v8q-39 25 -64.5 65.5t-25.5 102.5q0 59 34 107.5t77 78.5v8q-51 39 -91 109t-40 158q0 117 55 196.5t146.5 121.5t195.5 42q41 0 79 -7t68 -17h361v-175h-184q25 -29 41 -72.5t16 -96.5q0 -111 -51 -188t-137.5 -116t-192.5 -39q-33 0 -67.5 6.5 t-69.5 20.5q-23 -20 -36 -40.5t-13 -55.5q0 -43 35.5 -67.5t127.5 -24.5h179q182 0 275 -58.5t93 -189.5q0 -98 -65.5 -179t-186 -128t-284.5 -47q-119 0 -214.5 28.5t-149.5 87t-54 146.5zM348.5 -253q69.5 -38 188.5 -38q121 0 196.5 49t75.5 113q0 59 -46 79.5t-132 20.5 h-137q-82 0 -138 15q-77 -58 -77 -131q0 -70 69.5 -108zM336 670q0 -96 51 -149.5t125 -53.5q72 0 123 53t51 150q0 94 -50 146t-124 52t-125 -51t-51 -147z" />
<glyph unicode="h" horiz-adv-x="1142" d="M150 0v1446h235v-373l-8 -194q63 59 141 105t180 46q162 0 236 -104.5t74 -294.5v-631h-236v600q0 125 -37 176t-121 51q-66 0 -115.5 -31.5t-113.5 -93.5v-702h-235z" />
<glyph unicode="i" horiz-adv-x="536" d="M127 1317q0 59 39 96t102 37t102 -37t39 -96q0 -61 -39 -98t-102 -37t-102 36.5t-39 98.5zM150 0v1006h235v-1006h-235z" />
<glyph unicode="j" horiz-adv-x="538" d="M-94 -395l45 176q20 -6 41.5 -11.5t44.5 -5.5q68 0 91.5 46.5t23.5 134.5v1061h237v-1057q0 -106 -30.5 -190.5t-100 -132.5t-188.5 -48q-55 0 -95.5 8t-68.5 19zM129 1317q0 59 39 96t102 37t102 -37t39 -96q0 -61 -39 -98t-102 -37t-102 36.5t-39 98.5z" />
<glyph unicode="k" horiz-adv-x="1069" d="M150 0v1446h231v-903h6l373 463h258l-344 -410l379 -596h-256l-258 436l-158 -180v-256h-231z" />
<glyph unicode="l" horiz-adv-x="555" d="M150 258v1188h235v-1200q0 -43 16.5 -60.5t34.5 -17.5q8 0 15.5 1t21.5 3l31 -176q-20 -8 -52 -14.5t-73 -6.5q-125 0 -177 76t-52 207z" />
<glyph unicode="m" horiz-adv-x="1726" d="M150 0v1006h194l16 -138h9q63 68 138 115t169 47q111 0 177.5 -48t100.5 -132q72 78 151 129t173 51q160 0 235.5 -104.5t75.5 -294.5v-631h-237v600q0 125 -38 176t-116 51q-94 0 -211 -125v-702h-235v600q0 125 -38 176t-118 51q-94 0 -211 -125v-702h-235z" />
<glyph unicode="n" horiz-adv-x="1146" d="M150 0v1006h194l16 -136h9q68 66 147.5 113t181.5 47q162 0 236 -104.5t74 -294.5v-631h-236v600q0 125 -37 176t-121 51q-66 0 -115.5 -31.5t-113.5 -93.5v-702h-235z" />
<glyph unicode="o" horiz-adv-x="1124" d="M84 502q0 168 67.5 285.5t176 180t233.5 62.5q127 0 235.5 -62.5t176 -180t67.5 -285.5q0 -166 -67.5 -284t-176 -180.5t-235.5 -62.5q-125 0 -233.5 62.5t-176 180.5t-67.5 284zM326 502q0 -150 62 -242t173 -92t174.5 92t63.5 242q0 152 -63.5 244t-174.5 92 t-173 -92.5t-62 -243.5z" />
<glyph unicode="p" horiz-adv-x="1155" d="M150 -397v1403h194l16 -107h9q63 53 142 92t161 39q188 0 291.5 -139t103.5 -373q0 -172 -61.5 -294t-158.5 -185.5t-210 -63.5q-66 0 -131.5 30t-126.5 81l6 -168v-315h-235zM385 254q55 -45 106.5 -64.5t96.5 -19.5q100 0 167.5 88t67.5 258q0 152 -51 236t-166 84 q-106 0 -221 -113v-469z" />
<glyph unicode="q" horiz-adv-x="1155" d="M88 502q0 164 60.5 282.5t159 182t206.5 63.5q84 0 149.5 -29.5t129.5 -91.5h6l20 97h187v-1403h-236v329l8 168q-55 -53 -126.5 -89t-149.5 -36q-188 0 -301 139.5t-113 387.5zM332 504q0 -162 59 -248t168 -86q113 0 211 113v469q-51 47 -102.5 65.5t-102.5 18.5 q-96 0 -164.5 -87t-68.5 -245z" />
<glyph unicode="r" horiz-adv-x="763" d="M150 0v1006h194l16 -179h9q53 98 128.5 150.5t155.5 52.5q72 0 115 -20l-41 -205q-27 8 -49.5 12t-54.5 4q-59 0 -125 -46t-113 -161v-614h-235z" />
<glyph unicode="s" horiz-adv-x="882" d="M49 115l111 151q68 -51 135 -81.5t143 -30.5q82 0 121 34.5t39 85.5q0 43 -31.5 71t-81 49.5t-102.5 41.5q-66 25 -130.5 60.5t-105.5 92t-41 140.5q0 133 98.5 217t266.5 84q106 0 190 -37t146 -84l-109 -143q-53 39 -107 62.5t-114 23.5q-76 0 -112.5 -32t-36.5 -79 q0 -59 61.5 -89.5t142.5 -59.5q70 -25 135.5 -60.5t109.5 -93t44 -151.5q0 -129 -100.5 -220.5t-290.5 -91.5q-102 0 -204.5 40t-176.5 100z" />
<glyph unicode="t" horiz-adv-x="739" d="M41 819v176l156 11l28 274h197v-274h256v-187h-256v-479q0 -176 141 -176q27 0 55.5 7t49.5 15l41 -174q-41 -14 -93.5 -25.5t-111.5 -11.5q-174 0 -247 101.5t-73 263.5v479h-143z" />
<glyph unicode="u" horiz-adv-x="1138" d="M139 375v631h236v-600q0 -125 37 -176.5t118 -51.5q66 0 116 33t108 106v689h235v-1006h-192l-19 147h-6q-66 -78 -143.5 -125t-179.5 -47q-162 0 -236 104.5t-74 295.5z" />
<glyph unicode="v" horiz-adv-x="1013" d="M25 1006h239l160 -523q20 -74 41.5 -149.5t42.5 -153.5h8q23 78 44.5 154t41.5 149l160 523h227l-342 -1006h-272z" />
<glyph unicode="w" horiz-adv-x="1531" d="M49 1006h238l121 -523q16 -72 27 -143.5t26 -144.5h8q14 74 29.5 146.5t33.5 141.5l132 523h215l133 -523q18 -72 34.5 -143.5t32.5 -144.5h8q14 74 26.5 145.5t27.5 142.5l121 523h221l-256 -1006h-281l-117 469q-16 72 -30.5 142.5t-30.5 150.5h-8 q-14 -80 -28.5 -151.5t-31.5 -143.5l-114 -467h-271z" />
<glyph unicode="x" horiz-adv-x="985" d="M29 0l319 524l-299 482h254l113 -191q23 -41 46 -85t46 -85h8q18 41 38.5 85t39.5 85l96 191h244l-297 -508l319 -498h-254l-122 199q-25 45 -50.5 90t-52.5 88h-8q-20 -43 -43 -87t-45 -91l-107 -199h-245z" />
<glyph unicode="y" horiz-adv-x="1013" d="M25 1006h239l174 -494q23 -66 44.5 -138.5t43.5 -144.5h9q18 70 37.5 142.5t37.5 140.5l152 494h227l-364 -1051q-63 -170 -153.5 -269.5t-254.5 -99.5q-41 0 -71.5 6.5t-59.5 14.5l43 184q14 -4 33.5 -9t38.5 -5q80 0 128 48t72 124l19 63z" />
<glyph unicode="z" horiz-adv-x="907" d="M70 0v127l475 692h-422v187h717v-125l-473 -693h489v-188h-786z" />
<glyph unicode="{" horiz-adv-x="663" d="M66 498v143q102 2 139 50t37 104q0 102 -9.5 182t-9.5 190q0 164 61.5 223.5t190.5 59.5h111v-129h-47q-74 0 -99.5 -36t-25.5 -128q0 -88 5 -171t5 -181q0 -109 -33 -161t-104 -71v-8q72 -18 104.5 -70.5t32.5 -160.5q0 -98 -5 -181t-5 -171q0 -92 25.5 -128t99.5 -36 h47v-129h-111q-129 0 -190.5 60.5t-61.5 221.5q0 111 9.5 191t9.5 180q0 57 -37 105.5t-139 50.5z" />
<glyph unicode="|" horiz-adv-x="522" d="M182 -512v2048h158v-2048h-158z" />
<glyph unicode="}" horiz-adv-x="663" d="M78 -182h47q74 0 99.5 35.5t25.5 128.5q0 88 -5 171t-5 181q0 109 32.5 161t104.5 70v8q-72 18 -104.5 70.5t-32.5 161.5q0 98 5 181t5 171q0 92 -25.5 128t-99.5 36h-47v129h110q129 0 190.5 -59.5t61.5 -223.5q0 -111 -9 -190.5t-9 -181.5q0 -55 37 -103.5t139 -50.5 v-143q-102 -2 -139 -50.5t-37 -105.5q0 -100 9 -180t9 -191q0 -162 -61.5 -222t-190.5 -60h-110v129z" />
<glyph unicode="~" d="M66 645q66 106 139.5 152.5t142.5 46.5q61 0 109.5 -24.5t89.5 -57.5t79 -57.5t81 -24.5q86 0 151 121l125 -96q-63 -104 -136 -150.5t-145 -46.5q-61 0 -109 24.5t-89 57.5t-79 57.5t-81 24.5q-86 0 -151 -121z" />
<glyph unicode="&#xa1;" horiz-adv-x="645" d="M170 872q0 68 45 113t109 45q66 0 108.5 -45t42.5 -113q0 -70 -42.5 -115.5t-108.5 -45.5q-63 0 -108.5 46t-45.5 115zM205 -367l6 234l33 698h157l33 -698l8 -234h-237z" />
<glyph unicode="&#xa2;" d="M125 631q0 143 55.5 248.5t152.5 170t218 83.5v206h135v-200q84 -4 150.5 -37t111.5 -80l-110 -145q-72 63 -152 71v-631q53 4 98 29t82 55l99 -149q-59 -53 -132 -85t-147 -42v-201h-135v203q-193 25 -309.5 155t-116.5 349zM354 631q0 -113 51.5 -192t145.5 -107v600 q-94 -31 -145.5 -108.5t-51.5 -192.5z" />
<glyph unicode="&#xa3;" d="M104 0v145q98 49 158 138.5t60 201.5q0 23 -2.5 43.5t-6.5 40.5h-204v142l137 10h24q-16 53 -29.5 105.5t-13.5 103.5q0 184 115 290.5t295 106.5q113 0 193.5 -43t142.5 -117l-131 -129q-39 45 -82 71t-103 26q-94 0 -148 -57.5t-54 -159.5q0 -51 10 -99.5t24 -97.5h316 v-152h-281q6 -39 6 -86q0 -90 -26.5 -152.5t-81.5 -121.5v-8h553v-201h-871z" />
<glyph unicode="&#xa4;" d="M47 313l127 129q-33 47 -52.5 105.5t-19.5 126.5q0 70 19.5 128t52.5 105l-127 129l121 123l139 -143q98 63 217 63t217 -63l142 143l121 -123l-130 -129q35 -47 53.5 -105.5t18.5 -127.5q0 -68 -18.5 -126.5t-53.5 -105.5l130 -129l-121 -123l-142 144 q-47 -33 -103 -48.5t-114 -15.5q-57 0 -112.5 15.5t-102.5 48.5l-141 -144zM315 674q0 -106 61.5 -171t147.5 -65q88 0 148.5 64.5t60.5 171.5q0 109 -60.5 173t-148.5 64q-86 0 -147.5 -64.5t-61.5 -172.5z" />
<glyph unicode="&#xa5;" d="M37 1303h244l131 -310q29 -68 55.5 -135t56.5 -137h8q29 70 57.5 137.5t55.5 134.5l131 310h238l-318 -627h271v-121h-324v-121h324v-123h-324v-311h-237v311h-322v123h322v121h-322v121h268z" />
<glyph unicode="&#xa6;" horiz-adv-x="522" d="M182 428h158v-940h-158v940zM182 618v918h158v-918h-158z" />
<glyph unicode="&#xa7;" d="M84 684q0 84 47 151.5t123 112.5q-29 33 -45 75t-16 93q0 123 87 207t248 84q109 0 196 -39t148 -86l-110 -149q-47 41 -103.5 68.5t-117.5 27.5q-70 0 -102.5 -29t-32.5 -74t40.5 -78.5t104 -62.5t135.5 -60.5t135.5 -76.5t104.5 -108.5t41 -157.5t-45 -158t-125 -111 q25 -33 39 -72.5t14 -90.5q0 -129 -96.5 -215.5t-266.5 -86.5q-111 0 -211 41t-165 119l139 123q51 -51 109.5 -78.5t127.5 -27.5q72 0 110 32.5t38 81.5t-40 83t-102.5 61.5t-133 58.5t-133 75t-102.5 108.5t-40 158.5zM287 700q0 -57 35.5 -96t94 -68.5t125 -57 t128.5 -62.5q47 25 70.5 59.5t23.5 87.5q0 57 -36 97t-93 70t-124 58.5t-128 61.5q-45 -27 -70.5 -63t-25.5 -87z" />
<glyph unicode="&#xa8;" horiz-adv-x="1124" d="M225 1309q0 53 36 89t89 36q55 0 90 -36t35 -89q0 -51 -35 -88t-90 -37q-53 0 -89 36.5t-36 88.5zM647 1309q0 53 35 89t90 36q53 0 89 -36t36 -89q0 -51 -36 -88t-89 -37q-55 0 -90 36.5t-35 88.5z" />
<glyph unicode="&#xa9;" horiz-adv-x="1529" d="M96 664q0 158 53.5 282.5t146.5 212.5t214 134t256 46t255 -46t213 -134t146.5 -213t53.5 -282q0 -158 -53.5 -284t-146.5 -216t-213 -137t-255 -47t-256 47t-214 137t-146.5 216t-53.5 284zM215 664q0 -172 73.5 -302.5t198.5 -203t279 -72.5t277.5 72.5t197.5 203 t74 302.5q0 174 -74 302t-197.5 198.5t-277.5 70.5t-279 -70.5t-198.5 -198.5t-73.5 -302zM401 662q0 121 54.5 207.5t143.5 135t189 48.5q90 0 153 -35t112 -84l-92 -103q-39 37 -76 56.5t-84 19.5q-104 0 -163.5 -69.5t-59.5 -175.5q0 -119 58 -189t157 -70q59 0 102 24 t84 56l80 -114q-57 -47 -123 -79t-150 -32q-109 0 -196.5 49t-138 139.5t-50.5 215.5z" />
<glyph unicode="&#xaa;" horiz-adv-x="720" d="M68 971q0 109 94 166t301 77q-2 55 -27.5 88t-87.5 33q-47 0 -97 -19.5t-97 -45.5l-62 112q59 35 132 61.5t153 26.5q256 0 256 -288v-394h-137l-17 72h-8q-39 -37 -89.5 -62.5t-109.5 -25.5q-94 0 -149 56.5t-55 142.5zM233 985q1 -82 95 -82q66 0 135 68v143 q-129 -14 -179.5 -48t-50.5 -81z" />
<glyph unicode="&#xab;" horiz-adv-x="931" d="M96 430v172l277 305l94 -76l-236 -315l236 -317l-94 -74zM452 430v172l277 305l94 -76l-236 -315l236 -317l-94 -74z" />
<glyph unicode="&#xac;" d="M70 590v172h911v-559h-178v387h-733z" />
<glyph unicode="&#xae;" horiz-adv-x="907" d="M57 1053q0 121 53.5 213t143.5 144t199 52q111 0 199.5 -52t142 -144t53.5 -213q0 -119 -53.5 -211t-142 -144.5t-199.5 -52.5q-109 0 -199 52.5t-143.5 144.5t-53.5 211zM154 1053q0 -143 85 -231.5t214 -88.5t214 88t85 232q0 145 -85 234t-214 89t-214 -89t-85 -234z M295 854v408h170q68 0 116 -31t48 -103q0 -35 -19.5 -65.5t-56.5 -46.5l90 -162h-108l-68 133h-70v-133h-102zM397 1061h47q76 0 76 61q0 27 -17.5 44.5t-56.5 17.5h-49v-123z" />
<glyph unicode="&#xaf;" horiz-adv-x="1124" d="M274 1221v155h574v-155h-574z" />
<glyph unicode="&#xb0;" horiz-adv-x="712" d="M82 1124q0 84 38 146.5t100.5 97.5t137.5 35q76 0 138.5 -35t100.5 -97.5t38 -146.5q0 -82 -38 -145.5t-100.5 -98t-138.5 -34.5t-138 34.5t-100 98t-38 145.5zM213 1124q0 -70 41 -113.5t104 -43.5q66 0 106 44t40 113q0 72 -40 116t-106 44q-63 0 -104 -44t-41 -116z " />
<glyph unicode="&#xb1;" d="M70 0v170h911v-170h-911zM70 612v170h366v367h178v-367h367v-170h-367v-319h-178v319h-366z" />
<glyph unicode="&#xb2;" horiz-adv-x="761" d="M68 1452q53 76 126.5 117.5t159.5 41.5q127 0 204 -68.5t77 -195.5q0 -106 -74 -201.5t-180 -207.5h289v-150h-572v98q170 145 267.5 248t97.5 184q0 68 -36 107t-99 39q-45 0 -84 -30t-74 -77z" />
<glyph unicode="&#xb3;" horiz-adv-x="761" d="M63 923l111 86q74 -109 186 -108q57 0 97.5 30.5t40.5 87.5q0 59 -56.5 91t-162.5 32v105q88 0 138 32.5t50 90.5q0 47 -33 75.5t-88 28.5q-41 0 -79 -24.5t-68 -63.5l-103 90q59 66 125 100.5t154 34.5q109 0 187.5 -58t78.5 -161q0 -68 -34 -114t-93 -76 q66 -20 112 -69.5t46 -125.5q0 -74 -41 -128t-108.5 -85t-147.5 -31q-100 0 -181 43t-131 117z" />
<glyph unicode="&#xb4;" horiz-adv-x="1124" d="M440 1290l301 357l164 -156l-348 -317z" />
<glyph unicode="&#xb5;" horiz-adv-x="1183" d="M150 -365v1371h235v-600q0 -119 37 -173.5t117 -54.5q59 0 111 33t108 129v666h237q-2 -125 -6 -261.5t-7 -263.5t-3 -229q0 -45 22.5 -64.5t59.5 -19.5q31 0 61 12l31 -176q-27 -12 -61.5 -20.5t-87.5 -8.5q-188 0 -222 181h-8q-45 -86 -107.5 -129t-136.5 -43 q-49 0 -90 13t-69 56q2 -86 3 -152.5t5 -128t10 -137.5h-239z" />
<glyph unicode="&#xb6;" horiz-adv-x="1226" d="M82 893q0 166 67.5 264t183.5 140t257 42h90v-905h-76q-145 0 -264 50.5t-188.5 151.5t-69.5 257zM793 -164v1503h237v-1503h-237z" />
<glyph unicode="&#xb7;" horiz-adv-x="563" d="M129 657q0 70 45 115t109 45q66 0 108.5 -45t42.5 -115t-42.5 -115t-108.5 -45q-63 0 -108.5 45.5t-45.5 114.5z" />
<glyph unicode="&#xb8;" horiz-adv-x="1124" d="M356 -375q125 8 171 29.5t46 66.5q0 35 -33.5 57.5t-124.5 35.5l95 192h143l-59 -133q74 -18 113.5 -52t39.5 -97q0 -96 -97.5 -144.5t-273.5 -56.5z" />
<glyph unicode="&#xb9;" horiz-adv-x="761" d="M168 1390v111q76 12 122 32.5t91 53.5h141v-799h-178v602h-176z" />
<glyph unicode="&#xba;" horiz-adv-x="755" d="M55 1120q0 111 45 188.5t118 119.5t159 42t158.5 -42t117.5 -119.5t45 -188.5q0 -109 -45 -187.5t-117.5 -119.5t-158.5 -41t-159 41t-118 120t-45 187zM229 1120q0 -94 38 -152.5t110 -58.5t109.5 58.5t37.5 152.5q0 96 -37.5 155.5t-109.5 59.5t-110 -59t-38 -156z" />
<glyph unicode="&#xbb;" horiz-adv-x="931" d="M111 199l233 317l-233 315l92 76l278 -305v-172l-278 -305zM467 199l233 317l-233 315l92 76l278 -305v-172l-278 -305z" />
<glyph unicode="&#xbc;" horiz-adv-x="1628" d="M113 1143v111q76 12 122 32.5t91 53.5h141v-799h-178v602h-176zM375 -25l731 1389h143l-729 -1389h-145zM944 195v90l311 514h213v-484h119v-120h-119v-195h-158v195h-366zM1116 315h194v113l11 231h-9l-92 -161z" />
<glyph unicode="&#xbd;" horiz-adv-x="1693" d="M113 1143v111q76 12 122 32.5t91 53.5h141v-799h-178v602h-176zM338 -25l731 1389h143l-729 -1389h-145zM1000 664q53 76 126.5 117.5t159.5 41.5q127 0 204 -68.5t77 -195.5q0 -106 -74 -201.5t-180 -207.5h289v-150h-572v98q170 145 267.5 248t97.5 184q0 68 -36 107 t-99 39q-45 0 -84 -30t-74 -77z" />
<glyph unicode="&#xbe;" horiz-adv-x="1652" d="M59 676l111 86q74 -109 186 -108q57 0 97.5 30.5t40.5 87.5q0 59 -56.5 91t-162.5 32v105q88 0 138 32.5t50 90.5q0 47 -33 75.5t-88 28.5q-41 0 -79 -24.5t-68 -63.5l-103 90q59 66 125 100.5t154 34.5q109 0 187.5 -58t78.5 -161q0 -68 -34 -114t-93 -76 q66 -20 112 -69.5t46 -125.5q0 -74 -41 -128t-108.5 -85t-147.5 -31q-100 0 -181 43t-131 117zM436 -25l731 1389h143l-729 -1389h-145zM969 195v90l311 514h213v-484h119v-120h-119v-195h-158v195h-366zM1141 315h194v113l11 231h-9l-92 -161z" />
<glyph unicode="&#xbf;" horiz-adv-x="909" d="M92 -51q0 78 32 139.5t78 114.5t90 106t70.5 114.5t18.5 141.5h209q12 -90 -11.5 -159.5t-65.5 -127t-87 -108.5t-76 -100.5t-31 -104.5q0 -72 44.5 -118t123.5 -46q61 0 112.5 30t96.5 77l133 -121q-70 -76 -162.5 -127t-207.5 -51q-162 0 -264.5 86t-102.5 254z M332 872q0 68 44 113t107 45q66 0 109 -45t43 -113q0 -70 -43 -115.5t-109 -45.5q-63 0 -107 46t-44 115z" />
<glyph unicode="&#xc0;" horiz-adv-x="1142" d="M-4 0l436 1339h279l436 -1339h-250l-104 362h-451l-104 -362h-242zM254 1649l127 155l321 -276l-104 -119zM397 549h342l-47 164q-33 106 -62.5 218.5t-58.5 223.5h-8q-27 -113 -56.5 -224.5t-62.5 -217.5z" />
<glyph unicode="&#xc1;" horiz-adv-x="1142" d="M-4 0l436 1339h279l436 -1339h-250l-104 362h-451l-104 -362h-242zM397 549h342l-47 164q-33 106 -62.5 218.5t-58.5 223.5h-8q-27 -113 -56.5 -224.5t-62.5 -217.5zM436 1528l321 276l127 -155l-344 -240z" />
<glyph unicode="&#xc2;" horiz-adv-x="1142" d="M-4 0l436 1339h279l436 -1339h-250l-104 362h-451l-104 -362h-242zM243 1485l199 227h254l199 -227l-103 -68l-219 180h-8l-219 -180zM397 549h342l-47 164q-33 106 -62.5 218.5t-58.5 223.5h-8q-27 -113 -56.5 -224.5t-62.5 -217.5z" />
<glyph unicode="&#xc3;" horiz-adv-x="1142" d="M-4 0l436 1339h279l436 -1339h-250l-104 362h-451l-104 -362h-242zM184 1460q8 137 71.5 205t163.5 68q55 0 97.5 -19.5t75 -46.5t61.5 -46t59 -19q72 0 86 118l156 -12q-8 -137 -71.5 -205.5t-163.5 -68.5q-55 0 -97.5 19.5t-75 46t-61.5 46t-59 19.5q-33 0 -56.5 -28 t-29.5 -89zM397 549h342l-47 164q-33 106 -62.5 218.5t-58.5 223.5h-8q-27 -113 -56.5 -224.5t-62.5 -217.5z" />
<glyph unicode="&#xc4;" horiz-adv-x="1142" d="M-4 0l436 1339h279l436 -1339h-250l-104 362h-451l-104 -362h-242zM229 1571q0 53 34 88t87 35t88 -35t35 -88q0 -51 -35 -86t-88 -35t-87 35t-34 86zM397 549h342l-47 164q-33 106 -62.5 218.5t-58.5 223.5h-8q-27 -113 -56.5 -224.5t-62.5 -217.5zM665 1571q0 53 35 88 t88 35t87 -35t34 -88q0 -51 -34 -86t-87 -35t-88 35t-35 86z" />
<glyph unicode="&#xc5;" horiz-adv-x="1142" d="M-4 0l436 1339h279l436 -1339h-250l-104 362h-451l-104 -362h-242zM352 1622q0 90 61.5 142.5t155.5 52.5t155.5 -52.5t61.5 -142.5q0 -88 -61.5 -140t-155.5 -52t-155.5 52t-61.5 140zM397 549h342l-47 164q-33 106 -62.5 218.5t-58.5 223.5h-8q-27 -113 -56.5 -224.5 t-62.5 -217.5zM473 1622q0 -45 28.5 -71.5t67.5 -26.5t66.5 26.5t27.5 71.5q0 47 -27.5 73.5t-66.5 26.5t-67.5 -26.5t-28.5 -73.5z" />
<glyph unicode="&#xc6;" horiz-adv-x="1708" d="M-6 0l670 1339h919v-200h-539v-342h453v-201h-453v-395h560v-201h-797v348h-393l-170 -348h-250zM504 535h303v622h-8q-49 -102 -96.5 -205.5t-94.5 -201.5z" />
<glyph unicode="&#xc7;" horiz-adv-x="1179" d="M100 666q0 219 83 375.5t222.5 239.5t307.5 83q127 0 225 -51t162 -119l-127 -154q-51 53 -113.5 85t-140.5 32q-109 0 -194 -58.5t-133 -167t-48 -259.5q0 -229 100.5 -359.5t268.5 -130.5q90 0 159.5 38t126.5 99l127 -149q-82 -94 -187 -144.5t-234 -50.5 q-168 0 -305.5 80t-218.5 234.5t-81 376.5zM496 -375q125 8 171 29.5t46 66.5q0 35 -33.5 57.5t-124.5 35.5l95 192h143l-59 -133q74 -18 113.5 -52t39.5 -97q0 -96 -97.5 -144.5t-273.5 -56.5z" />
<glyph unicode="&#xc8;" horiz-adv-x="1101" d="M170 0v1339h807v-200h-569v-342h481v-201h-481v-395h589v-201h-827zM279 1649l127 155l321 -276l-104 -119z" />
<glyph unicode="&#xc9;" horiz-adv-x="1101" d="M170 0v1339h807v-200h-569v-342h481v-201h-481v-395h589v-201h-827zM461 1528l321 276l127 -155l-344 -240z" />
<glyph unicode="&#xca;" horiz-adv-x="1101" d="M170 0v1339h807v-200h-569v-342h481v-201h-481v-395h589v-201h-827zM268 1485l199 227h254l199 -227l-103 -68l-219 180h-8l-219 -180z" />
<glyph unicode="&#xcb;" horiz-adv-x="1101" d="M170 0v1339h807v-200h-569v-342h481v-201h-481v-395h589v-201h-827zM254 1571q0 53 34 88t87 35t88 -35t35 -88q0 -51 -35 -86t-88 -35t-87 35t-34 86zM690 1571q0 53 35 88t88 35t87 -35t34 -88q0 -51 -34 -86t-87 -35t-88 35t-35 86z" />
<glyph unicode="&#xcc;" horiz-adv-x="577" d="M-24 1649l127 155l321 -276l-104 -119zM170 0v1339h238v-1339h-238z" />
<glyph unicode="&#xcd;" horiz-adv-x="577" d="M158 1528l321 276l127 -155l-344 -240zM170 0v1339h238v-1339h-238z" />
<glyph unicode="&#xce;" horiz-adv-x="577" d="M-35 1485l199 227h254l199 -227l-103 -68l-219 180h-8l-219 -180zM170 0v1339h238v-1339h-238z" />
<glyph unicode="&#xcf;" horiz-adv-x="577" d="M-49 1571q0 53 34 88t87 35t88 -35t35 -88q0 -51 -35 -86t-88 -35t-87 35t-34 86zM170 0v1339h238v-1339h-238zM387 1571q0 53 35 88t88 35t87 -35t34 -88q0 -51 -34 -86t-87 -35t-88 35t-35 86z" />
<glyph unicode="&#xd0;" horiz-adv-x="1329" d="M61 637v113l158 8v581h359q307 0 479 -165.5t172 -497.5q0 -334 -170 -505t-469 -171h-371v637h-158zM457 193h104q203 0 313.5 117.5t110.5 365.5q0 246 -110.5 358.5t-313.5 112.5h-104v-389h280v-121h-280v-444z" />
<glyph unicode="&#xd1;" horiz-adv-x="1343" d="M170 0v1339h244l417 -753l138 -285h8q-8 102 -19.5 223t-11.5 234v581h228v-1339h-244l-418 754l-137 284h-8q8 -106 19 -223t11 -229v-586h-227zM303 1460q8 137 71.5 205t163.5 68q55 0 97.5 -19.5t75 -46.5t61.5 -46t59 -19q72 0 86 118l156 -12q-8 -137 -71.5 -205.5 t-163.5 -68.5q-55 0 -97.5 19.5t-75 46t-61.5 46t-59 19.5q-33 0 -56.5 -28t-29.5 -89z" />
<glyph unicode="&#xd2;" horiz-adv-x="1380" d="M100 676q0 217 75 370.5t208 235.5t307 82q176 0 309.5 -82t208 -235.5t74.5 -370.5t-74.5 -374t-208 -242t-309.5 -85q-174 0 -307 85t-208 242t-75 374zM344 676q0 -225 94 -359.5t252 -134.5t252 134.5t94 359.5t-94 353t-252 128t-252 -128t-94 -353zM375 1649 l127 155l321 -276l-104 -119z" />
<glyph unicode="&#xd3;" horiz-adv-x="1380" d="M100 676q0 217 75 370.5t208 235.5t307 82q176 0 309.5 -82t208 -235.5t74.5 -370.5t-74.5 -374t-208 -242t-309.5 -85q-174 0 -307 85t-208 242t-75 374zM344 676q0 -225 94 -359.5t252 -134.5t252 134.5t94 359.5t-94 353t-252 128t-252 -128t-94 -353zM557 1528 l321 276l127 -155l-344 -240z" />
<glyph unicode="&#xd4;" horiz-adv-x="1380" d="M100 676q0 217 75 370.5t208 235.5t307 82q176 0 309.5 -82t208 -235.5t74.5 -370.5t-74.5 -374t-208 -242t-309.5 -85q-174 0 -307 85t-208 242t-75 374zM344 676q0 -225 94 -359.5t252 -134.5t252 134.5t94 359.5t-94 353t-252 128t-252 -128t-94 -353zM364 1485 l199 227h254l199 -227l-103 -68l-219 180h-8l-219 -180z" />
<glyph unicode="&#xd5;" horiz-adv-x="1380" d="M100 676q0 217 75 370.5t208 235.5t307 82q176 0 309.5 -82t208 -235.5t74.5 -370.5t-74.5 -374t-208 -242t-309.5 -85q-174 0 -307 85t-208 242t-75 374zM305 1460q8 137 71.5 205t163.5 68q55 0 97.5 -19.5t75 -46.5t61.5 -46t59 -19q72 0 86 118l156 -12 q-8 -137 -71.5 -205.5t-163.5 -68.5q-55 0 -97.5 19.5t-75 46t-61.5 46t-59 19.5q-33 0 -56.5 -28t-29.5 -89zM344 676q0 -225 94 -359.5t252 -134.5t252 134.5t94 359.5t-94 353t-252 128t-252 -128t-94 -353z" />
<glyph unicode="&#xd6;" horiz-adv-x="1380" d="M100 676q0 217 75 370.5t208 235.5t307 82q176 0 309.5 -82t208 -235.5t74.5 -370.5t-74.5 -374t-208 -242t-309.5 -85q-174 0 -307 85t-208 242t-75 374zM344 676q0 -225 94 -359.5t252 -134.5t252 134.5t94 359.5t-94 353t-252 128t-252 -128t-94 -353zM350 1571 q0 53 34 88t87 35t88 -35t35 -88q0 -51 -35 -86t-88 -35t-87 35t-34 86zM786 1571q0 53 35 88t88 35t87 -35t34 -88q0 -51 -34 -86t-87 -35t-88 35t-35 86z" />
<glyph unicode="&#xd7;" d="M100 367l303 307l-303 309l121 123l303 -311l305 311l121 -123l-305 -309l305 -307l-121 -123l-305 309l-303 -309z" />
<glyph unicode="&#xd8;" horiz-adv-x="1380" d="M92 25l144 182q-63 88 -97.5 206.5t-34.5 262.5q0 217 75 370.5t208 235.5t307 82q211 0 359 -117l131 166l127 -98l-148 -187q59 -86 91 -199.5t32 -252.5q0 -217 -74.5 -374t-208 -242t-309.5 -85q-205 0 -348 115l-129 -164zM348 676q0 -152 45 -268l520 661 q-88 88 -219 88q-158 0 -252 -128t-94 -353zM485 266q84 -84 209 -84q158 0 252 134.5t94 359.5q0 72 -10 133t-29 113z" />
<glyph unicode="&#xd9;" horiz-adv-x="1341" d="M164 588v751h237v-770q0 -145 34 -230t95.5 -121t141.5 -36q82 0 144.5 36t98 121t35.5 230v770h228v-751q0 -219 -61.5 -354.5t-175 -197t-269.5 -61.5q-154 0 -268.5 61.5t-177 197t-62.5 354.5zM355 1649l127 155l321 -276l-104 -119z" />
<glyph unicode="&#xda;" horiz-adv-x="1341" d="M164 588v751h237v-770q0 -145 34 -230t95.5 -121t141.5 -36q82 0 144.5 36t98 121t35.5 230v770h228v-751q0 -219 -61.5 -354.5t-175 -197t-269.5 -61.5q-154 0 -268.5 61.5t-177 197t-62.5 354.5zM537 1528l321 276l127 -155l-344 -240z" />
<glyph unicode="&#xdb;" horiz-adv-x="1341" d="M164 588v751h237v-770q0 -145 34 -230t95.5 -121t141.5 -36q82 0 144.5 36t98 121t35.5 230v770h228v-751q0 -219 -61.5 -354.5t-175 -197t-269.5 -61.5q-154 0 -268.5 61.5t-177 197t-62.5 354.5zM344 1485l199 227h254l199 -227l-103 -68l-219 180h-8l-219 -180z" />
<glyph unicode="&#xdc;" horiz-adv-x="1341" d="M164 588v751h237v-770q0 -145 34 -230t95.5 -121t141.5 -36q82 0 144.5 36t98 121t35.5 230v770h228v-751q0 -219 -61.5 -354.5t-175 -197t-269.5 -61.5q-154 0 -268.5 61.5t-177 197t-62.5 354.5zM330 1571q0 53 34 88t87 35t88 -35t35 -88q0 -51 -35 -86t-88 -35 t-87 35t-34 86zM766 1571q0 53 35 88t88 35t87 -35t34 -88q0 -51 -34 -86t-87 -35t-88 35t-35 86z" />
<glyph unicode="&#xdd;" horiz-adv-x="1026" d="M-8 1339h254l145 -342q29 -76 57.5 -146.5t61.5 -148.5h8q33 78 63.5 149t59.5 146l145 342h248l-403 -841v-498h-238v498zM379 1528l321 276l127 -155l-344 -240z" />
<glyph unicode="&#xde;" horiz-adv-x="1228" d="M170 0v1339h238v-213h213q147 0 261.5 -38.5t181 -129t66.5 -245.5q0 -150 -67.5 -246t-182 -142t-259.5 -46h-213v-279h-238zM408 469h194q295 0 295 244q0 125 -74.5 174t-220.5 49h-194v-467z" />
<glyph unicode="&#xdf;" horiz-adv-x="1236" d="M150 0v1026q0 195 112.5 317.5t331.5 122.5q125 0 208 -45t126 -117.5t43 -156.5q0 -76 -25.5 -129t-60.5 -94t-60.5 -79t-25.5 -85q0 -49 39 -82t96 -60.5t113.5 -66.5t95.5 -99.5t39 -156.5q0 -133 -92.5 -226.5t-262.5 -93.5q-86 0 -157.5 26t-141.5 71l86 161 q104 -80 207 -79q68 0 105 38.5t37 92.5q0 59 -39 96t-95.5 65.5t-113 63.5t-95 87t-38.5 134q0 63 24.5 110.5t56 87.5t56 85t24.5 106q0 70 -37.5 115t-111.5 45q-100 0 -155.5 -75t-55.5 -214v-991h-233z" />
<glyph unicode="&#xe0;" horiz-adv-x="1056" d="M96 270q0 162 141.5 251t450.5 122q-2 80 -42 138.5t-142 58.5q-74 0 -144.5 -29t-138.5 -70l-86 158q84 53 189.5 92t224.5 39q188 0 281.5 -111.5t93.5 -322.5v-596h-195l-16 111h-8q-68 -57 -145 -96.5t-167 -39.5q-131 0 -214 82t-83 213zM213 1491l164 156l301 -357 l-117 -116zM324 289q0 -68 41 -98.5t104 -30.5q61 0 111.5 29.5t107.5 80.5v226q-205 -27 -284.5 -79t-79.5 -128z" />
<glyph unicode="&#xe1;" horiz-adv-x="1056" d="M96 270q0 162 141.5 251t450.5 122q-2 80 -42 138.5t-142 58.5q-74 0 -144.5 -29t-138.5 -70l-86 158q84 53 189.5 92t224.5 39q188 0 281.5 -111.5t93.5 -322.5v-596h-195l-16 111h-8q-68 -57 -145 -96.5t-167 -39.5q-131 0 -214 82t-83 213zM324 289q0 -68 41 -98.5 t104 -30.5q61 0 111.5 29.5t107.5 80.5v226q-205 -27 -284.5 -79t-79.5 -128zM436 1290l301 357l164 -156l-348 -317z" />
<glyph unicode="&#xe2;" horiz-adv-x="1056" d="M96 270q0 162 141.5 251t450.5 122q-2 80 -42 138.5t-142 58.5q-74 0 -144.5 -29t-138.5 -70l-86 158q84 53 189.5 92t224.5 39q188 0 281.5 -111.5t93.5 -322.5v-596h-195l-16 111h-8q-68 -57 -145 -96.5t-167 -39.5q-131 0 -214 82t-83 213zM211 1243l227 277h238 l227 -277l-92 -88l-250 211h-8l-250 -211zM324 289q0 -68 41 -98.5t104 -30.5q61 0 111.5 29.5t107.5 80.5v226q-205 -27 -284.5 -79t-79.5 -128z" />
<glyph unicode="&#xe3;" horiz-adv-x="1056" d="M96 270q0 162 141.5 251t450.5 122q-2 80 -42 138.5t-142 58.5q-74 0 -144.5 -29t-138.5 -70l-86 158q84 53 189.5 92t224.5 39q188 0 281.5 -111.5t93.5 -322.5v-596h-195l-16 111h-8q-68 -57 -145 -96.5t-167 -39.5q-131 0 -214 82t-83 213zM184 1200q4 139 61.5 217 t170.5 78q51 0 90 -22.5t70.5 -53t60.5 -53.5t59 -23q37 0 56.5 37t25.5 101l152 -8q-4 -137 -61.5 -216t-170.5 -79q-51 0 -90 22.5t-70.5 53t-59 53t-58.5 22.5q-72 0 -84 -137zM324 289q0 -68 41 -98.5t104 -30.5q61 0 111.5 29.5t107.5 80.5v226q-205 -27 -284.5 -79 t-79.5 -128z" />
<glyph unicode="&#xe4;" horiz-adv-x="1056" d="M96 270q0 162 141.5 251t450.5 122q-2 80 -42 138.5t-142 58.5q-74 0 -144.5 -29t-138.5 -70l-86 158q84 53 189.5 92t224.5 39q188 0 281.5 -111.5t93.5 -322.5v-596h-195l-16 111h-8q-68 -57 -145 -96.5t-167 -39.5q-131 0 -214 82t-83 213zM221 1309q0 53 36 89t89 36 q55 0 90 -36t35 -89q0 -51 -35 -88t-90 -37q-53 0 -89 36.5t-36 88.5zM324 289q0 -68 41 -98.5t104 -30.5q61 0 111.5 29.5t107.5 80.5v226q-205 -27 -284.5 -79t-79.5 -128zM643 1309q0 53 35 89t90 36q53 0 89 -36t36 -89q0 -51 -36 -88t-89 -37q-55 0 -90 36.5t-35 88.5z " />
<glyph unicode="&#xe5;" horiz-adv-x="1056" d="M96 270q0 162 141.5 251t450.5 122q-2 80 -42 138.5t-142 58.5q-74 0 -144.5 -29t-138.5 -70l-86 158q84 53 189.5 92t224.5 39q188 0 281.5 -111.5t93.5 -322.5v-596h-195l-16 111h-8q-68 -57 -145 -96.5t-167 -39.5q-131 0 -214 82t-83 213zM309 1352q0 90 64.5 149.5 t183.5 59.5t183.5 -59.5t64.5 -149.5q0 -88 -64.5 -147.5t-183.5 -59.5t-183.5 59.5t-64.5 147.5zM324 289q0 -68 41 -98.5t104 -30.5q61 0 111.5 29.5t107.5 80.5v226q-205 -27 -284.5 -79t-79.5 -128zM455 1352q0 -51 29.5 -82t72.5 -31t72.5 30.5t29.5 82.5 q0 53 -29.5 83.5t-72.5 30.5t-72.5 -30.5t-29.5 -83.5z" />
<glyph unicode="&#xe6;" horiz-adv-x="1607" d="M106 270q0 162 140.5 251t445.5 122q-2 80 -40 138.5t-140 58.5q-72 0 -142.5 -29t-136.5 -70l-86 158q84 53 184.5 92t211.5 39q102 0 173.5 -49t110.5 -133q61 86 139 134t175 48q129 0 216 -61.5t131 -170t44 -249.5q0 -70 -10 -111h-615q12 -131 90 -202.5t187 -71.5 q66 0 119 21.5t108 56.5l84 -158q-72 -47 -159 -78t-183 -31q-119 0 -205 50.5t-145 121.5q-104 -88 -201.5 -130t-195.5 -42q-131 0 -215.5 82t-84.5 213zM336 289q0 -68 40 -98.5t103 -30.5q59 0 125 31.5t121 87.5q-14 35 -22.5 79.5t-10.5 90.5l-4 47 q-193 -27 -272.5 -78t-79.5 -129zM907 588h422q0 121 -49 190.5t-147 69.5q-86 0 -149 -67.5t-77 -192.5z" />
<glyph unicode="&#xe7;" horiz-adv-x="946" d="M84 502q0 168 69.5 285.5t185.5 180t249 62.5q96 0 167.5 -32.5t127.5 -79.5l-115 -154q-39 35 -80 54.5t-88 19.5q-121 0 -197.5 -92.5t-76.5 -243.5q0 -150 74.5 -242t193.5 -92q59 0 111.5 25.5t95.5 60.5l96 -156q-70 -61 -156 -92t-172 -31q-137 0 -246.5 62.5 t-174 180.5t-64.5 284zM328 -375q125 8 171 29.5t46 66.5q0 35 -33.5 57.5t-124.5 35.5l95 192h143l-59 -133q74 -18 113.5 -52t39.5 -97q0 -96 -97.5 -144.5t-273.5 -56.5z" />
<glyph unicode="&#xe8;" horiz-adv-x="1038" d="M84 502q0 164 66.5 282.5t173 182t223.5 63.5q137 0 229 -60.5t139.5 -168t47.5 -248.5q0 -74 -11 -115h-639q16 -133 96 -206.5t201 -73.5q66 0 122 19.5t112 53.5l80 -147q-72 -47 -160 -78t-184 -31q-139 0 -252 62.5t-178.5 180.5t-65.5 284zM201 1491l164 156 l301 -357l-117 -116zM311 598h447q0 117 -51.5 183.5t-153.5 66.5q-88 0 -157 -64.5t-85 -185.5z" />
<glyph unicode="&#xe9;" horiz-adv-x="1038" d="M84 502q0 164 66.5 282.5t173 182t223.5 63.5q137 0 229 -60.5t139.5 -168t47.5 -248.5q0 -74 -11 -115h-639q16 -133 96 -206.5t201 -73.5q66 0 122 19.5t112 53.5l80 -147q-72 -47 -160 -78t-184 -31q-139 0 -252 62.5t-178.5 180.5t-65.5 284zM311 598h447 q0 117 -51.5 183.5t-153.5 66.5q-88 0 -157 -64.5t-85 -185.5zM424 1290l301 357l164 -156l-348 -317z" />
<glyph unicode="&#xea;" horiz-adv-x="1038" d="M84 502q0 164 66.5 282.5t173 182t223.5 63.5q137 0 229 -60.5t139.5 -168t47.5 -248.5q0 -74 -11 -115h-639q16 -133 96 -206.5t201 -73.5q66 0 122 19.5t112 53.5l80 -147q-72 -47 -160 -78t-184 -31q-139 0 -252 62.5t-178.5 180.5t-65.5 284zM199 1243l227 277h238 l227 -277l-92 -88l-250 211h-8l-250 -211zM311 598h447q0 117 -51.5 183.5t-153.5 66.5q-88 0 -157 -64.5t-85 -185.5z" />
<glyph unicode="&#xeb;" horiz-adv-x="1038" d="M84 502q0 164 66.5 282.5t173 182t223.5 63.5q137 0 229 -60.5t139.5 -168t47.5 -248.5q0 -74 -11 -115h-639q16 -133 96 -206.5t201 -73.5q66 0 122 19.5t112 53.5l80 -147q-72 -47 -160 -78t-184 -31q-139 0 -252 62.5t-178.5 180.5t-65.5 284zM209 1309q0 53 36 89 t89 36q55 0 90 -36t35 -89q0 -51 -35 -88t-90 -37q-53 0 -89 36.5t-36 88.5zM311 598h447q0 117 -51.5 183.5t-153.5 66.5q-88 0 -157 -64.5t-85 -185.5zM631 1309q0 53 35 89t90 36q53 0 89 -36t36 -89q0 -51 -36 -88t-89 -37q-55 0 -90 36.5t-35 88.5z" />
<glyph unicode="&#xec;" horiz-adv-x="536" d="M-76 1491l164 156l301 -357l-117 -116zM150 0v1006h235v-1006h-235z" />
<glyph unicode="&#xed;" horiz-adv-x="536" d="M147 1290l301 357l164 -156l-348 -317zM150 0v1006h235v-1006h-235z" />
<glyph unicode="&#xee;" horiz-adv-x="536" d="M-78 1243l227 277h238l227 -277l-92 -88l-250 211h-8l-250 -211zM150 0v1006h235v-1006h-235z" />
<glyph unicode="&#xef;" horiz-adv-x="536" d="M-68 1309q0 53 36 89t89 36q55 0 90 -36t35 -89q0 -51 -35 -88t-90 -37q-53 0 -89 36.5t-36 88.5zM150 0v1006h235v-1006h-235zM354 1309q0 53 35 89t90 36q53 0 89 -36t36 -89q0 -51 -36 -88t-89 -37q-55 0 -90 36.5t-35 88.5z" />
<glyph unicode="&#xf0;" horiz-adv-x="1130" d="M98 461q0 143 57.5 246.5t152.5 160t208 56.5q70 0 134.5 -26t111.5 -85q-27 102 -77 183t-120 149l-291 -148l-63 109l250 127q-45 35 -97.5 65.5t-109.5 61.5l104 145q74 -39 145.5 -83t137.5 -97l293 150l63 -111l-254 -129q121 -123 199 -293t78 -405 q0 -164 -57.5 -291t-161 -199t-246.5 -72q-121 0 -225.5 59.5t-168 168t-63.5 258.5zM315 461q0 -137 73 -215t173 -78q113 0 174.5 94t61.5 262q0 27 -1 52.5t-3 50.5q-55 70 -113.5 94t-120.5 24q-113 0 -178.5 -75.5t-65.5 -208.5z" />
<glyph unicode="&#xf1;" horiz-adv-x="1146" d="M150 0v1006h194l16 -136h9q68 66 147.5 113t181.5 47q162 0 236 -104.5t74 -294.5v-631h-236v600q0 125 -37 176t-121 51q-66 0 -115.5 -31.5t-113.5 -93.5v-702h-235zM250 1200q4 139 61.5 217t170.5 78q51 0 90 -22.5t70.5 -53t60.5 -53.5t59 -23q37 0 56.5 37 t25.5 101l152 -8q-4 -137 -61.5 -216t-170.5 -79q-51 0 -90 22.5t-70.5 53t-59 53t-58.5 22.5q-72 0 -84 -137z" />
<glyph unicode="&#xf2;" horiz-adv-x="1124" d="M84 502q0 168 67.5 285.5t176 180t233.5 62.5q127 0 235.5 -62.5t176 -180t67.5 -285.5q0 -166 -67.5 -284t-176 -180.5t-235.5 -62.5q-125 0 -233.5 62.5t-176 180.5t-67.5 284zM217 1491l164 156l301 -357l-117 -116zM326 502q0 -150 62 -242t173 -92t174.5 92 t63.5 242q0 152 -63.5 244t-174.5 92t-173 -92.5t-62 -243.5z" />
<glyph unicode="&#xf3;" horiz-adv-x="1124" d="M84 502q0 168 67.5 285.5t176 180t233.5 62.5q127 0 235.5 -62.5t176 -180t67.5 -285.5q0 -166 -67.5 -284t-176 -180.5t-235.5 -62.5q-125 0 -233.5 62.5t-176 180.5t-67.5 284zM326 502q0 -150 62 -242t173 -92t174.5 92t63.5 242q0 152 -63.5 244t-174.5 92 t-173 -92.5t-62 -243.5zM440 1290l301 357l164 -156l-348 -317z" />
<glyph unicode="&#xf4;" horiz-adv-x="1124" d="M84 502q0 168 67.5 285.5t176 180t233.5 62.5q127 0 235.5 -62.5t176 -180t67.5 -285.5q0 -166 -67.5 -284t-176 -180.5t-235.5 -62.5q-125 0 -233.5 62.5t-176 180.5t-67.5 284zM215 1243l227 277h238l227 -277l-92 -88l-250 211h-8l-250 -211zM326 502q0 -150 62 -242 t173 -92t174.5 92t63.5 242q0 152 -63.5 244t-174.5 92t-173 -92.5t-62 -243.5z" />
<glyph unicode="&#xf5;" horiz-adv-x="1124" d="M84 502q0 168 67.5 285.5t176 180t233.5 62.5q127 0 235.5 -62.5t176 -180t67.5 -285.5q0 -166 -67.5 -284t-176 -180.5t-235.5 -62.5q-125 0 -233.5 62.5t-176 180.5t-67.5 284zM188 1200q4 139 61.5 217t170.5 78q51 0 90 -22.5t70.5 -53t60.5 -53.5t59 -23 q37 0 56.5 37t25.5 101l152 -8q-4 -137 -61.5 -216t-170.5 -79q-51 0 -90 22.5t-70.5 53t-59 53t-58.5 22.5q-72 0 -84 -137zM326 502q0 -150 62 -242t173 -92t174.5 92t63.5 242q0 152 -63.5 244t-174.5 92t-173 -92.5t-62 -243.5z" />
<glyph unicode="&#xf6;" horiz-adv-x="1124" d="M84 502q0 168 67.5 285.5t176 180t233.5 62.5q127 0 235.5 -62.5t176 -180t67.5 -285.5q0 -166 -67.5 -284t-176 -180.5t-235.5 -62.5q-125 0 -233.5 62.5t-176 180.5t-67.5 284zM225 1309q0 53 36 89t89 36q55 0 90 -36t35 -89q0 -51 -35 -88t-90 -37q-53 0 -89 36.5 t-36 88.5zM326 502q0 -150 62 -242t173 -92t174.5 92t63.5 242q0 152 -63.5 244t-174.5 92t-173 -92.5t-62 -243.5zM647 1309q0 53 35 89t90 36q53 0 89 -36t36 -89q0 -51 -36 -88t-89 -37q-55 0 -90 36.5t-35 88.5z" />
<glyph unicode="&#xf7;" d="M70 590v172h911v-172h-911zM385 307q0 59 41 96t98 37q59 0 99.5 -36.5t40.5 -96.5q0 -59 -40.5 -97t-99.5 -38q-57 0 -98 38t-41 97zM385 1044q0 59 41 96.5t98 37.5q59 0 99.5 -37t40.5 -97q0 -59 -40.5 -97t-99.5 -38q-57 0 -98 38t-41 97z" />
<glyph unicode="&#xf8;" horiz-adv-x="1124" d="M84 502q0 168 67.5 285.5t176 180t233.5 62.5q158 0 279 -90l96 117l94 -74l-102 -127q53 -66 82.5 -155t29.5 -199q0 -166 -67.5 -284t-176 -180.5t-235.5 -62.5q-158 0 -278 91l-95 -115l-94 74l103 125q-51 66 -82 154.5t-31 197.5zM313 514q0 -106 29 -186l373 458 q-63 59 -154 60q-111 0 -179.5 -92.5t-68.5 -239.5zM408 221q61 -61 153 -61q111 0 180.5 91t69.5 238q0 109 -29 189z" />
<glyph unicode="&#xf9;" horiz-adv-x="1138" d="M139 375v631h236v-600q0 -125 37 -176.5t118 -51.5q66 0 116 33t108 106v689h235v-1006h-192l-19 147h-6q-66 -78 -143.5 -125t-179.5 -47q-162 0 -236 104.5t-74 295.5zM225 1491l164 156l301 -357l-117 -116z" />
<glyph unicode="&#xfa;" horiz-adv-x="1138" d="M139 375v631h236v-600q0 -125 37 -176.5t118 -51.5q66 0 116 33t108 106v689h235v-1006h-192l-19 147h-6q-66 -78 -143.5 -125t-179.5 -47q-162 0 -236 104.5t-74 295.5zM448 1290l301 357l164 -156l-348 -317z" />
<glyph unicode="&#xfb;" horiz-adv-x="1138" d="M139 375v631h236v-600q0 -125 37 -176.5t118 -51.5q66 0 116 33t108 106v689h235v-1006h-192l-19 147h-6q-66 -78 -143.5 -125t-179.5 -47q-162 0 -236 104.5t-74 295.5zM223 1243l227 277h238l227 -277l-92 -88l-250 211h-8l-250 -211z" />
<glyph unicode="&#xfc;" horiz-adv-x="1138" d="M139 375v631h236v-600q0 -125 37 -176.5t118 -51.5q66 0 116 33t108 106v689h235v-1006h-192l-19 147h-6q-66 -78 -143.5 -125t-179.5 -47q-162 0 -236 104.5t-74 295.5zM233 1309q0 53 36 89t89 36q55 0 90 -36t35 -89q0 -51 -35 -88t-90 -37q-53 0 -89 36.5t-36 88.5z M655 1309q0 53 35 89t90 36q53 0 89 -36t36 -89q0 -51 -36 -88t-89 -37q-55 0 -90 36.5t-35 88.5z" />
<glyph unicode="&#xfd;" horiz-adv-x="1013" d="M25 1006h239l174 -494q23 -66 44.5 -138.5t43.5 -144.5h9q18 70 37.5 142.5t37.5 140.5l152 494h227l-364 -1051q-63 -170 -153.5 -269.5t-254.5 -99.5q-41 0 -71.5 6.5t-59.5 14.5l43 184q14 -4 33.5 -9t38.5 -5q80 0 128 48t72 124l19 63zM401 1290l301 357l164 -156 l-348 -317z" />
<glyph unicode="&#xfe;" horiz-adv-x="1155" d="M150 -397v1843h235v-373l-4 -158q59 49 131 82t147 33q195 0 301.5 -139t106.5 -373q0 -172 -61.5 -294t-158.5 -185.5t-210 -63.5q-72 0 -134.5 27t-121.5 76l4 -160v-315h-235zM385 254q55 -45 106.5 -64.5t96.5 -19.5q100 0 167.5 88t67.5 258q0 152 -51 236t-166 84 q-106 0 -221 -113v-469z" />
<glyph unicode="&#xff;" horiz-adv-x="1013" d="M25 1006h239l174 -494q23 -66 44.5 -138.5t43.5 -144.5h9q18 70 37.5 142.5t37.5 140.5l152 494h227l-364 -1051q-63 -170 -153.5 -269.5t-254.5 -99.5q-41 0 -71.5 6.5t-59.5 14.5l43 184q14 -4 33.5 -9t38.5 -5q80 0 128 48t72 124l19 63zM186 1309q0 53 36 89t89 36 q55 0 90 -36t35 -89q0 -51 -35 -88t-90 -37q-53 0 -89 36.5t-36 88.5zM608 1309q0 53 35 89t90 36q53 0 89 -36t36 -89q0 -51 -36 -88t-89 -37q-55 0 -90 36.5t-35 88.5z" />
<glyph unicode="&#x152;" horiz-adv-x="1759" d="M100 676q0 221 84 368.5t234.5 221t353.5 73.5h862v-200h-536v-342h450v-201h-450v-395h557v-201h-895q-197 0 -345.5 77t-231.5 227.5t-83 371.5zM344 676q0 -248 117.5 -365.5t324.5 -117.5h74v954h-74q-207 0 -324.5 -110.5t-117.5 -360.5z" />
<glyph unicode="&#x153;" horiz-adv-x="1699" d="M84 502q0 168 64.5 285.5t170 180t230.5 62.5q111 0 200 -55t144 -158q59 100 147 156.5t189 56.5q129 0 218 -61.5t134 -170t45 -249.5q0 -33 -3 -62.5t-7 -48.5h-621q12 -131 90 -202.5t189 -71.5q66 0 120 21.5t109 56.5l84 -158q-72 -47 -161 -78t-185 -31 q-102 0 -193.5 56.5t-150.5 156.5q-61 -104 -148 -158.5t-204 -54.5q-125 0 -229.5 62.5t-168 180.5t-63.5 284zM324 502q0 -150 62.5 -242t162.5 -92q102 0 164.5 92t62.5 242q0 152 -62.5 244t-164.5 92q-100 0 -162.5 -92.5t-62.5 -243.5zM995 588h426q0 121 -51 190.5 t-147 69.5q-88 0 -151 -67.5t-77 -192.5z" />
<glyph unicode="&#x178;" horiz-adv-x="1026" d="M-8 1339h254l145 -342q29 -76 57.5 -146.5t61.5 -148.5h8q33 78 63.5 149t59.5 146l145 342h248l-403 -841v-498h-238v498zM172 1571q0 53 34 88t87 35t88 -35t35 -88q0 -51 -35 -86t-88 -35t-87 35t-34 86zM608 1571q0 53 35 88t88 35t87 -35t34 -88q0 -51 -34 -86 t-87 -35t-88 35t-35 86z" />
<glyph unicode="&#x2c6;" horiz-adv-x="1124" d="M215 1243l227 277h238l227 -277l-92 -88l-250 211h-8l-250 -211z" />
<glyph unicode="&#x2dc;" horiz-adv-x="1124" d="M188 1200q4 139 61.5 217t170.5 78q51 0 90 -22.5t70.5 -53t60.5 -53.5t59 -23q37 0 56.5 37t25.5 101l152 -8q-4 -137 -61.5 -216t-170.5 -79q-51 0 -90 22.5t-70.5 53t-59 53t-58.5 22.5q-72 0 -84 -137z" />
<glyph unicode="&#x2000;" horiz-adv-x="908" />
<glyph unicode="&#x2001;" horiz-adv-x="1817" />
<glyph unicode="&#x2002;" horiz-adv-x="908" />
<glyph unicode="&#x2003;" horiz-adv-x="1817" />
<glyph unicode="&#x2004;" horiz-adv-x="605" />
<glyph unicode="&#x2005;" horiz-adv-x="454" />
<glyph unicode="&#x2006;" horiz-adv-x="302" />
<glyph unicode="&#x2007;" horiz-adv-x="302" />
<glyph unicode="&#x2008;" horiz-adv-x="227" />
<glyph unicode="&#x2009;" horiz-adv-x="363" />
<glyph unicode="&#x200a;" horiz-adv-x="100" />
<glyph unicode="&#x2010;" horiz-adv-x="659" d="M86 430v172h487v-172h-487z" />
<glyph unicode="&#x2011;" horiz-adv-x="659" d="M86 430v172h487v-172h-487z" />
<glyph unicode="&#x2012;" horiz-adv-x="659" d="M86 430v172h487v-172h-487z" />
<glyph unicode="&#x2013;" horiz-adv-x="983" d="M86 438v156h811v-156h-811z" />
<glyph unicode="&#x2014;" horiz-adv-x="1638" d="M86 438v156h1466v-156h-1466z" />
<glyph unicode="&#x2018;" horiz-adv-x="563" d="M115 1010q0 268 254 401l57 -104q-84 -49 -127 -108.5t-43 -149.5q6 2 18 2q55 0 95.5 -34t40.5 -93q0 -63 -38.5 -102.5t-97.5 -39.5q-76 0 -117.5 60.5t-41.5 167.5z" />
<glyph unicode="&#x2019;" horiz-adv-x="563" d="M137 905q84 49 127 109.5t43 148.5q-6 -2 -18 -2q-53 0 -93 34t-40 93q0 66 37.5 104t95.5 38q78 0 120 -59.5t42 -168.5q0 -268 -256 -401z" />
<glyph unicode="&#x201a;" horiz-adv-x="563" d="M137 -217q84 49 127 109.5t43 148.5q-6 -2 -18 -2q-53 0 -93 34t-40 93q0 66 37.5 104t95.5 38q78 0 120 -59.5t42 -168.5q0 -268 -256 -401z" />
<glyph unicode="&#x201c;" horiz-adv-x="987" d="M115 1010q0 268 254 401l57 -104q-84 -49 -127 -108.5t-43 -149.5q6 2 18 2q55 0 95.5 -34t40.5 -93q0 -63 -38.5 -102.5t-97.5 -39.5q-76 0 -117.5 60.5t-41.5 167.5zM539 1010q0 268 254 401l57 -104q-84 -49 -127 -108.5t-43 -149.5q6 2 18 2q55 0 95.5 -34t40.5 -93 q0 -63 -38.5 -102.5t-97.5 -39.5q-76 0 -117.5 60.5t-41.5 167.5z" />
<glyph unicode="&#x201d;" horiz-adv-x="987" d="M137 905q84 49 127 109.5t43 148.5q-6 -2 -18 -2q-53 0 -93 34t-40 93q0 66 37.5 104t95.5 38q78 0 120 -59.5t42 -168.5q0 -268 -256 -401zM561 905q84 49 127 109.5t43 148.5q-6 -2 -18 -2q-53 0 -93 34t-40 93q0 66 37.5 104t95.5 38q78 0 120 -59.5t42 -168.5 q0 -268 -256 -401z" />
<glyph unicode="&#x201e;" horiz-adv-x="987" d="M137 -217q84 49 127 109.5t43 148.5q-6 -2 -18 -2q-53 0 -93 34t-40 93q0 66 37.5 104t95.5 38q78 0 120 -59.5t42 -168.5q0 -268 -256 -401zM561 -217q84 49 127 109.5t43 148.5q-6 -2 -18 -2q-53 0 -93 34t-40 93q0 66 37.5 104t95.5 38q78 0 120 -59.5t42 -168.5 q0 -268 -256 -401z" />
<glyph unicode="&#x2022;" horiz-adv-x="665" d="M82 539q0 78 34 137t91 94t125 35q70 0 127 -35t91 -94.5t34 -136.5q0 -117 -74 -192t-178 -75q-102 0 -176 75t-74 192z" />
<glyph unicode="&#x2026;" horiz-adv-x="1974" d="M174 135q0 70 45 115t109 45q66 0 108.5 -45t42.5 -115t-42.5 -115t-108.5 -45q-63 0 -108.5 45.5t-45.5 114.5zM856 135q0 70 45 115t109 45q66 0 108.5 -45t42.5 -115t-42.5 -115t-108.5 -45q-63 0 -108.5 45.5t-45.5 114.5zM1538 135q0 70 45 115t109 45 q66 0 108.5 -45t42.5 -115t-42.5 -115t-108.5 -45q-63 0 -108.5 45.5t-45.5 114.5z" />
<glyph unicode="&#x202f;" horiz-adv-x="363" />
<glyph unicode="&#x2039;" horiz-adv-x="577" d="M96 430v172l277 305l94 -76l-236 -315l236 -317l-94 -74z" />
<glyph unicode="&#x203a;" horiz-adv-x="577" d="M111 199l233 317l-233 315l92 76l278 -305v-172l-278 -305z" />
<glyph unicode="&#x205f;" horiz-adv-x="454" />
<glyph unicode="&#x20ac;" d="M45 461v114l117 9q-2 16 -2 31.5v31.5v30.5t2 29.5h-117v114l129 8q41 238 180.5 368t341.5 130q92 0 177 -43t143 -117l-133 -129q-39 47 -86 76t-107 29q-111 0 -182.5 -82t-95.5 -230h479v-124h-492q-2 -12 -2 -24.5v-27.5v-35.5t2 -33.5h410v-125h-395 q29 -143 98.5 -222t173.5 -79q66 0 118 32.5t97 96.5l133 -123q-70 -90 -159.5 -140.5t-202.5 -50.5q-186 0 -321.5 125t-176.5 361h-129z" />
<glyph unicode="&#x2122;" horiz-adv-x="1351" d="M6 1239v145h543v-145h-193v-494h-159v494h-191zM641 745v639h186l88 -219l52 -149h8l51 149l86 219h186v-639h-147v238l18 225h-8l-133 -366h-117l-133 366h-8l18 -225v-238h-147z" />
<glyph unicode="&#x25fc;" horiz-adv-x="1003" d="M0 0v1004h1004v-1004h-1004z" />
<glyph unicode="&#xfb01;" horiz-adv-x="1183" d="M55 819v176l135 11v104q0 158 78 259t256 101q53 0 102.5 -10t82.5 -24l-45 -176q-55 25 -111 24q-127 0 -127 -170v-108h197v-187h-197v-819h-236v819h-135zM776 1317q0 59 39 96t102 37t102 -37t39 -96q0 -61 -39 -98t-102 -37t-102 36.5t-39 98.5zM799 0v1006h235 v-1006h-235z" />
<glyph unicode="&#xfb02;" horiz-adv-x="1204" d="M55 819v176l135 11v104q0 158 78 259t256 101q53 0 102.5 -10t82.5 -24l-45 -176q-55 25 -111 24q-127 0 -127 -170v-108h197v-187h-197v-819h-236v819h-135zM799 258v1188h235v-1200q0 -43 16.5 -60.5t34.5 -17.5q8 0 15.5 1t21.5 3l31 -176q-20 -8 -52 -14.5t-73 -6.5 q-125 0 -177 76t-52 207z" />
<glyph unicode="&#xfb03;" horiz-adv-x="1800" d="M55 819v176l135 11v88q0 156 83 256t266 100q117 0 196 -37l-45 -176q-29 14 -57.5 20.5t-69.5 6.5q-63 0 -100 -43t-37 -127v-88h381v104q0 158 77 259t255 101q55 0 103 -10t81 -24l-45 -176q-51 25 -109 24q-127 0 -127 -170v-108h197v-187h-197v-819h-235v819h-381 v-819h-236v819h-135zM1393 1317q0 59 39 96t102 37t102 -37t39 -96q0 -61 -39 -98t-102 -37t-102 36.5t-39 98.5zM1416 0v1006h235v-1006h-235z" />
<glyph unicode="&#xfb04;" horiz-adv-x="1818" d="M55 819v176l135 11v88q0 156 83 256t266 100q117 0 196 -37l-45 -176q-29 14 -57.5 20.5t-69.5 6.5q-63 0 -100 -43t-37 -127v-88h381v104q0 158 77 259t255 101q55 0 103 -10t81 -24l-45 -176q-51 25 -109 24q-127 0 -127 -170v-108h197v-187h-197v-819h-235v819h-381 v-819h-236v819h-135zM1416 258v1188h235v-1200q0 -43 16.5 -60.5t34.5 -17.5q8 0 15.5 1t21.5 3l31 -176q-20 -8 -52 -14.5t-73 -6.5q-125 0 -177 76t-52 207z" />
</font>
</defs>
</svg>
