<?xml version="1.0" standalone="no"?>
<!DOCTYPE svg PUBLIC "-//W3C//DTD SVG 1.1//EN" "http://www.w3.org/Graphics/SVG/1.1/DTD/svg11.dtd" >
<svg xmlns="http://www.w3.org/2000/svg" xmlns:xlink="http://www.w3.org/1999/xlink" version="1.1">
<metadata></metadata>
<defs>
<font id="source_sans_proitalic" horiz-adv-x="983" >
<font-face units-per-em="2048" ascent="1536" descent="-512" />
<missing-glyph horiz-adv-x="409" />
<glyph horiz-adv-x="0" />
<glyph horiz-adv-x="682" />
<glyph unicode=" "  horiz-adv-x="409" />
<glyph unicode="&#x09;" horiz-adv-x="409" />
<glyph unicode="&#xa0;" horiz-adv-x="409" />
<glyph unicode="!" horiz-adv-x="577" d="M88 78q0 53 40 98t97 45q47 0 70.5 -29.5t23.5 -74.5q0 -51 -37 -96.5t-96 -45.5q-45 0 -71.5 29t-26.5 74zM209 401l168 973h158l-39 -188l-177 -785h-110z" />
<glyph unicode="&#x22;" horiz-adv-x="833" d="M262 872l47 314l31 188h154l-39 -188l-86 -314h-107zM600 872l47 314l31 188h154l-39 -188l-86 -314h-107z" />
<glyph unicode="#" horiz-adv-x="980" d="M49 420l27 112h168l94 308h-164l29 112h172l121 379h104l-119 -379h256l121 379h105l-119 -379h162l-29 -112h-168l-94 -308h166l-29 -112h-174l-131 -420h-107l133 420h-258l-131 -420h-106l133 420h-162zM350 532h260l95 308h-261z" />
<glyph unicode="$" d="M35 168l100 98q47 -61 119 -110.5t164 -49.5q113 0 184.5 66t71.5 172q0 74 -32 128t-82 98t-105.5 84t-105.5 86t-81.5 103.5t-31.5 135.5q0 100 46 179t128 126t186 53l41 201h115l-43 -211q72 -18 134 -63t107 -105l-102 -92q-41 59 -100.5 100t-131.5 41 q-98 0 -161.5 -58t-63.5 -151q0 -76 44 -129t109.5 -99t130 -99.5t108.5 -125t44 -177.5t-47 -192.5t-132 -139.5t-202 -62l-40 -200h-115l41 209q-90 18 -167 69t-130 115z" />
<glyph unicode="%" horiz-adv-x="1619" d="M125 840q0 96 24.5 190t72.5 173t117.5 126t157.5 47q119 0 185.5 -89t66.5 -222q0 -94 -24.5 -189.5t-72.5 -174t-116.5 -126t-158.5 -47.5q-119 0 -185.5 89.5t-66.5 222.5zM246 848q0 -94 32.5 -155.5t108.5 -61.5q57 0 102 38t76 101.5t47.5 138t16.5 148.5 q0 94 -33 155.5t-109 61.5q-57 0 -102 -38t-76 -101.5t-47 -138t-16 -148.5zM277 -25l991 1401h107l-992 -1401h-106zM916 287q0 96 24.5 190t72.5 173t117.5 126t157.5 47q119 0 185.5 -89t66.5 -222q0 -94 -24.5 -189.5t-72.5 -174t-116.5 -126t-158.5 -47.5 q-119 0 -185.5 89.5t-66.5 222.5zM1037 295q0 -94 32.5 -155.5t108.5 -61.5q57 0 102 38t76 101.5t47.5 138t16.5 148.5q0 94 -33 155.5t-109 61.5q-57 0 -102 -38t-76 -101.5t-47 -138t-16 -148.5z" />
<glyph unicode="&#x26;" horiz-adv-x="1191" d="M31 289q0 111 48 192.5t126 145t166 116.5q-37 121 -37 232q0 115 49 204t129 139t174 50q111 0 166 -62.5t55 -156.5q0 -104 -55 -183t-141 -142.5t-181 -123.5q43 -106 110 -207.5t142 -183.5q84 88 146.5 190.5t115.5 221.5h144q-63 -135 -141 -261t-177 -233 q113 -90 209 -125l-65 -127q-125 41 -252 150q-86 -70 -184 -110t-209 -40q-152 0 -245 85t-93 229zM186 309q0 -94 58.5 -151.5t152.5 -57.5q72 0 142.5 29t136.5 80q-80 88 -147.5 194.5t-114.5 219.5q-94 -63 -161 -138.5t-67 -175.5zM469 983q0 -78 23 -168 q78 47 142 94t104 104.5t40 129.5q0 47 -24.5 80.5t-77.5 33.5q-88 0 -147.5 -76.5t-59.5 -197.5z" />
<glyph unicode="'" horiz-adv-x="495" d="M262 872l47 314l31 188h154l-39 -188l-86 -314h-107z" />
<glyph unicode="(" horiz-adv-x="595" d="M133 272q0 240 56.5 446t163 397.5t257.5 381.5l92 -51q-217 -274 -327.5 -570t-110.5 -620q0 -94 9.5 -198.5t30 -203t48.5 -176.5l-102 -38q-49 131 -83 297.5t-34 334.5z" />
<glyph unicode=")" horiz-adv-x="600" d="M-90 -307q217 274 326.5 570t109.5 618q0 96 -9 200.5t-27.5 201.5t-49.5 175l102 39q49 -131 83 -297t34 -334q0 -240 -56 -446.5t-162.5 -396.5t-258.5 -383z" />
<glyph unicode="*" horiz-adv-x="825" d="M256 1229l37 82l203 -68l51 217l90 -8l-16 -219l210 29l15 -88l-211 -64l78 -199l-82 -47l-107 180l-164 -155l-65 59l141 180z" />
<glyph unicode="+" d="M98 618v117h359v400h123v-400h358v-117h-360v-407h-123v407h-357z" />
<glyph unicode="," horiz-adv-x="495" d="M-63 -242q96 37 154.5 98.5t72.5 135.5h-4q-45 0 -76 26.5t-31 71.5q0 51 36 91t95 40q53 0 82 -37t29 -98q0 -150 -92 -264.5t-244 -157.5z" />
<glyph unicode="-" horiz-adv-x="612" d="M72 455l24 120h449l-27 -120h-446z" />
<glyph unicode="&#xad;" horiz-adv-x="612" d="M72 455l24 120h449l-27 -120h-446z" />
<glyph unicode="." horiz-adv-x="495" d="M47 78q0 53 40 98t97 45q45 0 70 -29.5t25 -74.5q0 -51 -38.5 -96.5t-97.5 -45.5q-45 0 -70.5 29t-25.5 74z" />
<glyph unicode="/" horiz-adv-x="696" d="M-147 -328l888 1782h115l-891 -1782h-112z" />
<glyph unicode="0" d="M86 420q0 182 43 347t118 292t173 199.5t207 72.5q102 0 173.5 -59.5t108.5 -160.5t37 -228q0 -184 -42 -348t-116.5 -290t-171.5 -198t-206 -72q-102 0 -175 57.5t-111 159t-38 228.5zM233 414q0 -135 45.5 -224.5t139.5 -89.5q80 0 148.5 70t121.5 185.5t83 255 t30 278.5q0 137 -45 226t-140 89q-80 0 -148.5 -70.5t-121.5 -186.5t-83 -255t-30 -278z" />
<glyph unicode="1" d="M53 0l27 131h285l196 979h-231l20 102q174 25 287 95h121l-238 -1176h266l-24 -131h-709z" />
<glyph unicode="2" d="M-20 0l16 94q197 166 342 292t241.5 226.5t144.5 191.5t48 185q0 90 -52 151.5t-161 61.5q-66 0 -132.5 -33.5t-135.5 -97.5l-80 98q90 78 179 120t188 42q168 0 258 -91t90 -230q0 -109 -43 -205t-127 -194.5t-211 -213t-297 -262.5h565l-25 -135h-808z" />
<glyph unicode="3" d="M-18 201l104 82q47 -70 123 -123.5t176 -53.5q139 0 228 77t89 194q0 104 -86 171.5t-292 67.5l24 119q162 0 255 42t133 104.5t40 124.5q0 86 -51 141t-156 55q-59 0 -127.5 -28.5t-128.5 -75.5l-80 104q170 129 361 129q164 0 253 -82t89 -217q0 -125 -77 -219 t-228 -137v-8q109 -35 169 -109t60 -176q0 -125 -62.5 -216t-170 -141.5t-244.5 -50.5q-133 0 -236.5 67t-164.5 159z" />
<glyph unicode="4" d="M31 360l18 107l717 840h172l-164 -820h170l-24 -127h-170l-72 -360h-148l72 360h-571zM223 487h404l78 387q12 59 30.5 126t32.5 135h-8q-41 -57 -82 -110.5t-82 -102.5z" />
<glyph unicode="5" d="M0 197l102 84q45 -68 112 -121.5t181 -53.5q86 0 160 43.5t119 122t45 183.5q0 127 -64.5 188.5t-171.5 61.5q-63 0 -108 -16.5t-111 -51.5l-67 53l163 617h613l-27 -136h-477l-107 -385q35 16 78 28.5t95 12.5q147 0 244.5 -87t97.5 -257q0 -156 -69 -269.5t-181.5 -176 t-241.5 -62.5q-133 0 -229.5 64.5t-155.5 157.5z" />
<glyph unicode="6" d="M104 418q0 201 46.5 367.5t128 288.5t193.5 189.5t243 67.5q109 0 179.5 -50t111.5 -116l-107 -84q-70 119 -192 119q-102 0 -191.5 -68.5t-154 -194.5t-93.5 -298q68 78 154 115t153 37q145 0 232.5 -90.5t87.5 -249.5q0 -127 -56.5 -236t-153.5 -174.5t-218 -65.5 q-111 0 -192.5 57.5t-126 157t-44.5 228.5zM252 414q0 -141 60.5 -228.5t162.5 -87.5q78 0 139.5 48.5t97.5 124t36 157.5q0 113 -52.5 179.5t-154.5 66.5q-51 0 -132 -35t-155 -131q-2 -23 -2 -46v-48z" />
<glyph unicode="7" d="M215 1171l29 136h815l-21 -103q-203 -190 -323.5 -382.5t-189 -395.5t-115.5 -426h-164q59 246 135 449.5t189.5 381t279.5 340.5h-635z" />
<glyph unicode="8" d="M68 313q0 100 44 176t113.5 130.5t149.5 89.5v8q-57 57 -88 117.5t-31 140.5q0 113 53 191.5t142.5 121.5t191.5 43q84 0 159 -32.5t122 -99t47 -169.5q0 -131 -72 -219t-184 -152v-8q41 -27 82 -68.5t69.5 -99t28.5 -127.5q0 -119 -61.5 -203.5t-160.5 -131t-218 -46.5 q-94 0 -183.5 37t-146.5 112t-57 189zM211 330q0 -113 75 -175.5t177 -62.5q74 0 139.5 30t106.5 87t41 139q0 76 -42 128t-111 94t-148 85q-102 -57 -170 -134t-68 -191zM397 983q0 -102 63.5 -162.5t172.5 -113.5q76 49 137 124.5t61 178.5q0 96 -57 149t-143 53 q-90 0 -162 -60t-72 -169z" />
<glyph unicode="9" d="M33 141l106 84q66 -119 193 -119q102 0 190 69t152.5 195t91.5 294q-68 -76 -153 -112t-152 -36q-143 0 -230.5 90t-87.5 250q0 129 56.5 236.5t153 173t216.5 65.5q113 0 194 -56t125 -156.5t44 -229.5q0 -199 -46 -367t-128 -289.5t-193.5 -189.5t-242.5 -68 q-106 0 -177 49.5t-112 116.5zM289 879q0 -113 53 -179.5t156 -66.5q49 0 131 34.5t153 131.5q2 23 2 46v48q0 141 -60 228t-163 87q-76 0 -137.5 -48t-98 -123.5t-36.5 -157.5z" />
<glyph unicode=":" horiz-adv-x="495" d="M47 78q0 53 40 98t97 45q45 0 70 -29.5t25 -74.5q0 -51 -38.5 -96.5t-97.5 -45.5q-45 0 -70.5 29t-25.5 74zM178 834q0 53 40 98t97 45q45 0 70 -29.5t25 -74.5q0 -51 -38.5 -96.5t-97.5 -45.5q-45 0 -70.5 29t-25.5 74z" />
<glyph unicode=";" horiz-adv-x="495" d="M-63 -242q96 37 154.5 98.5t72.5 135.5h-4q-45 0 -76 26.5t-31 71.5q0 51 36 91t95 40q53 0 82 -37t29 -98q0 -150 -92 -264.5t-244 -157.5zM178 834q0 53 40 98t97 45q45 0 70 -29.5t25 -74.5q0 -51 -38.5 -96.5t-97.5 -45.5q-45 0 -70.5 29t-25.5 74z" />
<glyph unicode="&#x3c;" d="M94 616v119l844 342v-133l-416 -164l-256 -98v-8l256 -101l416 -161v-136z" />
<glyph unicode="=" d="M98 399v117h840v-117h-840zM98 835v117h840v-117h-840z" />
<glyph unicode="&#x3e;" d="M98 276v136l418 161l254 101v8l-254 98l-418 164v133l844 -342v-119z" />
<glyph unicode="?" horiz-adv-x="837" d="M193 78q0 53 39.5 98t97.5 45q45 0 69.5 -29.5t24.5 -74.5q0 -51 -38 -96.5t-97 -45.5q-45 0 -70.5 29t-25.5 74zM227 1255q59 61 142.5 101.5t175.5 40.5q143 0 227 -75t84 -208q0 -100 -40 -173t-100.5 -132t-123 -118.5t-107.5 -128t-53 -163.5l-135 13q6 104 49 180 t102.5 135t118 113.5t97 113t38.5 133.5q0 84 -47 131.5t-129 47.5q-57 0 -113.5 -29t-101.5 -76z" />
<glyph unicode="@" horiz-adv-x="1667" d="M92 334q0 211 74 390t200 312t285.5 208t331.5 75q195 0 330 -79t206.5 -215t71.5 -312q0 -199 -61.5 -337t-159.5 -209t-209 -71q-72 0 -121 42t-63 114h-6q-47 -57 -107.5 -97t-128.5 -40q-94 0 -164.5 72.5t-70.5 203.5q0 90 31.5 177t86 157t128 112t155.5 42 q96 0 150 -105h4l26 88h105l-103 -444q-20 -94 2.5 -153.5t104.5 -59.5q68 0 134.5 56t110.5 166t44 265q0 150 -54.5 267.5t-167 186t-288.5 68.5q-139 0 -274.5 -64.5t-245 -181t-175 -273t-65.5 -339.5q0 -182 71.5 -309t190.5 -192.5t262 -65.5q154 0 277 76l47 -94 q-164 -88 -336 -88q-176 0 -318.5 76.5t-226.5 222t-84 352.5zM625 406q0 -92 40 -137.5t99 -45.5q92 0 184 125l74 330q-27 53 -56.5 72.5t-64.5 19.5q-80 0 -142.5 -57.5t-98 -142.5t-35.5 -164z" />
<glyph unicode="A" horiz-adv-x="1044" d="M-109 0l730 1343h184l156 -1343h-166l-37 420h-475l-215 -420h-177zM346 543h399l-20 229q-8 106 -18.5 215t-18.5 223h-8q-53 -117 -105.5 -222t-109.5 -216z" />
<glyph unicode="B" horiz-adv-x="1193" d="M72 0l268 1343h358q195 0 305.5 -75.5t110.5 -220.5q0 -90 -44 -160t-112.5 -115t-142.5 -61l-2 -9q104 -25 176 -91t72 -181q0 -150 -73 -245t-199.5 -140t-286.5 -45h-430zM254 125h233q193 0 305.5 70.5t112.5 226.5q0 102 -78.5 164.5t-228.5 62.5h-238zM383 766h192 q193 0 285 72.5t92 185.5q0 92 -70.5 143.5t-222.5 51.5h-186z" />
<glyph unicode="C" horiz-adv-x="1126" d="M117 518q0 158 49 309.5t141 273.5t220 194.5t284 72.5q115 0 198 -56.5t132 -142.5l-111 -84q-39 66 -94 106t-133 40q-119 0 -216.5 -62.5t-165 -165t-104 -225.5t-36.5 -246q0 -121 34.5 -216t110.5 -149t197 -54q82 0 150.5 32.5t133.5 87.5l72 -102 q-74 -63 -169 -109.5t-216 -46.5q-154 0 -260.5 69t-161.5 191.5t-55 282.5z" />
<glyph unicode="D" horiz-adv-x="1212" d="M72 0l268 1343h250q281 0 425 -138t144 -386q0 -244 -87 -428t-250 -287.5t-390 -103.5h-360zM256 131h176q174 0 301 86t195.5 239.5t68.5 352.5q0 190 -105.5 297.5t-307.5 107.5h-111z" />
<glyph unicode="E" horiz-adv-x="1030" d="M72 0l268 1343h741l-26 -133h-584l-86 -436h494l-29 -135h-490l-104 -504h602l-29 -135h-757z" />
<glyph unicode="F" horiz-adv-x="968" d="M72 0l268 1343h741l-26 -133h-584l-92 -467h493l-26 -135h-492l-123 -608h-159z" />
<glyph unicode="G" horiz-adv-x="1204" d="M117 518q0 160 49 311.5t142 273.5t225.5 193.5t297.5 71.5q121 0 204 -56.5t134 -142.5l-112 -84q-39 66 -95.5 106t-138.5 40q-127 0 -227 -62.5t-171 -165t-107.5 -225.5t-36.5 -246q0 -119 35.5 -215t113.5 -151t207 -55q74 0 132 24.5t97 57.5l76 370h-278l26 131 h422l-117 -581q-74 -61 -170 -99.5t-211 -38.5q-242 0 -369.5 148.5t-127.5 394.5z" />
<glyph unicode="H" horiz-adv-x="1273" d="M72 0l268 1343h160l-115 -567h606l115 567h158l-269 -1343h-159l129 639h-607l-127 -639h-159z" />
<glyph unicode="I" horiz-adv-x="516" d="M72 0l268 1343h160l-269 -1343h-159z" />
<glyph unicode="J" horiz-adv-x="933" d="M-4 182l104 88q29 -74 87.5 -115.5t142.5 -41.5q102 0 165.5 76.5t90.5 209.5l188 944h160l-193 -966q-33 -174 -136 -288t-279 -114q-119 0 -203 56.5t-127 150.5z" />
<glyph unicode="K" horiz-adv-x="1144" d="M72 0l268 1343h160l-133 -663h6l674 663h180l-504 -516l305 -827h-166l-258 725l-280 -274l-93 -451h-159z" />
<glyph unicode="L" horiz-adv-x="946" d="M72 0l268 1343h160l-242 -1208h565l-26 -135h-725z" />
<glyph unicode="M" horiz-adv-x="1443" d="M72 0l268 1343h190l117 -725l45 -278h8l144 278l399 725h191l-269 -1343h-153l155 758q18 90 45 198.5t52 196.5h-9l-161 -299l-396 -713h-90l-125 713l-45 299h-8q-12 -90 -26.5 -197.5t-30.5 -197.5l-152 -758h-149z" />
<glyph unicode="N" horiz-adv-x="1267" d="M72 0l268 1343h160l307 -860l86 -280h8q12 100 26.5 211.5t35.5 216.5l141 712h153l-268 -1343h-158l-303 858l-88 289h-8q-12 -104 -27.5 -213t-35.5 -211l-144 -723h-153z" />
<glyph unicode="O" horiz-adv-x="1296" d="M123 539q0 154 47 301t135 267t208 190.5t263 70.5q152 0 255.5 -69.5t156.5 -195.5t53 -296q0 -154 -47 -302.5t-135 -268t-207 -190.5t-264 -71q-225 0 -345 155t-120 409zM285 551q0 -197 74.5 -317.5t236.5 -120.5q109 0 198 61.5t152.5 161.5t98 220t34.5 237 q0 199 -75.5 318.5t-235.5 119.5q-109 0 -198 -60.5t-152.5 -161t-98 -220t-34.5 -238.5z" />
<glyph unicode="P" horiz-adv-x="1126" d="M72 0l268 1343h379q188 0 305 -75.5t117 -251.5q0 -164 -76 -269.5t-208 -155.5t-304 -50h-215l-107 -541h-159zM365 670h194q207 0 315.5 82t108.5 243q0 117 -78 169.5t-225 52.5h-207z" />
<glyph unicode="Q" horiz-adv-x="1296" d="M123 539q0 154 47 301t135 267t208 190.5t263 70.5q152 0 255.5 -69.5t156.5 -195.5t53 -296q0 -147 -44 -290.5t-124 -260.5t-191.5 -191.5t-246.5 -87.5q35 -88 122 -132t193 -44q31 0 58.5 4.5t54.5 10.5l10 -125q-67 -23 -133 -23q-170 0 -294 78t-175 242 q-170 39 -259 185t-89 366zM285 551q0 -201 74.5 -321.5t236.5 -120.5q109 0 198 60t152.5 161.5t98 222.5t34.5 240q0 199 -75.5 318.5t-235.5 119.5q-109 0 -198 -60.5t-152.5 -161t-98 -220t-34.5 -238.5z" />
<glyph unicode="R" horiz-adv-x="1136" d="M72 0l268 1343h369q188 0 303.5 -71.5t115.5 -241.5q0 -186 -112.5 -299t-282.5 -147l236 -584h-170l-221 569h-234l-113 -569h-159zM371 698h202q193 0 295.5 84t102.5 228q0 111 -77 159t-224 48h-197z" />
<glyph unicode="S" horiz-adv-x="1036" d="M25 213l116 88q59 -88 146.5 -139t199.5 -51q123 0 206 69.5t83 184.5q0 74 -46 125t-122 96l-155 94q-86 53 -146.5 128t-60.5 187q0 102 54 186.5t148.5 135.5t215.5 51t219 -53t161 -135l-104 -95q-51 61 -123 103.5t-166 42.5q-76 0 -130 -32t-83.5 -81t-29.5 -104 q0 -78 50 -126t124 -93l155 -93q96 -57 149.5 -129.5t53.5 -185.5q0 -119 -60.5 -212t-165 -146.5t-241.5 -53.5t-252 59.5t-196 178.5z" />
<glyph unicode="T" horiz-adv-x="1044" d="M190 1206l27 137h940l-27 -137h-391l-239 -1206h-160l240 1206h-390z" />
<glyph unicode="U" horiz-adv-x="1261" d="M162 399q0 43 6 91.5t14 99.5l152 753h160l-154 -768q-18 -92 -18 -161q0 -143 65.5 -222t206.5 -79q115 0 207 94t135 313l166 823h155l-167 -829q-57 -291 -190.5 -415t-313.5 -124q-205 0 -314.5 107.5t-109.5 316.5z" />
<glyph unicode="V" horiz-adv-x="1015" d="M168 1343h162l55 -745q10 -109 18.5 -220.5t14.5 -221.5h8q51 109 105.5 222.5t107.5 219.5l371 745h172l-703 -1343h-190z" />
<glyph unicode="W" horiz-adv-x="1548" d="M195 0l18 1343h164l-21 -739q-6 -106 -9 -217t-11 -219h8q47 109 96 219.5t95 216.5l335 739h146l18 -739q2 -106 2 -215.5v-220.5h8q41 111 85.5 220.5t84.5 215.5l291 739h158l-553 -1343h-203l-14 821q0 74 2 155t4 161h-8q-29 -80 -62.5 -158t-68.5 -158l-367 -821 h-198z" />
<glyph unicode="X" horiz-adv-x="1011" d="M-74 0l516 696l-221 647h172l115 -356q14 -45 26.5 -90t28.5 -98h6q35 49 70 99t66 95l245 350h168l-485 -659l239 -684h-172l-122 377q-14 51 -31 103t-33 106h-6q-39 -53 -77 -109.5t-73 -107.5l-262 -369h-170z" />
<glyph unicode="Y" horiz-adv-x="944" d="M170 1343h164l92 -387q18 -74 33.5 -144.5t34.5 -147.5h6q47 76 92 148.5t94 145.5l254 385h170l-561 -819l-107 -524h-157l104 524z" />
<glyph unicode="Z" horiz-adv-x="1048" d="M-2 0l20 96l871 1114h-615l29 133h805l-21 -94l-864 -1114h678l-31 -135h-872z" />
<glyph unicode="[" horiz-adv-x="598" d="M16 -311l353 1761h346l-15 -92h-231l-313 -1577h229l-23 -92h-346z" />
<glyph unicode="\" horiz-adv-x="696" d="M180 1454h107l239 -1782h-110z" />
<glyph unicode="]" horiz-adv-x="598" d="M-100 -311l20 92h227l318 1577h-229l16 92h350l-352 -1761h-350z" />
<glyph unicode="^" horiz-adv-x="980" d="M170 580l299 792h127l299 -792h-131l-133 364l-92 273h-7l-96 -273l-131 -364h-135z" />
<glyph unicode="_" horiz-adv-x="989" d="M-74 -254l23 102h936l-21 -102h-938z" />
<glyph unicode="`" horiz-adv-x="1058" d="M477 1503l135 101l233 -363l-98 -74z" />
<glyph unicode="a" horiz-adv-x="1099" d="M80 336q0 143 45 267t121 218t172 146.5t200 52.5q80 0 142.5 -41t97.5 -109h8l39 125h127l-198 -995h-129l16 147h-8q-72 -76 -162 -124t-184 -48q-131 0 -209 93.5t-78 267.5zM242 360q0 -129 50 -191.5t132 -62.5q78 0 159 47.5t154 143.5l90 444q-43 78 -94 113 t-108 35q-74 0 -142.5 -43t-123 -118t-86 -170t-31.5 -198z" />
<glyph unicode="b" horiz-adv-x="1097" d="M63 0l291 1458h158l-80 -389l-45 -197h4q74 59 160 103.5t178 44.5q131 0 209 -92t78 -269q0 -143 -45 -267t-121 -218t-172.5 -146.5t-198.5 -52.5q-80 0 -142.5 41t-96.5 109h-7l-40 -125h-130zM270 254q41 -78 93.5 -113t109.5 -35q74 0 142.5 43.5t123 118t85 169.5 t30.5 200q0 127 -49 189.5t-133 62.5q-70 0 -153 -43t-154 -119z" />
<glyph unicode="c" horiz-adv-x="890" d="M76 375q0 139 45 257t124 205t178 135t208 48q90 0 151.5 -35t106.5 -86l-92 -98q-39 47 -78 68.5t-98 21.5q-98 0 -186.5 -69.5t-143.5 -184.5t-55 -252q0 -135 58 -207t177 -72q66 0 121 27t100 62l70 -103q-53 -41 -132 -79t-188 -38q-162 0 -264 104.5t-102 295.5z " />
<glyph unicode="d" horiz-adv-x="1095" d="M80 336q0 143 45 267t121 218t172 146.5t200 52.5q80 0 139.5 -40t96.5 -106h6l33 195l78 389h157l-294 -1458h-129l16 147h-8q-72 -76 -162 -124t-184 -48q-131 0 -209 93.5t-78 267.5zM242 360q0 -129 50 -191.5t132 -62.5q78 0 158 47.5t155 143.5l90 444 q-43 78 -94 113t-108 35q-74 0 -142.5 -43t-123 -118t-86 -170t-31.5 -198z" />
<glyph unicode="e" horiz-adv-x="985" d="M76 391q0 141 46 256t123 199t171 129t192 45q113 0 179.5 -47t97 -129t30.5 -185q0 -57 -12 -109t-22 -81h-648q-6 -46 -6 -85q0 -73 21 -126q33 -82 101.5 -120t154.5 -38q59 0 117.5 26t105.5 60l61 -104q-59 -43 -142 -75t-179 -32q-176 0 -283.5 109t-107.5 307z M250 575h522q4 23 7 47.5t3 51.5q0 57 -18.5 107t-60 82t-113.5 32q-109 0 -205 -87.5t-135 -232.5z" />
<glyph unicode="f" horiz-adv-x="577" d="M88 0l174 868h-129l23 117l133 10l33 166q31 152 110.5 237t204.5 85q53 0 96 -13.5t80 -35.5l-55 -113q-20 14 -48 24.5t-63 10.5q-68 0 -109.5 -51.5t-58.5 -139.5l-35 -170h201l-24 -127h-203l-174 -868h-156z" />
<glyph unicode="g" horiz-adv-x="1087" d="M2 -313l74 108q57 -47 127.5 -82t152.5 -35q127 0 203 78t105 209l51 213q-78 -78 -164 -123t-182 -45q-125 0 -207 88t-82 262q0 137 44 256t118.5 210.5t169 142.5t194.5 51q78 0 141.5 -41t98.5 -109h6l39 125h129l-209 -1042q-39 -195 -157 -299.5t-304 -104.5 q-100 0 -188 39t-160 99zM242 383q0 -121 48 -181.5t130 -60.5q72 0 154.5 44t152.5 130l88 426q-45 78 -95 113t-108 35q-72 0 -138 -42t-118.5 -113.5t-83 -162t-30.5 -188.5z" />
<glyph unicode="h" horiz-adv-x="1071" d="M63 0l291 1458h158l-98 -481l-33 -125h8q84 72 168 120t174 48q127 0 181.5 -66.5t54.5 -181.5q0 -63 -17 -137l-127 -635h-155l123 614q8 41 12 66t4 51q0 154 -148 154q-57 0 -130.5 -43t-168.5 -137l-141 -705h-156z" />
<glyph unicode="i" horiz-adv-x="485" d="M63 0l199 995h158l-201 -995h-156zM292 1294q0 51 36 85t83 34q41 0 71 -24.5t30 -69.5q0 -51 -36 -84t-83 -33q-39 0 -70 23.5t-31 68.5z" />
<glyph unicode="j" horiz-adv-x="487" d="M-254 -406l51 117q20 -12 41 -19t53 -7q57 0 91 50t55 138l227 1122h158l-227 -1120q-29 -143 -97.5 -231t-197.5 -88q-47 0 -83 10t-71 28zM286 1294q0 51 36 85t83 34q41 0 71 -24.5t30 -69.5q0 -51 -36 -84t-83 -33q-39 0 -70 23.5t-31 68.5z" />
<glyph unicode="k" horiz-adv-x="974" d="M63 0l291 1458h158l-197 -989h4l510 526h181l-398 -415l240 -580h-160l-190 485l-230 -233l-53 -252h-156z" />
<glyph unicode="l" horiz-adv-x="507" d="M90 104q0 35 12 86l252 1268h158l-256 -1276q-2 -14 -3 -23t-1 -16q0 -37 35 -37q6 0 12 1.5t20 5.5l3 -121q-20 -8 -43 -12.5t-56 -4.5q-133 0 -133 129z" />
<glyph unicode="m" horiz-adv-x="1636" d="M63 0l199 995h129l-14 -149h8q78 74 163 124t163 50q119 0 169 -56.5t60 -138.5q96 90 186.5 142.5t165.5 52.5q125 0 180.5 -66.5t55.5 -181.5q0 -35 -4 -65.5t-13 -71.5l-127 -635h-157l125 614q8 41 12 66t4 51q0 154 -145 154q-43 0 -117 -43t-164 -137l-141 -705 h-156l123 614q8 41 12 66t4 51q0 154 -143 154q-45 0 -118.5 -43t-162.5 -137l-141 -705h-156z" />
<glyph unicode="n" horiz-adv-x="1075" d="M63 0l199 995h129l-14 -149h8q84 74 168 124t178 50q127 0 181.5 -66.5t54.5 -181.5q0 -63 -17 -137l-127 -635h-155l123 614q8 41 12 66t4 51q0 154 -148 154q-57 0 -130.5 -43t-168.5 -137l-141 -705h-156z" />
<glyph unicode="o" horiz-adv-x="1054" d="M80 375q0 141 45 259t121 205t172 134t198 47q162 0 259.5 -106.5t97.5 -292.5q0 -141 -45 -259t-122 -205t-173.5 -134.5t-198.5 -47.5q-162 0 -258 106.5t-96 293.5zM238 385q0 -135 55.5 -207t157.5 -72q92 0 175 68t135 182.5t52 253.5q0 135 -55.5 208t-157.5 73 q-92 0 -175 -68.5t-135 -183.5t-52 -254z" />
<glyph unicode="p" horiz-adv-x="1095" d="M-20 -420l282 1415h129l-12 -131h6q76 63 163 109.5t181 46.5q131 0 209 -93t78 -268q0 -143 -45 -267t-121 -218t-172 -146.5t-199 -52.5q-78 0 -139 40t-100 104h-4l-37 -213l-64 -326h-155zM270 250q41 -76 93.5 -110t109.5 -34q74 0 142.5 43.5t123 118t85 169.5 t30.5 200q0 127 -49 189.5t-133 62.5q-70 0 -153 -43t-154 -121z" />
<glyph unicode="q" horiz-adv-x="1099" d="M80 336q0 143 45 267t121 218t172 146.5t200 52.5q80 0 142.5 -41t97.5 -109h8l39 125h127l-282 -1415h-158l67 326l62 244h-4q-76 -78 -166 -126.5t-184 -48.5q-131 0 -209 93.5t-78 267.5zM242 360q0 -129 50 -191.5t132 -62.5q78 0 158 47.5t155 143.5l90 444 q-43 78 -94 113t-108 35q-74 0 -142.5 -43t-123 -118t-86 -170t-31.5 -198z" />
<glyph unicode="r" horiz-adv-x="700" d="M63 0l199 995h129l-22 -190h8q59 90 137 152.5t170 62.5q51 0 94 -19l-55 -139q-33 16 -86 17q-74 0 -151.5 -64.5t-141.5 -185.5l-125 -629h-156z" />
<glyph unicode="s" horiz-adv-x="823" d="M-8 164l98 78q47 -63 112.5 -104.5t143.5 -41.5q86 0 148.5 47t62.5 119q0 53 -42 93t-157 104q-94 53 -152.5 116.5t-58.5 147.5q0 88 45.5 154.5t120 104.5t164.5 38q94 0 170 -37t133 -98l-94 -82q-39 41 -91 67.5t-120 26.5q-78 0 -128 -46t-50 -110q0 -61 55.5 -100 t120.5 -76q127 -70 180.5 -131t53.5 -151q0 -92 -49.5 -162t-133.5 -108t-190 -38q-100 0 -195.5 53.5t-146.5 135.5z" />
<glyph unicode="t" horiz-adv-x="665" d="M123 868l22 117l156 10l74 275h133l-55 -275h252l-25 -127h-256l-117 -569q-6 -37 -6 -74q0 -61 28.5 -92t98.5 -31q29 0 55.5 10.5t48.5 20.5l35 -113q-33 -14 -81 -29.5t-107 -15.5q-131 0 -184.5 64.5t-53.5 157.5q0 31 4.5 57.5t6.5 52.5l116 561h-145z" />
<glyph unicode="u" horiz-adv-x="1081" d="M115 223q0 35 4 67t12 70l127 635h158l-125 -614q-8 -39 -12.5 -64.5t-4.5 -52.5q0 -153 146 -153h2q59 0 132 43t163 137l141 704h156l-199 -995h-129l16 152h-8q-82 -72 -168 -124.5t-176 -52.5q-125 0 -180 68t-55 180z" />
<glyph unicode="v" horiz-adv-x="917" d="M121 995h155l74 -575q8 -72 14.5 -148.5t14.5 -148.5h8q35 74 72 148.5t76 148.5l292 575h158l-530 -995h-189z" />
<glyph unicode="w" horiz-adv-x="1447" d="M143 995h156l33 -585q2 -70 3 -139.5t3 -139.5h8q31 70 58.5 139.5t60.5 139.5l262 585h154l34 -585q4 -70 6.5 -139.5t4.5 -139.5h8q29 70 55.5 139.5t59.5 139.5l260 585h147l-452 -995h-195l-29 545q-2 72 -3 145.5t-3 147.5h-8q-31 -74 -60.5 -148t-60.5 -145 l-242 -545h-188z" />
<glyph unicode="x" horiz-adv-x="878" d="M-90 0l446 528l-186 467h160l86 -221q16 -45 30.5 -85t28.5 -83h8q31 41 64 83t63 85l174 221h170l-409 -501l203 -494h-162l-90 233q-16 45 -34 92.5t-38 92.5h-8q-33 -45 -68 -90t-74 -92l-192 -236h-172z" />
<glyph unicode="y" horiz-adv-x="917" d="M-127 -399l51 116q37 -18 74 -18q76 0 142.5 62.5t117.5 164.5l37 72l-170 997h156l77 -559q10 -68 18.5 -146.5t14.5 -150.5h8q35 72 73 150t75 147l287 559h155l-586 -1079q-51 -96 -111.5 -175t-134 -124t-169.5 -45q-20 0 -53 7t-62 22z" />
<glyph unicode="z" horiz-adv-x="839" d="M-20 0l16 90l661 778h-452l26 127h650l-17 -92l-661 -776h520l-25 -127h-718z" />
<glyph unicode="{" horiz-adv-x="593" d="M66 518l22 103q70 0 111 24.5t61.5 62t28.5 74.5q18 98 30.5 192.5t32.5 199.5q31 160 91.5 218t183.5 58h94l-21 -92h-53q-82 0 -116.5 -47t-55.5 -146q-16 -88 -29.5 -181t-31.5 -187q-20 -100 -60.5 -155.5t-111.5 -74.5v-8q49 -16 69.5 -48t20.5 -77 q0 -53 -16.5 -128t-37 -154.5t-37 -150.5t-16.5 -120q0 -51 23.5 -75.5t89.5 -24.5h49l-20 -92h-91q-94 0 -137 39t-43 125q0 57 17.5 132.5t39 154.5t39 148.5t17.5 114.5q0 43 -27.5 79t-115.5 36z" />
<glyph unicode="|" horiz-adv-x="473" d="M195 -512v2048h106v-2048h-106z" />
<glyph unicode="}" horiz-adv-x="600" d="M-106 -311l18 92h53q82 0 118 45t54 145q16 88 30.5 181.5t31.5 187.5q23 102 61.5 157.5t110.5 73.5v9q-51 16 -70.5 47.5t-19.5 77.5q0 53 16 126.5t36.5 153.5t37 150.5t16.5 119.5q0 53 -22.5 78t-88.5 25h-51l21 92h90q96 0 139 -40t43 -124q0 -57 -17.5 -133 t-39 -155.5t-38.5 -150.5t-17 -116q0 -39 27.5 -74.5t115.5 -35.5l-23 -103q-70 0 -111.5 -24.5t-61 -61.5t-27.5 -76q-18 -98 -29.5 -193t-34.5 -202q-33 -158 -93 -215t-181 -57h-94z" />
<glyph unicode="~" d="M92 641q51 96 115.5 139t128.5 43q55 0 102 -26.5t87 -61.5t79 -61.5t80 -26.5q45 0 82 30t70 95l88 -57q-51 -94 -116 -138.5t-128 -44.5q-55 0 -102.5 27t-87 61.5t-78.5 61.5t-80 27q-45 0 -81 -30t-71 -95z" />
<glyph unicode="&#xa1;" horiz-adv-x="577" d="M43 -379l39 189l176 784h111l-168 -973h-158zM258 879q0 53 38 97t95 44q45 0 70.5 -28.5t25.5 -73.5q0 -51 -39 -97.5t-98 -46.5q-45 0 -68.5 30t-23.5 75z" />
<glyph unicode="&#xa2;" d="M160 588q0 127 43 229.5t114.5 177t158.5 117.5t177 51l41 209h101l-41 -211q76 -10 130 -49t95 -86l-96 -92q-35 41 -71 65.5t-85 32.5l-141 -715q66 4 121 30t102 59l55 -107q-63 -41 -136 -73.5t-167 -39.5l-43 -215h-102l43 217q-137 20 -218 123t-81 277zM315 614 q0 -115 43 -191.5t127 -98.5l142 706q-80 -14 -152 -69.5t-116 -144.5t-44 -202z" />
<glyph unicode="&#xa3;" d="M8 0l19 94q145 72 220 194t75 269v11v12h-197l22 110l164 10q-4 47 -8 93.5t-4 85.5q0 139 54.5 240.5t149.5 156.5t216 55q102 0 172 -51t115 -121l-109 -84q-33 55 -79 90t-109 35q-113 0 -188 -87t-75 -245q0 -39 4.5 -81t8.5 -87h319l-24 -120h-287v-2 q0 -139 -45 -243t-137 -192v-8h530l-24 -135h-783z" />
<glyph unicode="&#xa4;" d="M23 322l145 127q-14 33 -22.5 71.5t-8.5 83.5q0 92 33 174t90 144l-96 125l90 75l98 -129q53 37 112.5 57.5t123.5 20.5q63 0 114.5 -20.5t90.5 -55.5l149 129l72 -86l-150 -129q33 -70 33 -155q0 -90 -31.5 -170t-85.5 -140l109 -139l-88 -74l-111 140 q-53 -39 -115.5 -62.5t-128.5 -23.5q-131 0 -204 80l-148 -129zM285 621q0 -104 46 -161t132 -57q72 0 137.5 44.5t107.5 120t42 169.5q0 104 -46.5 160.5t-132.5 56.5q-70 0 -136 -44t-108 -119.5t-42 -169.5z" />
<glyph unicode="&#xa5;" d="M57 330l19 86h319l25 141h-318l19 88h278l-186 662h160l84 -361q14 -68 29.5 -136.5t31.5 -141.5h6q47 76 89 144.5t87 133.5l222 361h157l-442 -662h278l-20 -88h-317l-27 -141h319l-20 -86h-320l-65 -330h-156l68 330h-320z" />
<glyph unicode="&#xa6;" horiz-adv-x="473" d="M195 436h106v-948h-106v948zM195 592v944h106v-944h-106z" />
<glyph unicode="&#xa7;" horiz-adv-x="976" d="M31 31l84 102q53 -57 122.5 -95t143.5 -38q78 0 130 46t52 116q0 53 -32.5 92t-84 70.5t-107.5 63.5t-107.5 72t-84 93t-32.5 129q0 111 62.5 187.5t158.5 117.5q-14 27 -23.5 56.5t-9.5 62.5q0 133 88 214t221 81q90 0 170 -42t140 -108l-88 -92q-43 49 -100.5 84 t-123.5 35q-63 0 -112 -40t-49 -112q0 -57 45 -100t112.5 -82t134 -85t111.5 -108.5t45 -152.5q0 -119 -57.5 -186.5t-159.5 -114.5q12 -25 19.5 -52.5t7.5 -60.5q0 -88 -43 -157.5t-118 -109.5t-173 -40q-92 0 -181.5 41t-160.5 113zM254 705q0 -61 36 -104.5t92 -77.5 t117.5 -66.5t110.5 -75.5q72 27 110 71t38 126q0 59 -35 103t-89 81t-114.5 71.5t-111.5 75.5q-68 -29 -111 -77.5t-43 -126.5z" />
<glyph unicode="&#xa8;" horiz-adv-x="1058" d="M415 1288q0 47 31 80t74 33q37 0 60.5 -22.5t23.5 -63.5q0 -45 -32 -77t-75 -32q-35 0 -58.5 21.5t-23.5 60.5zM796 1288q0 47 31 80t74 33q37 0 59.5 -22.5t22.5 -63.5q0 -45 -31 -77t-74 -32q-35 0 -58.5 21.5t-23.5 60.5z" />
<glyph unicode="&#xa9;" horiz-adv-x="1361" d="M74 545q0 152 53 293t151.5 253.5t234.5 179t302 66.5q160 0 281 -71.5t189.5 -199.5t68.5 -294q0 -152 -53.5 -294t-151.5 -254.5t-235.5 -179.5t-303.5 -67q-158 0 -279.5 73t-189 201t-67.5 294zM162 555q0 -143 54 -255t156.5 -175.5t243.5 -63.5q143 0 262 59.5 t206 161t134.5 226.5t47.5 254q0 145 -54.5 255.5t-157 174t-245.5 63.5t-262 -59t-205 -160.5t-133 -226.5t-47 -254zM369 565q0 113 37.5 202t101 151.5t138.5 96.5t149 34q72 0 120 -31t80 -74l-75 -70q-29 35 -61 53.5t-79 18.5q-66 0 -133 -47t-112.5 -128t-45.5 -187 q0 -111 54.5 -167.5t146.5 -56.5q57 0 103.5 24t97.5 56l51 -80q-63 -45 -127.5 -74.5t-146.5 -29.5q-131 0 -215 80t-84 229z" />
<glyph unicode="&#xaa;" horiz-adv-x="724" d="M174 1034q0 125 52.5 226.5t135 162t175.5 60.5q47 0 87 -23.5t64 -73.5h8l29 80h92l-129 -657h-96l12 96h-8q-49 -51 -107.5 -81.5t-121.5 -30.5q-86 0 -139.5 61t-53.5 180zM295 1049q0 -82 32 -120t79 -38q49 0 105 33.5t101 93.5l54 274q-27 51 -59 71.5t-66 20.5 q-61 0 -117.5 -47t-92.5 -123.5t-36 -164.5z" />
<glyph unicode="&#xab;" horiz-adv-x="843" d="M82 461l22 127l320 303l57 -60l-291 -319l175 -330l-72 -45zM410 461l22 127l320 303l57 -60l-291 -319l175 -330l-72 -45z" />
<glyph unicode="&#xac;" d="M98 618v117h840v-524h-123v407h-717z" />
<glyph unicode="&#xae;" horiz-adv-x="831" d="M150 1008q0 115 53 216t145 165.5t209 64.5q90 0 166 -44t122 -122t46 -180q0 -115 -54.5 -217.5t-146.5 -165.5t-209 -63q-90 0 -165.5 44t-120.5 121.5t-45 180.5zM225 1016q0 -121 69.5 -203t192.5 -82q92 0 166 51.5t118 135t44 182.5q0 121 -71.5 201.5t-192.5 80.5 q-92 0 -166 -51t-117 -134t-43 -181zM346 854l84 414h135q59 0 94 -31t35 -88q0 -45 -26.5 -81t-73.5 -52l57 -162h-82l-45 143h-69l-31 -143h-78zM467 1059h45q47 0 73.5 22.5t26.5 59.5q0 61 -67 61h-51z" />
<glyph unicode="&#xaf;" horiz-adv-x="1058" d="M424 1231l20 110h520l-18 -110h-522z" />
<glyph unicode="&#xb0;" horiz-adv-x="641" d="M207 1112q0 80 37 145.5t97 105.5t134 40q94 0 155.5 -62.5t61.5 -164.5q0 -78 -35.5 -144.5t-96 -106.5t-134.5 -40q-94 0 -156.5 63.5t-62.5 163.5zM303 1116q0 -57 34 -99t95 -42q74 0 119 60.5t45 135.5q0 59 -34 101.5t-95 42.5q-74 0 -119 -61.5t-45 -137.5z" />
<glyph unicode="&#xb1;" d="M98 0v119h840v-119h-840zM98 645v119h359v371h123v-371h358v-119h-360v-379h-123v379h-357z" />
<glyph unicode="&#xb2;" horiz-adv-x="722" d="M160 809l14 78q168 119 271.5 206t152.5 159.5t49 146.5q0 59 -32.5 93t-98.5 34q-43 0 -85 -27.5t-80 -68.5l-72 73q57 55 118.5 92t137.5 37q109 0 173 -57t64 -158q0 -127 -100 -240.5t-299 -263.5h334l-21 -104h-526z" />
<glyph unicode="&#xb3;" horiz-adv-x="718" d="M158 948l84 60q29 -53 73 -88t111 -35q72 0 123 40t51 107q0 59 -51 102.5t-168 43.5l19 84q92 0 146 24.5t76.5 61t22.5 73.5q0 51 -32.5 82t-92.5 31q-84 0 -169 -68l-56 84q115 82 248 82q100 0 162.5 -52t62.5 -142q0 -76 -48 -135.5t-138 -87.5q70 -25 104.5 -76 t34.5 -105q0 -78 -40 -134t-105.5 -86t-143.5 -30q-100 0 -169.5 49.5t-104.5 114.5z" />
<glyph unicode="&#xb4;" horiz-adv-x="1058" d="M551 1278l344 313l96 -123l-369 -282z" />
<glyph unicode="&#xb5;" horiz-adv-x="1077" d="M-20 -391l276 1386h158l-125 -614q-8 -39 -12.5 -64.5t-4.5 -52.5q0 -154 148 -153q59 0 131 43t164 137l141 704h154l-197 -995h-129l16 152h-8q-72 -72 -145.5 -121t-151.5 -49q-57 0 -104 23.5t-70 80.5l-26 -170l-60 -307h-155z" />
<glyph unicode="&#xb6;" horiz-adv-x="1095" d="M150 825q0 176 79.5 291t208.5 171t273 56h98l-178 -878h-31q-121 0 -224.5 41t-164.5 122t-61 197zM614 -164l299 1507h158l-301 -1507h-156z" />
<glyph unicode="&#xb7;" horiz-adv-x="495" d="M162 651q0 53 40 98t97 45q45 0 70 -29.5t25 -74.5q0 -51 -38.5 -96.5t-97.5 -45.5q-45 0 -70.5 29t-25.5 74z" />
<glyph unicode="&#xb8;" horiz-adv-x="1058" d="M168 -383q123 4 181 32.5t62 78.5q0 39 -31.5 59t-109.5 29l123 190h110l-84 -139q72 -18 98.5 -48t22.5 -81q-8 -96 -106 -146.5t-262 -54.5z" />
<glyph unicode="&#xb9;" horiz-adv-x="729" d="M346 1448l17 80q80 12 128 29.5t97 50.5h96l-157 -799h-123l127 639h-185z" />
<glyph unicode="&#xba;" horiz-adv-x="712" d="M176 1057q0 129 53.5 225t138.5 148.5t175 52.5q109 0 175 -68.5t66 -195.5q0 -129 -53 -225.5t-137 -148.5t-176 -52q-109 0 -175.5 69.5t-66.5 194.5zM295 1063q0 -82 33.5 -128t99.5 -46t119 44t86 117.5t33 161.5q0 84 -34 129t-100 45q-63 0 -117.5 -44t-87 -117.5 t-32.5 -161.5z" />
<glyph unicode="&#xbb;" horiz-adv-x="843" d="M47 197l289 319l-174 330l74 45l210 -324l-22 -127l-320 -303zM375 197l289 319l-174 330l74 45l210 -324l-22 -127l-320 -303z" />
<glyph unicode="&#xbc;" horiz-adv-x="1531" d="M243 1192l17 80q80 12 128 29.5t97 50.5h96l-157 -799h-123l127 639h-185zM248 -25l991 1401h107l-992 -1401h-106zM821 217l15 68l438 514h133l-98 -494h117l-19 -88h-115l-43 -217h-110l43 217h-361zM963 305h237l31 156l53 221h-8l-137 -172z" />
<glyph unicode="&#xbd;" horiz-adv-x="1581" d="M203 -25l991 1401h107l-992 -1401h-106zM235 1192l17 80q80 12 128 29.5t97 50.5h96l-157 -799h-123l127 639h-185zM862 0l14 78q168 119 271.5 206t152.5 159.5t49 146.5q0 59 -32.5 93t-98.5 34q-43 0 -85 -27.5t-80 -68.5l-72 73q57 55 118.5 92t137.5 37 q109 0 173 -57t64 -158q0 -127 -100 -240.5t-299 -263.5h334l-21 -104h-526z" />
<glyph unicode="&#xbe;" horiz-adv-x="1564" d="M94 692l84 60q29 -53 73 -88t111 -35q72 0 123 40t51 107q0 59 -51 102.5t-168 43.5l19 84q92 0 146 24.5t76.5 61t22.5 73.5q0 51 -32.5 82t-92.5 31q-84 0 -169 -68l-56 84q115 82 248 82q100 0 162.5 -52t62.5 -142q0 -76 -48 -135.5t-138 -87.5q70 -25 104.5 -76 t34.5 -105q0 -78 -40 -134t-105.5 -86t-143.5 -30q-100 0 -169.5 49.5t-104.5 114.5zM318 -25l991 1401h107l-992 -1401h-106zM858 217l15 68l438 514h133l-98 -494h117l-19 -88h-115l-43 -217h-110l43 217h-361zM1000 305h237l31 156l53 221h-8l-137 -172z" />
<glyph unicode="&#xbf;" horiz-adv-x="837" d="M-8 -115q0 98 40 171t100.5 133.5t122.5 119t107.5 128t53.5 161.5l135 -12q-6 -102 -49 -178t-102.5 -136.5t-118 -114t-97.5 -112.5t-39 -135q0 -82 46.5 -130t127.5 -48q59 0 116 28.5t102 77.5l81 -94q-57 -63 -140 -103t-175 -40q-143 0 -227 75.5t-84 208.5z M424 881q0 53 38 97t95 44q45 0 71.5 -28.5t26.5 -73.5q0 -51 -39 -97.5t-98 -46.5q-45 0 -69.5 30t-24.5 75z" />
<glyph unicode="&#xc0;" horiz-adv-x="1044" d="M-109 0l730 1343h184l156 -1343h-166l-37 420h-475l-215 -420h-177zM346 543h399l-20 229q-8 106 -18.5 215t-18.5 223h-8q-53 -117 -105.5 -222t-109.5 -216zM498 1679l113 103l250 -287l-88 -76z" />
<glyph unicode="&#xc1;" horiz-adv-x="1044" d="M-109 0l730 1343h184l156 -1343h-166l-37 420h-475l-215 -420h-177zM346 543h399l-20 229q-8 106 -18.5 215t-18.5 223h-8q-53 -117 -105.5 -222t-109.5 -216zM609 1530l338 237l75 -122l-352 -205z" />
<glyph unicode="&#xc2;" horiz-adv-x="1044" d="M-109 0l730 1343h184l156 -1343h-166l-37 420h-475l-215 -420h-177zM346 543h399l-20 229q-8 106 -18.5 215t-18.5 223h-8q-53 -117 -105.5 -222t-109.5 -216zM433 1487l254 227h178l172 -231l-80 -51l-184 190h-9l-264 -192z" />
<glyph unicode="&#xc3;" horiz-adv-x="1044" d="M-109 0l730 1343h184l156 -1343h-166l-37 420h-475l-215 -420h-177zM346 543h399l-20 229q-8 106 -18.5 215t-18.5 223h-8q-53 -117 -105.5 -222t-109.5 -216zM383 1470q25 121 92.5 186.5t159.5 65.5q53 0 89 -22.5t64 -51t54.5 -51t61.5 -22.5q82 0 122 137l111 -8 q-25 -121 -92.5 -186.5t-159.5 -65.5q-51 0 -88 22.5t-64.5 51t-54 51t-61.5 22.5q-82 0 -123 -137z" />
<glyph unicode="&#xc4;" horiz-adv-x="1044" d="M-109 0l730 1343h184l156 -1343h-166l-37 420h-475l-215 -420h-177zM346 543h399l-20 229q-8 106 -18.5 215t-18.5 223h-8q-53 -117 -105.5 -222t-109.5 -216zM471 1546q0 45 31 79t74 34q35 0 58.5 -21.5t23.5 -62.5q0 -43 -31 -77t-74 -34q-35 0 -58.5 21.5t-23.5 60.5 zM852 1546q0 45 31 79t74 34q35 0 57.5 -21.5t22.5 -62.5q0 -43 -30 -77t-73 -34q-35 0 -58.5 21.5t-23.5 60.5z" />
<glyph unicode="&#xc5;" horiz-adv-x="1044" d="M-109 0l730 1343h184l156 -1343h-166l-37 420h-475l-215 -420h-177zM346 543h399l-20 229q-8 106 -18.5 215t-18.5 223h-8q-53 -117 -105.5 -222t-109.5 -216zM566 1595q0 84 63.5 143.5t153.5 59.5q72 0 125 -40t53 -122q0 -86 -62.5 -144t-154.5 -58q-70 0 -124 39.5 t-54 121.5zM660 1602q0 -43 23.5 -69t64.5 -26q47 0 83 35t36 86q0 43 -22.5 69.5t-65.5 26.5q-47 0 -83 -35.5t-36 -86.5z" />
<glyph unicode="&#xc6;" horiz-adv-x="1644" d="M-68 0l940 1343h824l-29 -133h-559l-86 -436h469l-27 -135h-467l-104 -504h577l-26 -135h-735l79 397h-405l-268 -397h-183zM469 524h344l139 699h-6q-76 -113 -151.5 -222.5t-153.5 -222.5z" />
<glyph unicode="&#xc7;" horiz-adv-x="1126" d="M117 518q0 158 49 309.5t141 273.5t220 194.5t284 72.5q115 0 198 -56.5t132 -142.5l-111 -84q-39 66 -94 106t-133 40q-119 0 -216.5 -62.5t-165 -165t-104 -225.5t-36.5 -246q0 -121 34.5 -216t110.5 -149t197 -54q82 0 150.5 32.5t133.5 87.5l72 -102 q-74 -63 -169 -109.5t-216 -46.5q-154 0 -260.5 69t-161.5 191.5t-55 282.5zM291 -383q123 4 181 32.5t62 78.5q0 39 -31.5 59t-109.5 29l123 190h110l-84 -139q72 -18 98.5 -48t22.5 -81q-8 -96 -106 -146.5t-262 -54.5z" />
<glyph unicode="&#xc8;" horiz-adv-x="1030" d="M72 0l268 1343h741l-26 -133h-584l-86 -436h494l-29 -135h-490l-104 -504h602l-29 -135h-757zM512 1679l113 103l250 -287l-88 -76z" />
<glyph unicode="&#xc9;" horiz-adv-x="1030" d="M72 0l268 1343h741l-26 -133h-584l-86 -436h494l-29 -135h-490l-104 -504h602l-29 -135h-757zM623 1530l338 237l75 -122l-352 -205z" />
<glyph unicode="&#xca;" horiz-adv-x="1030" d="M72 0l268 1343h741l-26 -133h-584l-86 -436h494l-29 -135h-490l-104 -504h602l-29 -135h-757zM447 1487l254 227h178l172 -231l-80 -51l-184 190h-9l-264 -192z" />
<glyph unicode="&#xcb;" horiz-adv-x="1030" d="M72 0l268 1343h741l-26 -133h-584l-86 -436h494l-29 -135h-490l-104 -504h602l-29 -135h-757zM485 1546q0 45 31 79t74 34q35 0 58.5 -21.5t23.5 -62.5q0 -43 -31 -77t-74 -34q-35 0 -58.5 21.5t-23.5 60.5zM866 1546q0 45 31 79t74 34q35 0 57.5 -21.5t22.5 -62.5 q0 -43 -30 -77t-73 -34q-35 0 -58.5 21.5t-23.5 60.5z" />
<glyph unicode="&#xcc;" horiz-adv-x="516" d="M72 0l268 1343h160l-269 -1343h-159zM215 1679l113 103l250 -287l-88 -76z" />
<glyph unicode="&#xcd;" horiz-adv-x="516" d="M72 0l268 1343h160l-269 -1343h-159zM326 1530l338 237l75 -122l-352 -205z" />
<glyph unicode="&#xce;" horiz-adv-x="516" d="M72 0l268 1343h160l-269 -1343h-159zM150 1487l254 227h178l172 -231l-80 -51l-184 190h-9l-264 -192z" />
<glyph unicode="&#xcf;" horiz-adv-x="516" d="M72 0l268 1343h160l-269 -1343h-159zM188 1546q0 45 31 79t74 34q35 0 58.5 -21.5t23.5 -62.5q0 -43 -31 -77t-74 -34q-35 0 -58.5 21.5t-23.5 60.5zM569 1546q0 45 31 79t74 34q35 0 57.5 -21.5t22.5 -62.5q0 -43 -30 -77t-73 -34q-35 0 -58.5 21.5t-23.5 60.5z" />
<glyph unicode="&#xd0;" horiz-adv-x="1249" d="M96 664l19 84l143 6l119 589h250q281 0 425 -138t144 -386q0 -244 -87 -428t-250 -287.5t-390 -103.5h-360l133 664h-146zM293 131h176q174 0 301 86t195.5 239.5t68.5 352.5q0 190 -105.5 297.5t-307.5 107.5h-111l-92 -460h307l-20 -90h-306z" />
<glyph unicode="&#xd1;" horiz-adv-x="1267" d="M72 0l268 1343h160l307 -860l86 -280h8q12 100 26.5 211.5t35.5 216.5l141 712h153l-268 -1343h-158l-303 858l-88 289h-8q-12 -104 -27.5 -213t-35.5 -211l-144 -723h-153zM479 1470q25 121 92.5 186.5t159.5 65.5q53 0 89 -22.5t64 -51t54.5 -51t61.5 -22.5 q82 0 122 137l111 -8q-25 -121 -92.5 -186.5t-159.5 -65.5q-51 0 -88 22.5t-64.5 51t-54 51t-61.5 22.5q-82 0 -123 -137z" />
<glyph unicode="&#xd2;" horiz-adv-x="1296" d="M123 539q0 154 47 301t135 267t208 190.5t263 70.5q152 0 255.5 -69.5t156.5 -195.5t53 -296q0 -154 -47 -302.5t-135 -268t-207 -190.5t-264 -71q-225 0 -345 155t-120 409zM285 551q0 -197 74.5 -317.5t236.5 -120.5q109 0 198 61.5t152.5 161.5t98 220t34.5 237 q0 199 -75.5 318.5t-235.5 119.5q-109 0 -198 -60.5t-152.5 -161t-98 -220t-34.5 -238.5zM608 1679l113 103l250 -287l-88 -76z" />
<glyph unicode="&#xd3;" horiz-adv-x="1296" d="M123 539q0 154 47 301t135 267t208 190.5t263 70.5q152 0 255.5 -69.5t156.5 -195.5t53 -296q0 -154 -47 -302.5t-135 -268t-207 -190.5t-264 -71q-225 0 -345 155t-120 409zM285 551q0 -197 74.5 -317.5t236.5 -120.5q109 0 198 61.5t152.5 161.5t98 220t34.5 237 q0 199 -75.5 318.5t-235.5 119.5q-109 0 -198 -60.5t-152.5 -161t-98 -220t-34.5 -238.5zM719 1530l338 237l75 -122l-352 -205z" />
<glyph unicode="&#xd4;" horiz-adv-x="1296" d="M123 539q0 154 47 301t135 267t208 190.5t263 70.5q152 0 255.5 -69.5t156.5 -195.5t53 -296q0 -154 -47 -302.5t-135 -268t-207 -190.5t-264 -71q-225 0 -345 155t-120 409zM285 551q0 -197 74.5 -317.5t236.5 -120.5q109 0 198 61.5t152.5 161.5t98 220t34.5 237 q0 199 -75.5 318.5t-235.5 119.5q-109 0 -198 -60.5t-152.5 -161t-98 -220t-34.5 -238.5zM543 1487l254 227h178l172 -231l-80 -51l-184 190h-9l-264 -192z" />
<glyph unicode="&#xd5;" horiz-adv-x="1296" d="M123 539q0 154 47 301t135 267t208 190.5t263 70.5q152 0 255.5 -69.5t156.5 -195.5t53 -296q0 -154 -47 -302.5t-135 -268t-207 -190.5t-264 -71q-225 0 -345 155t-120 409zM285 551q0 -197 74.5 -317.5t236.5 -120.5q109 0 198 61.5t152.5 161.5t98 220t34.5 237 q0 199 -75.5 318.5t-235.5 119.5q-109 0 -198 -60.5t-152.5 -161t-98 -220t-34.5 -238.5zM493 1470q25 121 92.5 186.5t159.5 65.5q53 0 89 -22.5t64 -51t54.5 -51t61.5 -22.5q82 0 122 137l111 -8q-25 -121 -92.5 -186.5t-159.5 -65.5q-51 0 -88 22.5t-64.5 51t-54 51 t-61.5 22.5q-82 0 -123 -137z" />
<glyph unicode="&#xd6;" horiz-adv-x="1296" d="M123 539q0 154 47 301t135 267t208 190.5t263 70.5q152 0 255.5 -69.5t156.5 -195.5t53 -296q0 -154 -47 -302.5t-135 -268t-207 -190.5t-264 -71q-225 0 -345 155t-120 409zM285 551q0 -197 74.5 -317.5t236.5 -120.5q109 0 198 61.5t152.5 161.5t98 220t34.5 237 q0 199 -75.5 318.5t-235.5 119.5q-109 0 -198 -60.5t-152.5 -161t-98 -220t-34.5 -238.5zM581 1546q0 45 31 79t74 34q35 0 58.5 -21.5t23.5 -62.5q0 -43 -31 -77t-74 -34q-35 0 -58.5 21.5t-23.5 60.5zM962 1546q0 45 31 79t74 34q35 0 57.5 -21.5t22.5 -62.5 q0 -43 -30 -77t-73 -34q-35 0 -58.5 21.5t-23.5 60.5z" />
<glyph unicode="&#xd7;" d="M133 360l303 318l-303 317l82 82l303 -317l303 317l84 -82l-305 -317l305 -318l-84 -84l-303 320l-303 -320z" />
<glyph unicode="&#xd8;" horiz-adv-x="1296" d="M-6 10l194 207q-66 135 -65 322q0 154 47 301t135 267t208 190.5t263 70.5q115 0 202 -40t144 -116l183 195l73 -72l-198 -213q61 -131 61 -315q0 -154 -47 -302.5t-135 -268t-207 -190.5t-264 -71q-111 0 -196 39t-144 109l-172 -184zM285 551q0 -115 24 -205l705 750 q-39 66 -100.5 100.5t-145.5 34.5q-109 0 -198 -60.5t-152.5 -161t-98 -220t-34.5 -238.5zM356 240q39 -59 98.5 -93t141.5 -34q109 0 198 61.5t152.5 161.5t98 220t34.5 237q0 55 -6 104t-16 92z" />
<glyph unicode="&#xd9;" horiz-adv-x="1261" d="M162 399q0 43 6 91.5t14 99.5l152 753h160l-154 -768q-18 -92 -18 -161q0 -143 65.5 -222t206.5 -79q115 0 207 94t135 313l166 823h155l-167 -829q-57 -291 -190.5 -415t-313.5 -124q-205 0 -314.5 107.5t-109.5 316.5zM600 1679l113 103l250 -287l-88 -76z" />
<glyph unicode="&#xda;" horiz-adv-x="1261" d="M162 399q0 43 6 91.5t14 99.5l152 753h160l-154 -768q-18 -92 -18 -161q0 -143 65.5 -222t206.5 -79q115 0 207 94t135 313l166 823h155l-167 -829q-57 -291 -190.5 -415t-313.5 -124q-205 0 -314.5 107.5t-109.5 316.5zM711 1530l338 237l75 -122l-352 -205z" />
<glyph unicode="&#xdb;" horiz-adv-x="1261" d="M162 399q0 43 6 91.5t14 99.5l152 753h160l-154 -768q-18 -92 -18 -161q0 -143 65.5 -222t206.5 -79q115 0 207 94t135 313l166 823h155l-167 -829q-57 -291 -190.5 -415t-313.5 -124q-205 0 -314.5 107.5t-109.5 316.5zM535 1487l254 227h178l172 -231l-80 -51l-184 190 h-9l-264 -192z" />
<glyph unicode="&#xdc;" horiz-adv-x="1261" d="M162 399q0 43 6 91.5t14 99.5l152 753h160l-154 -768q-18 -92 -18 -161q0 -143 65.5 -222t206.5 -79q115 0 207 94t135 313l166 823h155l-167 -829q-57 -291 -190.5 -415t-313.5 -124q-205 0 -314.5 107.5t-109.5 316.5zM573 1546q0 45 31 79t74 34q35 0 58.5 -21.5 t23.5 -62.5q0 -43 -31 -77t-74 -34q-35 0 -58.5 21.5t-23.5 60.5zM954 1546q0 45 31 79t74 34q35 0 57.5 -21.5t22.5 -62.5q0 -43 -30 -77t-73 -34q-35 0 -58.5 21.5t-23.5 60.5z" />
<glyph unicode="&#xdd;" horiz-adv-x="944" d="M170 1343h164l92 -387q18 -74 33.5 -144.5t34.5 -147.5h6q47 76 92 148.5t94 145.5l254 385h170l-561 -819l-107 -524h-157l104 524zM537 1530l338 237l75 -122l-352 -205z" />
<glyph unicode="&#xde;" horiz-adv-x="1150" d="M72 0l268 1352h160l-47 -236h235q182 0 295 -76.5t113 -251.5q0 -164 -76 -270t-208 -156.5t-304 -50.5h-217l-62 -311h-157zM319 440h193q209 0 317.5 83t108.5 243q0 117 -76 169t-221 52h-215z" />
<glyph unicode="&#xdf;" horiz-adv-x="1136" d="M63 0l216 1075q25 113 82 205t145 147.5t203 55.5q123 0 209 -66.5t86 -204.5q0 -78 -28 -133t-68 -98t-80 -80t-67.5 -76t-27.5 -86t31 -82.5t75 -68.5t89 -72t75.5 -91t30.5 -128q0 -88 -44 -162t-121 -117t-175 -43q-76 0 -149.5 26t-136.5 77l71 104 q47 -39 99.5 -61.5t115.5 -22.5q80 0 136.5 50.5t56.5 127.5q0 59 -31 101.5t-77 77t-92 71.5t-76.5 81t-30.5 108q0 66 27.5 112.5t67.5 86.5t81 80t68.5 88t27.5 114q0 70 -35 115t-115 45q-70 0 -125 -43t-93 -115t-56 -160l-209 -1038h-156z" />
<glyph unicode="&#xe0;" horiz-adv-x="1099" d="M80 336q0 143 45 267t121 218t172 146.5t200 52.5q80 0 142.5 -41t97.5 -109h8l39 125h127l-198 -995h-129l16 147h-8q-72 -76 -162 -124t-184 -48q-131 0 -209 93.5t-78 267.5zM242 360q0 -129 50 -191.5t132 -62.5q78 0 159 47.5t154 143.5l90 444q-43 78 -94 113 t-108 35q-74 0 -142.5 -43t-123 -118t-86 -170t-31.5 -198zM473 1503l135 101l233 -363l-98 -74z" />
<glyph unicode="&#xe1;" horiz-adv-x="1099" d="M80 336q0 143 45 267t121 218t172 146.5t200 52.5q80 0 142.5 -41t97.5 -109h8l39 125h127l-198 -995h-129l16 147h-8q-72 -76 -162 -124t-184 -48q-131 0 -209 93.5t-78 267.5zM242 360q0 -129 50 -191.5t132 -62.5q78 0 159 47.5t154 143.5l90 444q-43 78 -94 113 t-108 35q-74 0 -142.5 -43t-123 -118t-86 -170t-31.5 -198zM547 1278l344 313l96 -123l-369 -282z" />
<glyph unicode="&#xe2;" horiz-adv-x="1099" d="M80 336q0 143 45 267t121 218t172 146.5t200 52.5q80 0 142.5 -41t97.5 -109h8l39 125h127l-198 -995h-129l16 147h-8q-72 -76 -162 -124t-184 -48q-131 0 -209 93.5t-78 267.5zM242 360q0 -129 50 -191.5t132 -62.5q78 0 159 47.5t154 143.5l90 444q-43 78 -94 113 t-108 35q-74 0 -142.5 -43t-123 -118t-86 -170t-31.5 -198zM358 1233l283 283h170l182 -289l-80 -64l-192 238h-9l-290 -238z" />
<glyph unicode="&#xe3;" horiz-adv-x="1099" d="M80 336q0 143 45 267t121 218t172 146.5t200 52.5q80 0 142.5 -41t97.5 -109h8l39 125h127l-198 -995h-129l16 147h-8q-72 -76 -162 -124t-184 -48q-131 0 -209 93.5t-78 267.5zM242 360q0 -129 50 -191.5t132 -62.5q78 0 159 47.5t154 143.5l90 444q-43 78 -94 113 t-108 35q-74 0 -142.5 -43t-123 -118t-86 -170t-31.5 -198zM336 1198q25 121 85 200t160 79q53 0 87 -27t59.5 -60.5t52.5 -60t66 -26.5q47 0 77.5 46t44.5 117l111 -8q-23 -119 -82.5 -197.5t-161.5 -78.5q-53 0 -87 26.5t-59.5 60.5t-52 60.5t-65.5 26.5q-45 0 -75.5 -45 t-47.5 -119z" />
<glyph unicode="&#xe4;" horiz-adv-x="1099" d="M80 336q0 143 45 267t121 218t172 146.5t200 52.5q80 0 142.5 -41t97.5 -109h8l39 125h127l-198 -995h-129l16 147h-8q-72 -76 -162 -124t-184 -48q-131 0 -209 93.5t-78 267.5zM242 360q0 -129 50 -191.5t132 -62.5q78 0 159 47.5t154 143.5l90 444q-43 78 -94 113 t-108 35q-74 0 -142.5 -43t-123 -118t-86 -170t-31.5 -198zM411 1288q0 47 31 80t74 33q37 0 60.5 -22.5t23.5 -63.5q0 -45 -32 -77t-75 -32q-35 0 -58.5 21.5t-23.5 60.5zM792 1288q0 47 31 80t74 33q37 0 59.5 -22.5t22.5 -63.5q0 -45 -31 -77t-74 -32q-35 0 -58.5 21.5 t-23.5 60.5z" />
<glyph unicode="&#xe5;" horiz-adv-x="1099" d="M80 336q0 143 45 267t121 218t172 146.5t200 52.5q80 0 142.5 -41t97.5 -109h8l39 125h127l-198 -995h-129l16 147h-8q-72 -76 -162 -124t-184 -48q-131 0 -209 93.5t-78 267.5zM242 360q0 -129 50 -191.5t132 -62.5q78 0 159 47.5t154 143.5l90 444q-43 78 -94 113 t-108 35q-74 0 -142.5 -43t-123 -118t-86 -170t-31.5 -198zM483 1307q0 92 67.5 159.5t174.5 67.5q84 0 140 -43t56 -125q0 -92 -67 -159.5t-176 -67.5q-82 0 -138.5 43t-56.5 125zM590 1313q0 -45 25.5 -73t72.5 -28q53 0 90 44t37 104q0 43 -26.5 71.5t-74.5 28.5 q-51 0 -87.5 -44t-36.5 -103z" />
<glyph unicode="&#xe6;" horiz-adv-x="1558" d="M66 217q0 141 83.5 227t230 126t337.5 46q6 29 8 49.5t2 41.5q0 90 -40 138t-132 48q-63 0 -135 -24.5t-144 -65.5l-43 115q78 43 171.5 72.5t183.5 29.5q102 0 168.5 -48t83.5 -147q70 90 158.5 142.5t183.5 52.5q113 0 180.5 -47t98 -129t30.5 -185q0 -57 -12.5 -109 t-22.5 -81h-622q-27 -170 43.5 -269.5t199.5 -99.5q59 0 118.5 26t104.5 60l62 -104q-57 -43 -138 -75t-177 -32q-106 0 -192.5 57.5t-121.5 139.5q-98 -92 -199 -144.5t-212 -52.5q-104 0 -180 62.5t-76 179.5zM219 250q0 -72 45 -111t115 -39q63 0 146 44t167 132 q-8 66 -7 118t11 118q-223 -6 -350 -71.5t-127 -190.5zM850 575h496q4 25 7 48.5t3 50.5q0 57 -18.5 107t-60.5 82t-114 32q-61 0 -124.5 -40t-113.5 -112t-75 -168z" />
<glyph unicode="&#xe7;" horiz-adv-x="890" d="M76 375q0 139 45 257t124 205t178 135t208 48q90 0 151.5 -35t106.5 -86l-92 -98q-39 47 -78 68.5t-98 21.5q-98 0 -186.5 -69.5t-143.5 -184.5t-55 -252q0 -135 58 -207t177 -72q66 0 121 27t100 62l70 -103q-53 -41 -132 -79t-188 -38q-162 0 -264 104.5t-102 295.5z M148 -383q123 4 181 32.5t62 78.5q0 39 -31.5 59t-109.5 29l123 190h110l-84 -139q72 -18 98.5 -48t22.5 -81q-8 -96 -106 -146.5t-262 -54.5z" />
<glyph unicode="&#xe8;" horiz-adv-x="985" d="M76 391q0 141 46 256t123 199t171 129t192 45q113 0 179.5 -47t97 -129t30.5 -185q0 -57 -12 -109t-22 -81h-648q-18 -129 15 -211t101.5 -120t154.5 -38q59 0 117.5 26t105.5 60l61 -104q-59 -43 -142 -75t-179 -32q-176 0 -283.5 109t-107.5 307zM250 575h522 q4 23 7 47.5t3 51.5q0 57 -18.5 107t-60 82t-113.5 32q-109 0 -205 -87.5t-135 -232.5zM447 1503l135 101l233 -363l-98 -74z" />
<glyph unicode="&#xe9;" horiz-adv-x="985" d="M76 391q0 141 46 256t123 199t171 129t192 45q113 0 179.5 -47t97 -129t30.5 -185q0 -57 -12 -109t-22 -81h-648q-18 -129 15 -211t101.5 -120t154.5 -38q59 0 117.5 26t105.5 60l61 -104q-59 -43 -142 -75t-179 -32q-176 0 -283.5 109t-107.5 307zM250 575h522 q4 23 7 47.5t3 51.5q0 57 -18.5 107t-60 82t-113.5 32q-109 0 -205 -87.5t-135 -232.5zM521 1278l344 313l96 -123l-369 -282z" />
<glyph unicode="&#xea;" horiz-adv-x="985" d="M76 391q0 141 46 256t123 199t171 129t192 45q113 0 179.5 -47t97 -129t30.5 -185q0 -57 -12 -109t-22 -81h-648q-18 -129 15 -211t101.5 -120t154.5 -38q59 0 117.5 26t105.5 60l61 -104q-59 -43 -142 -75t-179 -32q-176 0 -283.5 109t-107.5 307zM250 575h522 q4 23 7 47.5t3 51.5q0 57 -18.5 107t-60 82t-113.5 32q-109 0 -205 -87.5t-135 -232.5zM332 1233l283 283h170l182 -289l-80 -64l-192 238h-9l-290 -238z" />
<glyph unicode="&#xeb;" horiz-adv-x="985" d="M76 391q0 141 46 256t123 199t171 129t192 45q113 0 179.5 -47t97 -129t30.5 -185q0 -57 -12 -109t-22 -81h-648q-18 -129 15 -211t101.5 -120t154.5 -38q59 0 117.5 26t105.5 60l61 -104q-59 -43 -142 -75t-179 -32q-176 0 -283.5 109t-107.5 307zM250 575h522 q4 23 7 47.5t3 51.5q0 57 -18.5 107t-60 82t-113.5 32q-109 0 -205 -87.5t-135 -232.5zM385 1288q0 47 31 80t74 33q37 0 60.5 -22.5t23.5 -63.5q0 -45 -32 -77t-75 -32q-35 0 -58.5 21.5t-23.5 60.5zM766 1288q0 47 31 80t74 33q37 0 59.5 -22.5t22.5 -63.5q0 -45 -31 -77 t-74 -32q-35 0 -58.5 21.5t-23.5 60.5z" />
<glyph unicode="&#xec;" horiz-adv-x="485" d="M63 0l199 995h158l-201 -995h-156zM182 1503l135 101l233 -363l-98 -74z" />
<glyph unicode="&#xed;" horiz-adv-x="485" d="M63 0l199 995h158l-201 -995h-156zM256 1278l344 313l96 -123l-369 -282z" />
<glyph unicode="&#xee;" horiz-adv-x="485" d="M63 0l199 995h158l-201 -995h-156zM67 1233l283 283h170l182 -289l-80 -64l-192 238h-9l-290 -238z" />
<glyph unicode="&#xef;" horiz-adv-x="485" d="M63 0l199 995h158l-201 -995h-156zM120 1288q0 47 31 80t74 33q37 0 60.5 -22.5t23.5 -63.5q0 -45 -32 -77t-75 -32q-35 0 -58.5 21.5t-23.5 60.5zM501 1288q0 47 31 80t74 33q37 0 59.5 -22.5t22.5 -63.5q0 -45 -31 -77t-74 -32q-35 0 -58.5 21.5t-23.5 60.5z" />
<glyph unicode="&#xf0;" horiz-adv-x="1073" d="M88 352q0 106 33 206.5t94 181.5t148.5 128t197.5 47q74 0 138.5 -38.5t109.5 -106.5q-14 236 -125 395l-301 -125l-33 84l277 115q-39 45 -88.5 85t-106.5 77l74 94q72 -41 135.5 -92t114.5 -111l297 123l32 -84l-272 -112q70 -100 109 -226.5t39 -281.5 q0 -145 -35 -277.5t-101.5 -236t-163 -163t-219.5 -59.5q-100 0 -181 49.5t-127 134.5t-46 193zM231 367q0 -106 59.5 -183.5t170.5 -77.5q98 0 173 72t121 191.5t54 263.5q-39 61 -96.5 109.5t-137.5 48.5q-104 0 -182 -62.5t-120 -159t-42 -202.5z" />
<glyph unicode="&#xf1;" horiz-adv-x="1075" d="M63 0l199 995h129l-14 -149h8q84 74 168 124t178 50q127 0 181.5 -66.5t54.5 -181.5q0 -63 -17 -137l-127 -635h-155l123 614q8 41 12 66t4 51q0 154 -148 154q-57 0 -130.5 -43t-168.5 -137l-141 -705h-156zM373 1198q25 121 85 200t160 79q53 0 87 -27t59.5 -60.5 t52.5 -60t66 -26.5q47 0 77.5 46t44.5 117l111 -8q-23 -119 -82.5 -197.5t-161.5 -78.5q-53 0 -87 26.5t-59.5 60.5t-52 60.5t-65.5 26.5q-45 0 -75.5 -45t-47.5 -119z" />
<glyph unicode="&#xf2;" horiz-adv-x="1054" d="M80 375q0 141 45 259t121 205t172 134t198 47q162 0 259.5 -106.5t97.5 -292.5q0 -141 -45 -259t-122 -205t-173.5 -134.5t-198.5 -47.5q-162 0 -258 106.5t-96 293.5zM238 385q0 -135 55.5 -207t157.5 -72q92 0 175 68t135 182.5t52 253.5q0 135 -55.5 208t-157.5 73 q-92 0 -175 -68.5t-135 -183.5t-52 -254zM477 1503l135 101l233 -363l-98 -74z" />
<glyph unicode="&#xf3;" horiz-adv-x="1054" d="M80 375q0 141 45 259t121 205t172 134t198 47q162 0 259.5 -106.5t97.5 -292.5q0 -141 -45 -259t-122 -205t-173.5 -134.5t-198.5 -47.5q-162 0 -258 106.5t-96 293.5zM238 385q0 -135 55.5 -207t157.5 -72q92 0 175 68t135 182.5t52 253.5q0 135 -55.5 208t-157.5 73 q-92 0 -175 -68.5t-135 -183.5t-52 -254zM551 1278l344 313l96 -123l-369 -282z" />
<glyph unicode="&#xf4;" horiz-adv-x="1054" d="M80 375q0 141 45 259t121 205t172 134t198 47q162 0 259.5 -106.5t97.5 -292.5q0 -141 -45 -259t-122 -205t-173.5 -134.5t-198.5 -47.5q-162 0 -258 106.5t-96 293.5zM238 385q0 -135 55.5 -207t157.5 -72q92 0 175 68t135 182.5t52 253.5q0 135 -55.5 208t-157.5 73 q-92 0 -175 -68.5t-135 -183.5t-52 -254zM362 1233l283 283h170l182 -289l-80 -64l-192 238h-9l-290 -238z" />
<glyph unicode="&#xf5;" horiz-adv-x="1054" d="M80 375q0 141 45 259t121 205t172 134t198 47q162 0 259.5 -106.5t97.5 -292.5q0 -141 -45 -259t-122 -205t-173.5 -134.5t-198.5 -47.5q-162 0 -258 106.5t-96 293.5zM238 385q0 -135 55.5 -207t157.5 -72q92 0 175 68t135 182.5t52 253.5q0 135 -55.5 208t-157.5 73 q-92 0 -175 -68.5t-135 -183.5t-52 -254zM340 1198q25 121 85 200t160 79q53 0 87 -27t59.5 -60.5t52.5 -60t66 -26.5q47 0 77.5 46t44.5 117l111 -8q-23 -119 -82.5 -197.5t-161.5 -78.5q-53 0 -87 26.5t-59.5 60.5t-52 60.5t-65.5 26.5q-45 0 -75.5 -45t-47.5 -119z" />
<glyph unicode="&#xf6;" horiz-adv-x="1054" d="M80 375q0 141 45 259t121 205t172 134t198 47q162 0 259.5 -106.5t97.5 -292.5q0 -141 -45 -259t-122 -205t-173.5 -134.5t-198.5 -47.5q-162 0 -258 106.5t-96 293.5zM238 385q0 -135 55.5 -207t157.5 -72q92 0 175 68t135 182.5t52 253.5q0 135 -55.5 208t-157.5 73 q-92 0 -175 -68.5t-135 -183.5t-52 -254zM415 1288q0 47 31 80t74 33q37 0 60.5 -22.5t23.5 -63.5q0 -45 -32 -77t-75 -32q-35 0 -58.5 21.5t-23.5 60.5zM796 1288q0 47 31 80t74 33q37 0 59.5 -22.5t22.5 -63.5q0 -45 -31 -77t-74 -32q-35 0 -58.5 21.5t-23.5 60.5z" />
<glyph unicode="&#xf7;" d="M98 618v117h840v-117h-840zM414 303q0 43 29.5 73t74.5 30t75 -30t30 -73q0 -45 -30 -74.5t-75 -29.5t-74.5 29.5t-29.5 74.5zM414 1049q0 43 29.5 72.5t74.5 29.5t75 -29.5t30 -72.5q0 -45 -30 -76t-75 -31t-74.5 31t-29.5 76z" />
<glyph unicode="&#xf8;" horiz-adv-x="1054" d="M0 10l131 135q-51 96 -51 230q0 141 45 259t121 205t172 134t198 47q164 0 261 -109l124 129l62 -57l-137 -141q47 -94 47 -221q0 -141 -45 -260t-122 -205t-173 -133.5t-199 -47.5q-158 0 -254 103l-121 -125zM229 385q0 -74 15 -123l530 545q-57 86 -170 86 q-76 0 -143.5 -42t-119.5 -114.5t-82 -164t-30 -187.5zM281 180q54 -78 165 -78q78 0 145.5 42t120 114t82 163t29.5 187q0 66 -12 115z" />
<glyph unicode="&#xf9;" horiz-adv-x="1081" d="M115 223q0 35 4 67t12 70l127 635h158l-125 -614q-8 -39 -12.5 -64.5t-4.5 -52.5q0 -154 148 -153q59 0 132 43t163 137l141 704h156l-199 -995h-129l16 152h-8q-82 -72 -168 -124.5t-176 -52.5q-125 0 -180 68t-55 180zM465 1503l135 101l233 -363l-98 -74z" />
<glyph unicode="&#xfa;" horiz-adv-x="1081" d="M115 223q0 35 4 67t12 70l127 635h158l-125 -614q-8 -39 -12.5 -64.5t-4.5 -52.5q0 -154 148 -153q59 0 132 43t163 137l141 704h156l-199 -995h-129l16 152h-8q-82 -72 -168 -124.5t-176 -52.5q-125 0 -180 68t-55 180zM539 1278l344 313l96 -123l-369 -282z" />
<glyph unicode="&#xfb;" horiz-adv-x="1081" d="M115 223q0 35 4 67t12 70l127 635h158l-125 -614q-8 -39 -12.5 -64.5t-4.5 -52.5q0 -154 148 -153q59 0 132 43t163 137l141 704h156l-199 -995h-129l16 152h-8q-82 -72 -168 -124.5t-176 -52.5q-125 0 -180 68t-55 180zM350 1233l283 283h170l182 -289l-80 -64l-192 238 h-9l-290 -238z" />
<glyph unicode="&#xfc;" horiz-adv-x="1081" d="M115 223q0 35 4 67t12 70l127 635h158l-125 -614q-8 -39 -12.5 -64.5t-4.5 -52.5q0 -154 148 -153q59 0 132 43t163 137l141 704h156l-199 -995h-129l16 152h-8q-82 -72 -168 -124.5t-176 -52.5q-125 0 -180 68t-55 180zM403 1288q0 47 31 80t74 33q37 0 60.5 -22.5 t23.5 -63.5q0 -45 -32 -77t-75 -32q-35 0 -58.5 21.5t-23.5 60.5zM784 1288q0 47 31 80t74 33q37 0 59.5 -22.5t22.5 -63.5q0 -45 -31 -77t-74 -32q-35 0 -58.5 21.5t-23.5 60.5z" />
<glyph unicode="&#xfd;" horiz-adv-x="917" d="M-127 -399l51 116q37 -18 74 -18q76 0 142.5 62.5t117.5 164.5l37 72l-170 997h156l77 -559q10 -68 18.5 -146.5t14.5 -150.5h8q35 72 73 150t75 147l287 559h155l-586 -1079q-51 -96 -111.5 -175t-134 -124t-169.5 -45q-20 0 -53 7t-62 22zM453 1278l344 313l96 -123 l-369 -282z" />
<glyph unicode="&#xfe;" horiz-adv-x="1095" d="M-20 -420l374 1878h158l-80 -389l-45 -197h4q74 59 160 103.5t178 44.5q131 0 209 -93t78 -268q0 -143 -45 -267t-121 -218t-172 -146.5t-199 -52.5q-78 0 -138 40t-101 104h-4l-37 -213l-64 -326h-155zM270 250q41 -76 93.5 -110t109.5 -34q74 0 142.5 43.5t123 118 t85 169.5t30.5 200q0 127 -49 189.5t-133 62.5q-70 0 -153 -43t-154 -119z" />
<glyph unicode="&#xff;" horiz-adv-x="917" d="M-127 -399l51 116q37 -18 74 -18q76 0 142.5 62.5t117.5 164.5l37 72l-170 997h156l77 -559q10 -68 18.5 -146.5t14.5 -150.5h8q35 72 73 150t75 147l287 559h155l-586 -1079q-51 -96 -111.5 -175t-134 -124t-169.5 -45q-20 0 -53 7t-62 22zM317 1288q0 47 31 80t74 33 q37 0 60.5 -22.5t23.5 -63.5q0 -45 -32 -77t-75 -32q-35 0 -58.5 21.5t-23.5 60.5zM698 1288q0 47 31 80t74 33q37 0 59.5 -22.5t22.5 -63.5q0 -45 -31 -77t-74 -32q-35 0 -58.5 21.5t-23.5 60.5z" />
<glyph unicode="&#x152;" horiz-adv-x="1671" d="M123 524q0 246 87 430.5t250 286.5t390 102h872l-28 -133h-543l-88 -436h457l-29 -135h-453l-104 -504h565l-29 -135h-778q-279 0 -424 138t-145 386zM285 535q0 -190 105 -297t308 -107h80l217 1083h-145q-174 0 -301 -86t-195.5 -239.5t-68.5 -353.5z" />
<glyph unicode="&#x153;" horiz-adv-x="1662" d="M80 375q0 141 44 259t119.5 205t170 134t194.5 47q125 0 202 -66.5t105 -191.5q66 123 168.5 190.5t202.5 67.5q113 0 180.5 -47t98 -129t30.5 -185q0 -57 -12 -109t-22 -81h-617q-14 -131 14.5 -213t89 -119t136.5 -37q59 0 117.5 26t105.5 60l59 -104q-57 -41 -136 -74 t-169 -33q-125 0 -212 70t-115 203q-70 -127 -178.5 -200t-229.5 -73q-156 0 -251 106.5t-95 293.5zM238 385q0 -135 55.5 -207t157.5 -72q90 0 170.5 68t133 182.5t52.5 253.5q0 135 -55.5 208t-157.5 73q-88 0 -170 -68.5t-134 -183.5t-52 -254zM961 575h489q12 47 12 99 q0 57 -18.5 107t-60.5 82t-113 32q-100 0 -187 -87.5t-122 -232.5z" />
<glyph unicode="&#x178;" horiz-adv-x="944" d="M170 1343h164l92 -387q18 -74 33.5 -144.5t34.5 -147.5h6q47 76 92 148.5t94 145.5l254 385h170l-561 -819l-107 -524h-157l104 524zM399 1546q0 45 31 79t74 34q35 0 58.5 -21.5t23.5 -62.5q0 -43 -31 -77t-74 -34q-35 0 -58.5 21.5t-23.5 60.5zM780 1546q0 45 31 79 t74 34q35 0 57.5 -21.5t22.5 -62.5q0 -43 -30 -77t-73 -34q-35 0 -58.5 21.5t-23.5 60.5z" />
<glyph unicode="&#x2c6;" horiz-adv-x="1058" d="M362 1233l283 283h170l182 -289l-80 -64l-192 238h-9l-290 -238z" />
<glyph unicode="&#x2dc;" horiz-adv-x="1058" d="M340 1198q25 121 85 200t160 79q53 0 87 -27t59.5 -60.5t52.5 -60t66 -26.5q47 0 77.5 46t44.5 117l111 -8q-23 -119 -82.5 -197.5t-161.5 -78.5q-53 0 -87 26.5t-59.5 60.5t-52 60.5t-65.5 26.5q-45 0 -75.5 -45t-47.5 -119z" />
<glyph unicode="&#x2000;" horiz-adv-x="899" />
<glyph unicode="&#x2001;" horiz-adv-x="1798" />
<glyph unicode="&#x2002;" horiz-adv-x="899" />
<glyph unicode="&#x2003;" horiz-adv-x="1798" />
<glyph unicode="&#x2004;" horiz-adv-x="599" />
<glyph unicode="&#x2005;" horiz-adv-x="449" />
<glyph unicode="&#x2006;" horiz-adv-x="299" />
<glyph unicode="&#x2007;" horiz-adv-x="299" />
<glyph unicode="&#x2008;" horiz-adv-x="224" />
<glyph unicode="&#x2009;" horiz-adv-x="359" />
<glyph unicode="&#x200a;" horiz-adv-x="99" />
<glyph unicode="&#x2010;" horiz-adv-x="612" d="M72 455l24 120h449l-27 -120h-446z" />
<glyph unicode="&#x2011;" horiz-adv-x="612" d="M72 455l24 120h449l-27 -120h-446z" />
<glyph unicode="&#x2012;" horiz-adv-x="612" d="M72 455l24 120h449l-27 -120h-446z" />
<glyph unicode="&#x2013;" horiz-adv-x="948" d="M72 461l22 110h780l-24 -110h-778z" />
<glyph unicode="&#x2014;" horiz-adv-x="1574" d="M72 461l22 110h1409l-22 -110h-1409z" />
<glyph unicode="&#x2018;" horiz-adv-x="495" d="M225 1028q0 141 78 239.5t193 147.5l32 -78q-94 -45 -144 -114.5t-50 -126.5h6h4q43 0 71.5 -23.5t28.5 -66.5q0 -47 -30.5 -82t-79.5 -35q-47 0 -78 37t-31 102z" />
<glyph unicode="&#x2019;" horiz-adv-x="495" d="M227 983q96 47 146.5 116.5t50.5 125.5h-4h-6q-45 0 -74 23.5t-29 68.5q0 47 31 82t82 35q47 0 77.5 -37t30.5 -103q0 -141 -78.5 -239.5t-193.5 -147.5z" />
<glyph unicode="&#x201a;" horiz-adv-x="495" d="M-19 -227q96 47 146.5 116.5t50.5 125.5h-4h-6q-45 0 -74 23.5t-29 68.5q0 47 31 82t82 35q47 0 77.5 -37t30.5 -103q0 -141 -78.5 -239.5t-193.5 -147.5z" />
<glyph unicode="&#x201c;" horiz-adv-x="833" d="M225 1028q0 141 78 239.5t193 147.5l32 -78q-94 -45 -144 -114.5t-50 -126.5h6h4q43 0 71.5 -23.5t28.5 -66.5q0 -47 -30.5 -82t-79.5 -35q-47 0 -78 37t-31 102zM563 1028q0 141 78 239.5t193 147.5l32 -78q-94 -45 -144 -114.5t-50 -126.5h6h4q43 0 71.5 -23.5 t28.5 -66.5q0 -47 -30.5 -82t-79.5 -35q-47 0 -78 37t-31 102z" />
<glyph unicode="&#x201d;" horiz-adv-x="833" d="M227 983q96 47 146.5 116.5t50.5 125.5h-4h-6q-45 0 -74 23.5t-29 68.5q0 47 31 82t82 35q47 0 77.5 -37t30.5 -103q0 -141 -78.5 -239.5t-193.5 -147.5zM565 983q96 47 146.5 116.5t50.5 125.5h-4h-6q-45 0 -74 23.5t-29 68.5q0 47 31 82t82 35q47 0 77.5 -37t30.5 -103 q0 -141 -78.5 -239.5t-193.5 -147.5z" />
<glyph unicode="&#x201e;" horiz-adv-x="833" d="M-19 -227q96 47 146.5 116.5t50.5 125.5h-4h-6q-45 0 -74 23.5t-29 68.5q0 47 31 82t82 35q47 0 77.5 -37t30.5 -103q0 -141 -78.5 -239.5t-193.5 -147.5zM319 -227q96 47 146.5 116.5t50.5 125.5h-4h-6q-45 0 -74 23.5t-29 68.5q0 47 31 82t82 35q47 0 77.5 -37 t30.5 -103q0 -141 -78.5 -239.5t-193.5 -147.5z" />
<glyph unicode="&#x2022;" horiz-adv-x="604" d="M84 512q0 66 29.5 128t85 103t131.5 41q84 0 141 -60t57 -155q0 -68 -29.5 -130t-84.5 -102t-129 -40q-88 0 -144.5 60.5t-56.5 154.5z" />
<glyph unicode="&#x2026;" horiz-adv-x="1964" d="M170 78q0 53 40 98t97 45q45 0 70 -29.5t25 -74.5q0 -51 -38.5 -96.5t-97.5 -45.5q-45 0 -70.5 29t-25.5 74zM844 78q0 53 40 98t97 45q45 0 70 -29.5t25 -74.5q0 -51 -38.5 -96.5t-97.5 -45.5q-45 0 -70.5 29t-25.5 74zM1517 78q0 53 40 98t97 45q45 0 70 -29.5 t25 -74.5q0 -51 -38.5 -96.5t-97.5 -45.5q-45 0 -70.5 29t-25.5 74z" />
<glyph unicode="&#x202f;" horiz-adv-x="359" />
<glyph unicode="&#x2039;" horiz-adv-x="516" d="M82 461l22 127l320 303l57 -60l-291 -319l175 -330l-72 -45z" />
<glyph unicode="&#x203a;" horiz-adv-x="516" d="M47 197l289 319l-174 330l74 45l210 -324l-22 -127l-320 -303z" />
<glyph unicode="&#x205f;" horiz-adv-x="449" />
<glyph unicode="&#x20ac;" d="M41 492l20 81l111 9q4 39 8 74.5t13 70.5h-105l18 82l109 6q47 158 131 274.5t194.5 182t231.5 65.5q113 0 181.5 -57t111.5 -139l-119 -76q-31 63 -74 103t-114 40q-127 0 -229.5 -109.5t-155.5 -281.5h512l-19 -90h-516q-8 -33 -12 -69.5t-8 -73.5h430l-21 -92h-413 q2 -186 70.5 -286t187.5 -100q72 0 132 34t111 83l78 -96q-76 -70 -162 -111t-188 -41q-176 0 -280.5 132.5t-106.5 384.5h-127z" />
<glyph unicode="&#x2122;" horiz-adv-x="1251" d="M156 1282l22 102h510l-20 -102h-197l-106 -532h-113l106 532h-202zM655 750l127 634h140l47 -235l22 -166h8l82 166l146 235h141l-125 -634h-113l58 286l65 230h-8l-241 -418h-72l-78 418h-8l-23 -230l-59 -286h-109z" />
<glyph unicode="&#x25fc;" horiz-adv-x="993" d="M0 0v993h993v-993h-993z" />
<glyph unicode="&#xfb01;" horiz-adv-x="1062" d="M88 0l174 868h-129l23 117l133 10l33 166q31 152 110.5 237t204.5 85q53 0 96 -13.5t80 -35.5l-55 -113q-20 14 -48 24.5t-63 10.5q-68 0 -109.5 -51.5t-58.5 -139.5l-35 -170h201l-24 -127h-203l-174 -868h-156zM641 0l199 995h158l-201 -995h-156zM870 1294q0 51 36 85 t83 34q41 0 71 -24.5t30 -69.5q0 -51 -36 -84t-83 -33q-39 0 -70 23.5t-31 68.5z" />
<glyph unicode="&#xfb02;" horiz-adv-x="1085" d="M88 0l174 868h-129l23 117l133 10l33 166q31 152 110.5 237t204.5 85q53 0 96 -13.5t80 -35.5l-55 -113q-20 14 -48 24.5t-63 10.5q-68 0 -109.5 -51.5t-58.5 -139.5l-35 -170h201l-24 -127h-203l-174 -868h-156zM668 104q0 35 12 86l252 1268h158l-256 -1276 q-2 -14 -3 -23t-1 -16q0 -37 35 -37q6 0 12 1.5t20 5.5l3 -121q-20 -8 -43 -12.5t-56 -4.5q-133 0 -133 129z" />
<glyph unicode="&#xfb03;" horiz-adv-x="1611" d="M88 0l174 868h-129l23 117l133 10l28 146q33 152 116 236.5t212 84.5q59 0 104.5 -13t86.5 -34l-56 -115q-25 14 -53.5 24.5t-69.5 10.5q-72 0 -118.5 -51t-63.5 -139l-31 -150h394l32 166q31 152 111 237t205 85q53 0 95 -13.5t81 -33.5l-55 -115q-20 14 -48 24.5 t-63 10.5q-68 0 -110 -51.5t-60 -139.5l-35 -170h203l-27 -127h-200l-174 -868h-156l174 868h-391l-176 -868h-156zM1189 0l199 995h158l-201 -995h-156zM1418 1294q0 51 36 85t83 34q41 0 71 -24.5t30 -69.5q0 -51 -36 -84t-83 -33q-39 0 -70 23.5t-31 68.5z" />
<glyph unicode="&#xfb04;" horiz-adv-x="1634" d="M88 0l174 868h-129l23 117l133 10l28 146q33 152 116 236.5t212 84.5q59 0 104.5 -13t86.5 -34l-56 -115q-25 14 -53.5 24.5t-69.5 10.5q-72 0 -118.5 -51t-63.5 -139l-31 -150h394l32 166q31 152 111 237t205 85q53 0 95 -13.5t81 -33.5l-55 -115q-20 14 -48 24.5 t-63 10.5q-68 0 -110 -51.5t-60 -139.5l-35 -170h203l-27 -127h-200l-174 -868h-156l174 868h-391l-176 -868h-156zM1216 104q0 35 12 86l252 1268h158l-256 -1276q-2 -14 -3 -23t-1 -16q0 -37 35 -37q6 0 12 1.5t20 5.5l3 -121q-20 -8 -43 -12.5t-56 -4.5q-133 0 -133 129z " />
</font>
</defs>
</svg>
