<?xml version="1.0" standalone="no"?>
<!DOCTYPE svg PUBLIC "-//W3C//DTD SVG 1.1//EN" "http://www.w3.org/Graphics/SVG/1.1/DTD/svg11.dtd" >
<svg xmlns="http://www.w3.org/2000/svg" xmlns:xlink="http://www.w3.org/1999/xlink" version="1.1">
<metadata></metadata>
<defs>
<font id="source_sans_proextralight" horiz-adv-x="966" >
<font-face units-per-em="2048" ascent="1536" descent="-512" />
<missing-glyph horiz-adv-x="409" />
<glyph horiz-adv-x="0" />
<glyph horiz-adv-x="682" />
<glyph unicode=" "  horiz-adv-x="409" />
<glyph unicode="&#x09;" horiz-adv-x="409" />
<glyph unicode="&#xa0;" horiz-adv-x="409" />
<glyph unicode="!" horiz-adv-x="507" d="M180 53q0 41 23.5 61.5t50.5 20.5q29 0 51.5 -20.5t22.5 -61.5q0 -37 -22.5 -57.5t-51.5 -20.5q-27 0 -50.5 20.5t-23.5 57.5zM221 1245v127h66v-127l-8 -893h-50z" />
<glyph unicode="&#x22;" horiz-adv-x="688" d="M172 1298v123h78v-123l-12 -286h-54zM434 1298v123h78v-123l-12 -286h-54z" />
<glyph unicode="#" d="M74 446v58h180l45 364h-184v58h188l53 405h58l-54 -405h320l53 405h58l-54 -405h168v-58h-172l-45 -364h176v-58h-184l-53 -446h-58l54 446h-320l-53 -446h-57l53 446h-172zM311 504h320l45 364h-320z" />
<glyph unicode="$" d="M127 135l37 45q55 -51 140 -99t196 -48q135 0 206.5 74.5t71.5 191.5q0 109 -43 175.5t-111.5 110.5t-144.5 79.5t-144.5 78.5t-111.5 110t-43 171q0 127 82 213t205 96v203h61v-201q100 -6 164 -47t115 -96l-41 -41q-57 59 -114.5 93t-155.5 34q-111 0 -180.5 -72.5 t-69.5 -177.5q0 -94 43 -153.5t111.5 -98.5t144.5 -73.5t144.5 -82t111.5 -122t43 -195.5q0 -145 -91 -231t-225 -97v-200h-61v202q-109 8 -196 56.5t-144 101.5z" />
<glyph unicode="%" horiz-adv-x="1634" d="M86 954q0 203 76 312.5t207 109.5q133 0 207.5 -109.5t74.5 -312.5q0 -205 -74.5 -315.5t-207.5 -110.5q-131 0 -207 111t-76 315zM147 954q0 -174 61 -273t161 -99q102 0 161.5 99t59.5 273q0 176 -59.5 272.5t-161.5 96.5q-100 0 -161 -96t-61 -273zM401 -25l758 1401 h65l-757 -1401h-66zM983 401q0 203 76 312.5t207 109.5q133 0 207.5 -109.5t74.5 -312.5q0 -205 -74.5 -315.5t-207.5 -110.5q-131 0 -207 111t-76 315zM1044 401q0 -174 61 -273t161 -99q102 0 161.5 99t59.5 273q0 176 -59.5 272.5t-161.5 96.5q-100 0 -161 -96t-61 -273z " />
<glyph unicode="&#x26;" horiz-adv-x="1150" d="M78 340q0 88 40 157.5t104.5 130t135.5 113.5q-43 88 -67.5 174t-24.5 166q0 129 75 212t191 83q104 0 158.5 -67.5t54.5 -169.5q0 -86 -46 -156t-118.5 -131t-150.5 -121q72 -137 176.5 -267t210.5 -228q78 96 132.5 212.5t90.5 251.5h62q-39 -141 -99.5 -270 t-142.5 -231q143 -119 266 -166l-24 -58q-61 23 -132 67t-149 110q-74 -78 -161.5 -127.5t-200.5 -49.5q-102 0 -189.5 44t-139.5 126t-52 195zM143 344q0 -94 44 -163.5t117 -108.5t159 -39q90 0 170 44t145 113q-111 102 -216 233.5t-179 270.5q-96 -76 -168 -158.5 t-72 -191.5zM328 1085q0 -72 21.5 -149.5t58.5 -157.5q72 53 134 107.5t102 115t40 134.5q0 68 -35 126t-121 58q-94 0 -147 -69t-53 -165z" />
<glyph unicode="'" horiz-adv-x="425" d="M172 1298v123h78v-123l-12 -286h-54z" />
<glyph unicode="(" horiz-adv-x="552" d="M184 569q0 270 73 496.5t198 429.5l37 -25q-123 -193 -186.5 -424t-63.5 -477t63.5 -476t186.5 -425l-37 -24q-125 203 -198 429t-73 496z" />
<glyph unicode=")" horiz-adv-x="552" d="M61 -332q123 195 186.5 425.5t63.5 475.5q0 246 -63.5 477.5t-186.5 423.5l37 25q127 -203 199 -429t72 -497q0 -270 -72 -496t-199 -429z" />
<glyph unicode="*" horiz-adv-x="790" d="M152 1257l16 50l188 -54l13 205h53l12 -201l189 50l16 -50l-180 -69l110 -176l-45 -33l-127 168l-131 -168l-45 33l111 176z" />
<glyph unicode="+" d="M70 647v58h381v417h65v-417h381v-58h-381v-418h-65v418h-381z" />
<glyph unicode="," horiz-adv-x="425" d="M98 -258q66 37 107 100.5t41 147.5q-6 -2 -12.5 -2h-12.5q-31 0 -52.5 18.5t-21.5 54.5q0 37 24 55.5t50 18.5q41 0 65.5 -33.5t24.5 -93.5q0 -104 -54 -185t-134 -130z" />
<glyph unicode="-" horiz-adv-x="602" d="M82 479v62h442v-62h-442z" />
<glyph unicode="&#xad;" horiz-adv-x="602" d="M82 479v62h442v-62h-442z" />
<glyph unicode="." horiz-adv-x="425" d="M139 53q0 41 23.5 61.5t50.5 20.5q29 0 51.5 -20.5t22.5 -61.5q0 -37 -22.5 -57.5t-51.5 -20.5q-27 0 -50.5 20.5t-23.5 57.5z" />
<glyph unicode="/" horiz-adv-x="737" d="M16 -328l656 1782h61l-655 -1782h-62z" />
<glyph unicode="0" d="M102 659q0 326 98.5 501t282.5 175t282.5 -175t98.5 -501t-98.5 -505t-282.5 -179t-282.5 179.5t-98.5 504.5zM168 659q0 -303 86 -464.5t229 -161.5q145 0 230.5 161.5t85.5 464.5q0 305 -85 462t-231 157q-143 0 -229 -156.5t-86 -462.5z" />
<glyph unicode="1" d="M176 0v57h311v1131h-233v45q78 12 138.5 32.5t103.5 45.5h53v-1254h291v-57h-664z" />
<glyph unicode="2" d="M82 1143q72 80 160 136t204 56q172 0 266.5 -98t94.5 -262q0 -133 -77 -268.5t-217 -294t-333 -363.5q55 4 110.5 6t110.5 2h471v-57h-786v41q221 227 366.5 393t217 295t71.5 246q0 127 -70.5 215t-228.5 88q-92 0 -173 -49t-142 -127z" />
<glyph unicode="3" d="M61 160l41 45q59 -63 145.5 -117.5t227.5 -54.5q139 0 229.5 85t90.5 222q0 141 -111 230t-360 89v62q156 0 248 41t132.5 108.5t40.5 149.5q0 117 -75.5 187.5t-202.5 70.5q-92 0 -172 -43t-135 -105l-41 46q66 66 150.5 112.5t197.5 46.5q96 0 174 -36.5t124 -106.5 t46 -168q0 -131 -72.5 -212t-181.5 -116v-8q82 -16 150.5 -61t110.5 -117t42 -166q0 -113 -51 -195.5t-139 -128t-199 -45.5q-104 0 -181 29t-132.5 71t-96.5 85z" />
<glyph unicode="4" d="M33 401v33l626 877h41v-852h201v-58h-201v-401h-61v401h-606zM119 459h520v516q0 43 3 108.5t5 108.5h-8q-25 -39 -51.5 -76t-55.5 -80z" />
<glyph unicode="5" d="M53 152l41 45q59 -61 143.5 -112.5t225.5 -51.5q90 0 168 47t125 131t47 195q0 166 -91 261t-245 95q-76 0 -133.5 -24.5t-116.5 -65.5l-53 33l49 606h586v-58h-529l-45 -503q53 33 111.5 53t134.5 20q111 0 201 -44t143 -135t53 -234q0 -139 -59 -236.5t-153.5 -148 t-196.5 -50.5q-104 0 -180 27t-130.5 68t-95.5 82z" />
<glyph unicode="6" d="M111 590q0 209 38.5 352t105.5 229t152 125t179 39q86 0 149.5 -33.5t112.5 -89.5l-41 -45q-45 55 -102.5 83t-122.5 28q-109 0 -201 -64.5t-148.5 -213t-56.5 -400.5q70 84 158 135t182 51q172 0 266.5 -104t94.5 -301q0 -117 -48.5 -208t-127.5 -144.5t-173 -53.5 q-197 0 -307 162t-110 453zM178 522q8 -141 47 -251.5t116 -174t191 -63.5q80 0 143.5 47t99.5 126t36 175q0 98 -30.5 177t-96.5 125t-172 46q-72 0 -161 -47t-173 -160z" />
<glyph unicode="7" d="M90 1253v58h791v-37q-119 -158 -197 -305.5t-123 -298t-67.5 -314t-30.5 -356.5h-70q10 270 54.5 483t129.5 398.5t218 371.5h-705z" />
<glyph unicode="8" d="M82 336q0 90 41 162.5t102.5 127t122.5 87.5v8q-70 47 -129 120.5t-59 178.5q0 92 45 163.5t119.5 111.5t167.5 40q166 0 257 -97t91 -243q0 -74 -32 -139t-76 -117.5t-81 -83.5v-8q55 -35 108.5 -78t87.5 -104.5t34 -149.5q0 -94 -48.5 -170.5t-136 -123t-204.5 -46.5 q-119 0 -211.5 47.5t-145.5 129t-53 184.5zM147 336q0 -84 44.5 -152.5t122.5 -109.5t178 -41q98 0 170.5 38t112.5 102.5t40 141.5q0 106 -60.5 173t-156.5 111t-201 85q-106 -61 -178 -147t-72 -201zM225 1020q0 -98 54.5 -161.5t138.5 -105.5t172 -77q90 72 137 151.5 t47 167.5q0 76 -32.5 140.5t-96 103.5t-153.5 39q-117 0 -192 -74t-75 -184z" />
<glyph unicode="9" d="M90 930q0 117 48 209t127 144t173 52q197 0 307.5 -160.5t110.5 -453.5q0 -209 -39 -352.5t-105.5 -229.5t-151.5 -125t-179 -39q-86 0 -150.5 34t-111.5 89l41 45q45 -55 103.5 -82.5t121.5 -27.5q109 0 201 64.5t148.5 213t56.5 400.5q-70 -84 -157 -135.5t-183 -51.5 q-172 0 -266.5 104.5t-94.5 301.5zM156 930q0 -98 30.5 -177t96 -125t172.5 -46q72 0 161 47t172 159q-6 143 -46 253t-115.5 173.5t-192.5 63.5q-80 0 -142.5 -47t-99 -126t-36.5 -175z" />
<glyph unicode=":" horiz-adv-x="425" d="M139 53q0 41 23.5 61.5t50.5 20.5q29 0 51.5 -20.5t22.5 -61.5q0 -37 -22.5 -57.5t-51.5 -20.5q-27 0 -50.5 20.5t-23.5 57.5zM139 852q0 41 23.5 61.5t50.5 20.5q29 0 51.5 -20.5t22.5 -61.5q0 -37 -22.5 -57.5t-51.5 -20.5q-27 0 -50.5 20.5t-23.5 57.5z" />
<glyph unicode=";" horiz-adv-x="425" d="M98 -258q66 37 107 100.5t41 147.5q-6 -2 -12.5 -2h-12.5q-31 0 -52.5 18.5t-21.5 54.5q0 37 24 55.5t50 18.5q41 0 65.5 -33.5t24.5 -93.5q0 -104 -54 -185t-134 -130zM139 852q0 41 23.5 61.5t50.5 20.5q29 0 51.5 -20.5t22.5 -61.5q0 -37 -22.5 -57.5t-51.5 -20.5 q-27 0 -50.5 20.5t-23.5 57.5z" />
<glyph unicode="&#x3c;" d="M70 643v74l827 332v-66l-491 -192l-271 -107v-8l271 -107l491 -192v-66z" />
<glyph unicode="=" d="M70 442v58h827v-58h-827zM70 852v58h827v-58h-827z" />
<glyph unicode="&#x3e;" d="M70 311v66l491 192l270 107v8l-270 107l-491 192v66l827 -332v-74z" />
<glyph unicode="?" horiz-adv-x="806" d="M74 1241q59 66 137 111t182 45q98 0 167 -42t104.5 -111.5t35.5 -153.5t-34.5 -155t-85 -135.5t-97.5 -131t-74.5 -143t-15.5 -173.5h-57q-14 104 12.5 185t72.5 148t95 128t84 127t35 145q0 66 -25.5 124.5t-80 94t-140.5 35.5q-76 0 -148.5 -34.5t-125.5 -100.5z M299 53q0 41 23.5 61.5t50.5 20.5q29 0 51 -20.5t22 -61.5q0 -37 -22 -57.5t-51 -20.5q-27 0 -50.5 20.5t-23.5 57.5z" />
<glyph unicode="@" horiz-adv-x="1642" d="M106 414q0 199 65 359.5t176.5 275t256 176t301.5 61.5q195 0 336 -80t218 -223t77 -336q0 -172 -57.5 -289.5t-141.5 -178t-166 -60.5q-80 0 -133 38t-59 117h-4q-55 -57 -116.5 -100t-133.5 -43q-92 0 -160.5 68.5t-68.5 206.5q0 72 24.5 151.5t72.5 148t118.5 111.5 t160.5 43q111 0 172 -98h5l16 82h53l-69 -377q-72 -291 127 -291q66 0 135 54.5t116.5 159t47.5 253.5q0 180 -71 311t-200 203t-303 72q-141 0 -272 -57.5t-235.5 -164t-165 -256t-60.5 -333.5q0 -199 77 -345.5t216 -226t325 -79.5q104 0 189.5 28.5t159.5 73.5l28 -49 q-172 -111 -381 -111q-197 0 -349 84t-239.5 242t-87.5 379zM557 410q0 -123 51 -172.5t121 -49.5q53 0 111.5 35t122.5 109l65 364q-39 61 -74.5 84t-85.5 23q-96 0 -165.5 -60.5t-107.5 -151.5t-38 -181z" />
<glyph unicode="A" horiz-adv-x="1064" d="M20 0l484 1352h57l483 -1352h-69l-168 483h-551l-170 -483h-66zM276 541h510l-94 270q-43 123 -81 234.5t-74 236.5h-9q-37 -125 -74.5 -236.5t-80.5 -234.5z" />
<glyph unicode="B" horiz-adv-x="1175" d="M205 0v1352h352q203 0 320.5 -81t117.5 -247q0 -106 -54 -185t-159 -110v-8q135 -20 217 -103t82 -225q0 -193 -134 -293t-365 -100h-377zM270 57h287q213 0 336 80t123 252q0 154 -120 228.5t-339 74.5h-287v-635zM270 750h246q221 0 317.5 72.5t96.5 197.5 q0 152 -102.5 213t-299.5 61h-258v-544z" />
<glyph unicode="C" horiz-adv-x="1150" d="M115 680q0 213 70.5 369.5t198.5 241.5t300 85q117 0 205 -49t139 -110l-41 -46q-55 66 -131 105t-172 39q-156 0 -267.5 -78t-172 -220.5t-60.5 -336.5q0 -195 59.5 -339t170 -224t262.5 -80q109 0 192.5 43t159.5 129l41 -41q-76 -88 -170 -140.5t-227 -52.5 q-166 0 -292 87.5t-195.5 246t-69.5 371.5z" />
<glyph unicode="D" horiz-adv-x="1228" d="M205 0v1352h303q209 0 343 -84t198.5 -235.5t64.5 -352.5t-64.5 -354.5t-198.5 -239.5t-343 -86h-303zM270 57h230q193 0 312.5 82t175.5 222.5t56 318.5t-56 317.5t-176 218t-312 78.5h-230v-1237z" />
<glyph unicode="E" horiz-adv-x="1044" d="M205 0v1352h725v-58h-660v-544h553v-58h-553v-635h680v-57h-745z" />
<glyph unicode="F" horiz-adv-x="962" d="M205 0v1352h721v-58h-656v-569h553v-57h-553v-668h-65z" />
<glyph unicode="G" horiz-adv-x="1228" d="M115 680q0 213 73.5 369.5t205.5 241.5t311 85q135 0 222 -52t138 -107l-41 -46q-51 59 -128 101.5t-191 42.5q-162 0 -279 -78t-179.5 -220.5t-62.5 -336.5q0 -195 60.5 -339t173 -224t270.5 -80q98 0 185.5 29.5t138.5 80.5v447h-336v57h401v-524q-61 -68 -160.5 -110 t-232.5 -42q-172 0 -300 87.5t-198.5 246t-70.5 371.5z" />
<glyph unicode="H" horiz-adv-x="1298" d="M205 0v1352h65v-602h758v602h66v-1352h-66v692h-758v-692h-65z" />
<glyph unicode="I" horiz-adv-x="475" d="M205 0v1352h65v-1352h-65z" />
<glyph unicode="J" horiz-adv-x="933" d="M90 168l53 33q53 -88 118 -126t153 -38q129 0 191.5 80t62.5 248v987h65v-996q0 -106 -31.5 -192t-102 -137.5t-189.5 -51.5q-106 0 -188.5 50.5t-131.5 142.5z" />
<glyph unicode="K" horiz-adv-x="1126" d="M205 0v1352h65v-779h4l689 779h81l-434 -496l492 -856h-78l-463 807l-291 -328v-479h-65z" />
<glyph unicode="L" horiz-adv-x="942" d="M205 0v1352h65v-1295h635v-57h-700z" />
<glyph unicode="M" horiz-adv-x="1429" d="M205 0v1352h106l291 -820q29 -76 56.5 -152.5t54.5 -154.5h8q29 78 54.5 155t51.5 152l291 820h107v-1352h-66v942q0 80 3 175t5 177h-8l-104 -299l-305 -843h-70l-307 843l-107 299h-8q4 -82 6 -177t2 -175v-942h-61z" />
<glyph unicode="N" horiz-adv-x="1294" d="M205 0v1352h69l598 -992l156 -266h8q-2 98 -5 192.5t-3 188.5v877h62v-1352h-70l-598 991l-156 266h-8q4 -94 6 -183t2 -185v-889h-61z" />
<glyph unicode="O" horiz-adv-x="1327" d="M115 680q0 213 70.5 369.5t194.5 241.5t284 85t283.5 -85t194 -241.5t70.5 -369.5t-70.5 -371.5t-194 -246t-283.5 -87.5t-284 87.5t-194.5 246t-70.5 371.5zM184 680q0 -195 60.5 -339t168.5 -224t251 -80t250.5 80t168 224t60.5 339t-60.5 337t-168 220t-250.5 78 t-251 -78t-168.5 -220.5t-60.5 -336.5z" />
<glyph unicode="P" horiz-adv-x="1110" d="M205 0v1352h323q231 0 357.5 -83t126.5 -286q0 -193 -124 -289t-351 -96h-267v-598h-65zM270 655h242q219 0 324.5 77t105.5 251q0 178 -108.5 244.5t-329.5 66.5h-234v-639z" />
<glyph unicode="Q" horiz-adv-x="1327" d="M115 680q0 213 70.5 369.5t194.5 241.5t284 85t283.5 -85t194 -241.5t70.5 -369.5q0 -205 -65.5 -359.5t-181 -243.5t-267.5 -100q45 -106 136.5 -164.5t222.5 -58.5q47 0 78.5 5t56.5 12l16 -62q-25 -6 -66.5 -13t-88.5 -7q-164 0 -273.5 82t-156.5 206 q-147 12 -262 101.5t-180.5 244t-65.5 357.5zM184 680q0 -195 60.5 -340t168.5 -226t251 -81t250.5 81t168 226t60.5 340t-60.5 337t-168 220t-250.5 78t-251 -78t-168.5 -220.5t-60.5 -336.5z" />
<glyph unicode="R" horiz-adv-x="1093" d="M205 0v1352h373q201 0 317.5 -80t116.5 -268q0 -162 -97.5 -253.5t-267.5 -107.5l385 -643h-78l-381 639h-303v-639h-65zM270 696h283q188 0 288.5 76t100.5 232q0 160 -100.5 225t-288.5 65h-283v-598z" />
<glyph unicode="S" horiz-adv-x="1056" d="M98 180l45 45q74 -86 178.5 -137t227.5 -51q164 0 260 81t96 210q0 90 -34.5 144t-91 89t-124.5 66l-209 94q-57 27 -120.5 65.5t-108.5 102t-45 164.5q0 96 50 168.5t136 113.5t195 41q123 0 217 -48t152 -111l-41 -46q-57 66 -140.5 105t-187.5 39q-141 0 -228 -70.5 t-87 -187.5q0 -84 38.5 -136.5t95 -84t103.5 -54.5l209 -94q76 -33 140.5 -76t105.5 -109.5t41 -170.5q0 -102 -52.5 -183t-147.5 -127.5t-222 -46.5q-150 0 -261.5 58.5t-189.5 146.5z" />
<glyph unicode="T" horiz-adv-x="1064" d="M61 1294v58h943v-58h-439v-1294h-65v1294h-439z" />
<glyph unicode="U" horiz-adv-x="1290" d="M201 504v848h65v-832q0 -186 53.5 -291.5t139.5 -148.5t184 -43q100 0 188.5 43t142.5 148.5t54 291.5v832h62v-848q0 -156 -39 -259.5t-103.5 -161.5t-143.5 -83t-161 -25t-161 25t-142.5 83t-101 161.5t-37.5 259.5z" />
<glyph unicode="V" horiz-adv-x="987" d="M12 1352h70l262 -811q41 -125 73 -228.5t75 -228.5h8q43 125 75.5 228.5t71.5 228.5l262 811h66l-447 -1352h-65z" />
<glyph unicode="W" horiz-adv-x="1564" d="M61 1352h70l180 -820l99 -442h8q25 111 52.5 221.5t53.5 220.5l221 820h74l221 -820l111 -442h8q25 111 47.5 221.5t46.5 220.5l181 820h65l-311 -1352h-66l-262 971q-18 80 -36.5 151.5t-37.5 151.5h-8q-18 -80 -38.5 -151.5t-39.5 -151.5l-258 -971h-65z" />
<glyph unicode="X" horiz-adv-x="962" d="M37 0l409 700l-380 652h69l238 -418q29 -45 53.5 -85t56.5 -95h9q31 55 53 95t49 85l237 418h66l-381 -656l410 -696h-70l-250 434q-27 49 -58.5 100.5t-68.5 112.5h-8q-33 -61 -61.5 -112.5t-57.5 -100.5l-250 -434h-65z" />
<glyph unicode="Y" horiz-adv-x="892" d="M8 1352h70l217 -439q37 -74 72.5 -145.5t74.5 -144.5h9q41 74 79.5 145.5t71.5 144.5l217 439h66l-406 -795v-557h-65v557z" />
<glyph unicode="Z" horiz-adv-x="1101" d="M106 0v37l803 1257h-733v58h815v-37l-803 -1258h811v-57h-893z" />
<glyph unicode="[" horiz-adv-x="552" d="M205 -311v1761h311v-45h-262v-1671h262v-45h-311z" />
<glyph unicode="\" horiz-adv-x="737" d="M4 1454h62l655 -1782h-62z" />
<glyph unicode="]" horiz-adv-x="552" d="M37 -266h262v1671h-262v45h311v-1761h-311v45z" />
<glyph unicode="^" d="M139 598l307 774h74l307 -774h-65l-168 438l-107 271h-8l-106 -271l-168 -438h-66z" />
<glyph unicode="_" horiz-adv-x="1024" d="M25 -168h974v-65h-974v65z" />
<glyph unicode="`" horiz-adv-x="1089" d="M332 1483l49 41l270 -316l-36 -32z" />
<glyph unicode="a" horiz-adv-x="995" d="M123 240q0 164 155.5 248.5t487.5 121.5v16q0 72 -16 142q-18 78 -70.5 128t-155.5 50q-104 0 -188 -41t-131 -78l-33 50q31 23 84 52t123 52t149 23q115 0 180.5 -51.5t92 -135.5t26.5 -182v-635h-53l-8 131h-4q-76 -61 -167 -108.5t-189 -47.5q-76 0 -140.5 28 t-103.5 86t-39 151zM188 242q0 -113 67 -161t155 -48q90 0 174 43t182 125v356q-215 -25 -341 -66.5t-181.5 -103t-55.5 -145.5z" />
<glyph unicode="b" horiz-adv-x="1101" d="M197 0v1479h61v-439l-4 -196q78 66 167 113t181 47q201 0 297 -136.5t96 -363.5q0 -166 -60.5 -284t-158.5 -181.5t-215 -63.5q-70 0 -148.5 34t-150.5 89h-4l-8 -98h-53zM258 168q86 -74 168 -104.5t139 -30.5q106 0 188.5 60.5t129.5 167t47 243.5q0 125 -33 225 t-105.5 158.5t-193.5 58.5q-76 0 -162 -44t-178 -128v-606z" />
<glyph unicode="c" horiz-adv-x="913" d="M111 487q0 164 61 280t160.5 176.5t216.5 60.5q102 0 169.5 -38t117.5 -85l-41 -45q-49 47 -108.5 78.5t-137.5 31.5q-104 0 -188.5 -58.5t-134.5 -161.5t-50 -239q0 -135 46 -237.5t130 -159.5t197 -57q84 0 153.5 34.5t120.5 84.5l37 -46q-61 -55 -138 -93t-173 -38 q-125 0 -224.5 60.5t-156.5 175.5t-57 276z" />
<glyph unicode="d" horiz-adv-x="1105" d="M111 487q0 158 60 274t159.5 179.5t218.5 63.5q90 0 158.5 -32t144.5 -91l-4 184v414h61v-1479h-53l-8 131h-4q-61 -61 -143.5 -108.5t-184.5 -47.5q-184 0 -294.5 132.5t-110.5 379.5zM176 487q0 -203 89 -328.5t255 -125.5q86 0 166 45t162 127v606 q-82 74 -153.5 104.5t-149.5 30.5q-104 0 -187.5 -61.5t-132.5 -166t-49 -231.5z" />
<glyph unicode="e" horiz-adv-x="978" d="M111 487q0 160 60 276t156.5 178.5t204.5 62.5q170 0 269.5 -116t99.5 -335v-30.5t-4 -35.5h-721q0 -131 48 -233t134 -161.5t203 -59.5q84 0 149.5 25.5t120.5 64.5l29 -53q-55 -33 -123.5 -64t-179.5 -31q-123 0 -224.5 61.5t-161.5 176.5t-60 274zM176 545h664 q0 203 -84 302t-224 99q-88 0 -165.5 -48t-129 -138t-61.5 -215z" />
<glyph unicode="f" horiz-adv-x="516" d="M70 922v49l135 8v242q0 145 60.5 213.5t164.5 68.5q63 0 135 -33l-20 -53q-31 16 -60.5 22.5t-58.5 6.5q-82 0 -121 -61.5t-39 -172.5v-233h234v-57h-234v-922h-61v922h-135z" />
<glyph unicode="g" horiz-adv-x="983" d="M111 -205q0 66 39.5 129.5t107.5 112.5v8q-37 23 -61.5 61.5t-24.5 94.5q0 68 38 113.5t69 66.5v8q-45 41 -84 111.5t-39 158.5q0 98 45 176t120.5 123.5t170.5 45.5q41 0 73.5 -7.5t52.5 -17.5h328v-57h-237q53 -43 85.5 -111t32.5 -152q0 -98 -45 -177t-120.5 -125 t-169.5 -46q-43 0 -88.5 12.5t-79.5 32.5q-33 -27 -59.5 -62.5t-26.5 -88.5q0 -55 39.5 -95t152.5 -40h217q164 0 240 -53.5t76 -168.5q0 -82 -55.5 -156.5t-157 -122.5t-238.5 -48q-186 0 -293.5 75.5t-107.5 198.5zM176 -201q0 -98 89 -159.5t251 -61.5q117 0 202 39 t132 100.5t47 126.5q0 86 -60.5 123t-177.5 37h-225q-8 0 -43 4t-76 12q-74 -49 -106.5 -107t-32.5 -114zM221 659q0 -86 38 -151.5t99.5 -102t133.5 -36.5t133 36.5t99 102t38 151.5q0 88 -37 151.5t-98.5 99.5t-134.5 36q-111 0 -191 -76.5t-80 -210.5z" />
<glyph unicode="h" horiz-adv-x="1069" d="M197 0v1479h61v-660q80 80 162 132.5t182 52.5q152 0 223.5 -91.5t71.5 -281.5v-631h-61v623q0 164 -55.5 243.5t-182.5 79.5q-92 0 -168 -49t-172 -147v-750h-61z" />
<glyph unicode="i" horiz-adv-x="454" d="M163 1303q0 31 19.5 50t46.5 19q29 0 47.5 -19.5t18.5 -49.5q0 -33 -18.5 -53.5t-47.5 -20.5q-27 0 -46.5 20.5t-19.5 53.5zM197 0v979h61v-979h-61z" />
<glyph unicode="j" horiz-adv-x="454" d="M-61 -455l16 54q18 -6 47 -13.5t59 -7.5q86 0 111 63.5t25 157.5v1180h61v-1188q0 -141 -49.5 -205.5t-151.5 -64.5q-31 0 -63.5 8t-54.5 16zM159 1303q0 31 19.5 50t46.5 19q29 0 47.5 -19.5t18.5 -49.5q0 -33 -18.5 -53.5t-47.5 -20.5q-27 0 -46.5 20.5t-19.5 53.5z " />
<glyph unicode="k" horiz-adv-x="925" d="M197 0v1479h61v-1123h4l508 623h74l-316 -385l373 -594h-70l-339 545l-234 -275v-270h-61z" />
<glyph unicode="l" horiz-adv-x="471" d="M197 106v1373h61v-1385q0 -61 41 -61q6 0 14.5 1t22.5 3l12 -53q-12 -2 -23.5 -5.5t-29.5 -3.5q-45 0 -71.5 31t-26.5 100z" />
<glyph unicode="m" horiz-adv-x="1650" d="M197 0v979h53l8 -156h4q68 78 150 129.5t161 51.5q121 0 183.5 -56.5t87.5 -148.5q86 96 170 150.5t166 54.5q145 0 217.5 -91.5t72.5 -281.5v-631h-61v623q0 323 -232 323h-1q-74 0 -150 -49t-162 -147v-750h-61v623q0 323 -233 323h-1q-139 0 -311 -196v-750h-61z" />
<glyph unicode="n" horiz-adv-x="1077" d="M197 0v979h53l8 -156h4q78 78 159 129.5t181 51.5q152 0 223.5 -91.5t71.5 -281.5v-631h-61v623q0 164 -55.5 243.5t-182.5 79.5q-92 0 -168 -49t-172 -147v-750h-61z" />
<glyph unicode="o" horiz-adv-x="1089" d="M111 487q0 164 59 280t158.5 176.5t216.5 60.5t215 -60.5t158.5 -176.5t60.5 -280q0 -162 -60.5 -276.5t-158.5 -175t-215 -60.5t-216.5 60.5t-158.5 175.5t-59 276zM176 487q0 -135 49 -237.5t132.5 -159.5t187.5 -57t188 57t132 159.5t48 237.5t-48 238.5t-132 162 t-188 58.5t-187.5 -58.5t-132.5 -161.5t-49 -239z" />
<glyph unicode="p" horiz-adv-x="1105" d="M197 -455v1434h53l8 -127h4q74 59 161 105.5t179 46.5q201 0 297 -136.5t96 -363.5q0 -166 -60.5 -284t-158.5 -181.5t-215 -63.5q-70 0 -146.5 33t-156.5 90v-553h-61zM258 168q90 -74 170 -104.5t137 -30.5q106 0 188.5 60.5t129.5 167t47 243.5q0 125 -33 225 t-105.5 158.5t-193.5 58.5q-76 0 -160 -44t-180 -128v-606z" />
<glyph unicode="q" horiz-adv-x="1105" d="M111 487q0 158 60 274t159.5 179.5t218.5 63.5q90 0 157.5 -31t137.5 -84h4l8 90h53v-1434h-61v389l4 201q-68 -63 -151 -111.5t-185 -48.5q-184 0 -294.5 132.5t-110.5 379.5zM176 487q0 -203 89 -328.5t255 -125.5q86 0 166 45t162 127v606q-82 74 -153.5 104.5 t-149.5 30.5q-104 0 -187.5 -61.5t-132.5 -166t-49 -231.5z" />
<glyph unicode="r" horiz-adv-x="626" d="M197 0v979h53l8 -184h4q49 90 120 149.5t159 59.5q25 0 47 -5t47 -16l-17 -57q-25 10 -41 13t-45 3q-68 0 -141.5 -58.5t-132.5 -203.5v-680h-61z" />
<glyph unicode="s" horiz-adv-x="819" d="M70 111l41 49q61 -51 134.5 -89t184.5 -38q123 0 186.5 63.5t63.5 145.5q0 66 -38 108.5t-94 71.5t-114 49q-76 27 -147.5 59.5t-117.5 84t-46 135.5q0 102 79 178t228 76q74 0 146.5 -28t123.5 -71l-36 -49q-49 37 -104.5 63.5t-133.5 26.5q-123 0 -180.5 -60.5 t-57.5 -131.5q0 -59 33 -97.5t85 -64t112 -47.5q78 -31 153.5 -62.5t124.5 -86t49 -150.5q0 -72 -36.5 -133.5t-108.5 -99.5t-174 -38q-111 0 -201 40t-155 96z" />
<glyph unicode="t" horiz-adv-x="618" d="M61 922v49l156 8l8 287h54v-287h290v-57h-290v-672q0 -94 32.5 -155.5t139.5 -61.5q29 0 64.5 10t62.5 23l20 -54q-43 -14 -85 -25.5t-67 -11.5q-135 0 -182 79t-47 204v664h-156z" />
<glyph unicode="u" horiz-adv-x="1073" d="M180 348v631h62v-623q0 -162 56 -242.5t181 -80.5q92 0 168 51t168 162v733h62v-979h-54l-8 168h-4q-74 -86 -154 -139.5t-182 -53.5q-150 0 -222.5 91.5t-72.5 281.5z" />
<glyph unicode="v" horiz-adv-x="864" d="M25 979h69l234 -635q25 -70 51.5 -141.5t50.5 -136.5h8q25 66 51.5 137t51.5 141l233 635h66l-369 -979h-74z" />
<glyph unicode="w" horiz-adv-x="1376" d="M49 979h70l188 -660q18 -68 36.5 -130t33.5 -128h8q18 66 36.5 128.5t37.5 129.5l188 660h86l189 -660q18 -68 36.5 -130t36.5 -128h9q18 66 36.5 128.5t36.5 129.5l185 660h65l-287 -979h-86l-184 639q-20 72 -37.5 140.5t-40.5 138.5h-8q-18 -70 -37.5 -140.5 t-44.5 -142.5l-180 -635h-78z" />
<glyph unicode="x" horiz-adv-x="802" d="M29 0l336 512l-308 467h70l168 -262q25 -39 52.5 -79t53.5 -81h9q29 41 54 81t52 79l164 262h65l-307 -471l336 -508h-69l-185 283q-27 47 -57.5 92t-61.5 88h-8q-31 -43 -59.5 -88t-59.5 -92l-180 -283h-65z" />
<glyph unicode="y" horiz-adv-x="868" d="M25 979h69l250 -643q25 -61 54.5 -135t56.5 -140h8q25 66 49.5 139.5t44.5 135.5l221 643h66l-393 -1118q-25 -76 -67 -148.5t-103.5 -120t-145.5 -47.5q-53 0 -94 21l16 57q16 -6 39 -11t43 -5q92 0 157.5 80t104.5 198l29 90z" />
<glyph unicode="z" horiz-adv-x="811" d="M53 0v33l602 889h-536v57h618v-33l-602 -889h623v-57h-705z" />
<glyph unicode="{" horiz-adv-x="552" d="M74 545v49q72 0 109.5 23.5t52 61.5t14.5 79q0 111 -8.5 216t-8.5 218q0 154 55.5 206t166.5 52h61v-45h-65q-98 0 -131 -55.5t-33 -165.5q0 -100 6 -193.5t6 -208.5q0 -86 -19.5 -138t-78.5 -71v-8q59 -18 78.5 -71.5t19.5 -137.5q0 -113 -6 -206t-6 -195 q0 -111 32.5 -166t131.5 -55h65v-45h-61q-111 0 -166.5 52t-55.5 206q0 115 8.5 219t8.5 211q0 66 -34 117t-142 51z" />
<glyph unicode="|" horiz-adv-x="450" d="M197 -512v2048h57v-2048h-57z" />
<glyph unicode="}" horiz-adv-x="552" d="M37 -266h65q98 0 131 55t33 166q0 102 -6 195.5t-6 205.5q0 84 20.5 137.5t77.5 71.5v8q-57 18 -77.5 70.5t-20.5 138.5q0 115 6 208t6 194q0 111 -32.5 166t-131.5 55h-65v45h61q111 0 166 -52t55 -206q0 -113 -8 -218.5t-8 -215.5q0 -41 14.5 -79t52.5 -61.5t109 -23.5 v-49q-106 0 -141 -51.5t-35 -116.5q0 -106 8 -211t8 -219q0 -154 -55 -206t-166 -52h-61v45z" />
<glyph unicode="~" d="M86 635q41 84 98.5 124t114.5 40q59 0 107.5 -29t92.5 -65.5t86 -65.5t87 -29q47 0 87 29t77 102l45 -28q-39 -80 -96.5 -120t-116.5 -40q-57 0 -106.5 28.5t-93.5 65.5t-86 65.5t-87 28.5t-86 -28.5t-78 -102.5z" />
<glyph unicode="&#xa1;" horiz-adv-x="507" d="M180 926q0 37 23.5 57.5t50.5 20.5q29 0 51.5 -20.5t22.5 -57.5q0 -39 -22.5 -60.5t-51.5 -21.5q-27 0 -50.5 21.5t-23.5 60.5zM221 -266l8 893h50l8 -893v-127h-66v127z" />
<glyph unicode="&#xa2;" d="M127 639q0 141 53 240.5t141.5 157t194.5 67.5v231h57v-229q98 -2 165 -40t114 -83l-37 -41q-49 47 -109.5 77t-132.5 30v-820q80 2 147.5 36t119.5 79l37 -41q-61 -55 -137 -93t-167 -38v-225h-57v227q-168 16 -278.5 136t-110.5 329zM193 639q0 -170 88 -280.5 t235 -127.5v813q-92 -10 -164.5 -64t-115.5 -141t-43 -200z" />
<glyph unicode="&#xa3;" d="M111 606v53l135 5h53q-23 84 -46.5 164.5t-23.5 166.5q0 158 90.5 249t245.5 91q104 0 174 -44t113 -99l-45 -41q-43 53 -101.5 90t-144.5 37q-131 0 -198.5 -82t-67.5 -197q0 -88 24.5 -168.5t47.5 -166.5h342v-58h-330q18 -74 18 -160q0 -135 -41 -222t-114 -158v-9 h614v-57h-737v37q117 68 167 179.5t50 229.5q0 41 -5 81t-16 79h-204z" />
<glyph unicode="&#xa4;" d="M66 287l135 139q-37 49 -57.5 111.5t-20.5 134.5q0 76 20.5 139t57.5 113l-135 141l40 45l136 -141q100 96 241 96q139 0 242 -96l135 141l41 -45l-137 -141q37 -49 58.5 -112.5t21.5 -139.5q0 -72 -21.5 -134.5t-56.5 -111.5l135 -139l-41 -45l-135 139 q-47 -47 -110.5 -72.5t-131.5 -25.5q-141 0 -243 98l-134 -139zM188 672q0 -98 41 -173t107.5 -117t146.5 -42t147.5 42t107.5 116.5t40 173.5q0 98 -40 174t-107.5 119t-147.5 43t-146.5 -43t-107.5 -119t-41 -174z" />
<glyph unicode="&#xa5;" d="M66 1311h69l205 -414q35 -68 68.5 -136.5t70.5 -146.5h8q41 78 74 146.5t70 136.5l205 414h65l-364 -701h323v-57h-348v-152h348v-57h-348v-344h-61v344h-345v57h345v152h-345v57h320z" />
<glyph unicode="&#xa6;" horiz-adv-x="450" d="M197 455h57v-967h-57v967zM197 561v975h57v-975h-57z" />
<glyph unicode="&#xa7;" d="M106 729q0 102 54.5 163.5t130.5 104.5q-33 31 -51.5 72t-18.5 94t29 106.5t87 88.5t150 35q80 0 150 -30t125 -77l-37 -45q-49 41 -103.5 67.5t-134.5 26.5q-111 0 -157.5 -53t-46.5 -115q0 -72 42 -116.5t107.5 -76.5t139 -62.5t139 -71.5t107.5 -101.5t42 -156.5 q0 -104 -50 -162t-128 -98q33 -33 52.5 -75t19.5 -100q0 -72 -40 -127t-103.5 -86.5t-135.5 -31.5q-104 0 -182 35.5t-137 87.5l45 45q53 -49 114.5 -80t159.5 -31t157.5 55.5t59.5 128.5q0 74 -42 121t-108.5 80t-142 63.5t-142.5 69.5t-109 99.5t-42 152.5zM168 733 q0 -86 47 -139t121 -89t152.5 -67.5t142.5 -77.5q80 37 124 83t44 135q0 88 -47 143t-120 92t-152 69.5t-142 75.5q-76 -41 -123 -91t-47 -134z" />
<glyph unicode="&#xa8;" horiz-adv-x="1089" d="M303 1298q0 29 19.5 47.5t46.5 18.5q29 0 47 -18.5t18 -47.5q0 -27 -18 -46t-47 -19q-27 0 -46.5 19.5t-19.5 45.5zM656 1298q0 29 19.5 47.5t45.5 18.5q29 0 47.5 -18.5t18.5 -47.5q0 -27 -18.5 -46t-47.5 -19q-27 0 -46 19.5t-19 45.5z" />
<glyph unicode="&#xa9;" horiz-adv-x="1515" d="M106 659q0 154 51.5 279t142.5 213t209 136t249 48q133 0 249.5 -48t208 -136t142.5 -213t51 -279q0 -156 -51 -281.5t-142.5 -215.5t-208 -138.5t-249.5 -48.5q-131 0 -249 48.5t-209 138.5t-142.5 216t-51.5 281zM168 659q0 -141 47 -256.5t129 -199.5t188.5 -129 t225.5 -45t225.5 45t188 129t129 199.5t47.5 256.5q0 139 -47.5 254t-129 198t-188 127t-225.5 44t-225.5 -44t-188.5 -127t-129 -197.5t-47 -254.5zM414 659q0 119 51 204t134 131t179 46q80 0 136.5 -30.5t105.5 -79.5l-37 -45q-49 47 -96 70.5t-113 23.5q-125 0 -208 -87 t-83 -233q0 -160 79 -252t208 -92q78 0 137.5 31t108.5 76l33 -45q-55 -51 -118 -87t-165 -36q-94 0 -174 47t-129 138t-49 220z" />
<glyph unicode="&#xaa;" horiz-adv-x="684" d="M90 1008q0 109 102.5 165t323.5 76q0 84 -28.5 142.5t-118.5 58.5q-63 0 -127 -26.5t-99 -51.5l-24 45q37 25 105.5 55.5t148.5 30.5q117 0 158.5 -69.5t41.5 -180.5v-413h-45l-12 82h-8q-43 -37 -98 -68t-123 -31q-86 0 -141.5 48.5t-55.5 136.5zM152 1012 q0 -70 39.5 -102.5t107.5 -32.5q49 0 104.5 25.5t112.5 80.5v221q-203 -20 -283.5 -69.5t-80.5 -122.5z" />
<glyph unicode="&#xab;" horiz-adv-x="794" d="M86 487v58l283 336l41 -37l-254 -328l254 -332l-41 -32zM360 487v58l283 336l41 -37l-254 -328l254 -332l-41 -32z" />
<glyph unicode="&#xac;" d="M70 647v58h827v-476h-66v418h-761z" />
<glyph unicode="&#xae;" horiz-adv-x="802" d="M33 1061q0 119 50 208t134 139t184 50t184.5 -50t134.5 -139t50 -208t-50 -207t-134.5 -137t-184.5 -49t-184 49t-134 137t-50 207zM90 1061q0 -98 42 -175t112.5 -121t156.5 -44t157 44t113 121t42 175t-42 176t-113 123t-157 45t-156.5 -45t-112.5 -123t-42 -176z M266 856v426h135q59 0 107.5 -26.5t48.5 -104.5q0 -39 -23.5 -71.5t-58.5 -43.5l103 -180h-70l-82 160h-102v-160h-58zM324 1069h61q49 0 80 17.5t31 60.5q0 37 -21.5 59.5t-81.5 22.5h-69v-160z" />
<glyph unicode="&#xaf;" horiz-adv-x="1089" d="M299 1245v58h492v-58h-492z" />
<glyph unicode="&#xb0;" horiz-adv-x="622" d="M86 1163q0 115 69.5 176.5t155.5 61.5t156 -61.5t70 -176.5q0 -111 -70 -172t-156 -61t-155.5 61.5t-69.5 171.5zM143 1163q0 -76 47 -128t121 -52t121 52t47 128q0 80 -47 132.5t-121 52.5t-121 -52.5t-47 -132.5z" />
<glyph unicode="&#xb1;" d="M70 0v57h827v-57h-827zM70 639v57h381v426h65v-426h381v-57h-381v-430h-65v430h-381z" />
<glyph unicode="&#xb2;" horiz-adv-x="737" d="M102 1516q35 59 99.5 103t138.5 44q109 0 175.5 -61.5t66.5 -188.5q0 -86 -46.5 -164.5t-128 -163.5t-190.5 -192h414v-53h-512v41q141 133 230 225t130 163t41 140q0 92 -50 146.5t-134 54.5q-57 0 -107.5 -39t-85.5 -92z" />
<glyph unicode="&#xb3;" horiz-adv-x="737" d="M86 967l49 37q37 -57 98.5 -96t131.5 -39q80 0 138 47t58 133q0 84 -80 128t-215 44v49q127 0 194.5 55.5t67.5 124.5q0 72 -48 116t-132 44q-49 0 -98 -30.5t-90 -80.5l-41 37q41 53 100.5 90t132.5 37q98 0 168 -55t70 -154q0 -76 -46 -128t-114 -76 q74 -12 133.5 -63.5t59.5 -137.5q0 -111 -76 -172.5t-187 -61.5q-92 0 -162.5 47.5t-111.5 104.5z" />
<glyph unicode="&#xb4;" horiz-adv-x="1089" d="M439 1208l270 316l49 -41l-283 -307z" />
<glyph unicode="&#xb5;" horiz-adv-x="1097" d="M197 -369v1348h61v-623q0 -150 53.5 -236.5t175.5 -86.5q53 0 106.5 15t111 67.5t118.5 158.5v705h62q-2 -221 -3 -436t-1 -437q0 -37 16 -55t41 -18q14 0 26.5 3t30.5 9l13 -53q-14 -6 -33 -11.5t-41 -5.5q-68 0 -90.5 50.5t-20.5 162.5h-4q-68 -111 -149.5 -162 t-173.5 -51q-80 0 -141.5 27t-104.5 109v-192t2 -139.5t6 -148.5h-61z" />
<glyph unicode="&#xb6;" horiz-adv-x="1019" d="M86 930q0 152 59.5 245t166 135t245.5 42h90v-840h-53q-152 0 -266.5 41t-178 133t-63.5 244zM758 -164v1516h65v-1516h-65z" />
<glyph unicode="&#xb7;" horiz-adv-x="425" d="M139 659q0 41 23.5 61.5t50.5 20.5q29 0 51.5 -20.5t22.5 -61.5q0 -37 -22.5 -57.5t-51.5 -20.5q-27 0 -50.5 20.5t-23.5 57.5z" />
<glyph unicode="&#xb8;" horiz-adv-x="1089" d="M401 -389q135 10 184.5 37.5t49.5 72.5q0 47 -38 71t-122 36l82 176h57l-61 -139q66 -14 104.5 -46t38.5 -93q0 -150 -283 -168z" />
<glyph unicode="&#xb9;" horiz-adv-x="737" d="M197 1516v45q106 23 172 78h53v-799h-57v676h-168z" />
<glyph unicode="&#xba;" horiz-adv-x="733" d="M70 1163q0 164 86 252t209 88t208.5 -88t85.5 -252q0 -160 -85.5 -250t-208.5 -90t-209 90.5t-86 249.5zM131 1163q0 -125 65 -205.5t169 -80.5t168.5 80.5t64.5 205.5q0 129 -64.5 208t-168.5 79t-169 -79t-65 -208z" />
<glyph unicode="&#xbb;" horiz-adv-x="794" d="M111 184l254 332l-254 328l41 37l282 -336v-58l-282 -335zM385 184l254 332l-254 328l41 37l282 -336v-58l-282 -335z" />
<glyph unicode="&#xbc;" horiz-adv-x="1552" d="M156 1229v45q106 23 172 78h53v-799h-57v676h-168zM360 -25l758 1401h65l-757 -1401h-66zM913 242v32l373 525h45v-504h119v-53h-119v-242h-57v242h-361zM995 295h279v192l8 209h-8l-119 -172z" />
<glyph unicode="&#xbd;" horiz-adv-x="1593" d="M156 1229v45q106 23 172 78h53v-799h-57v676h-168zM311 -25l758 1401h65l-757 -1401h-66zM958 676q35 59 99.5 103t138.5 44q109 0 175.5 -61.5t66.5 -188.5q0 -86 -46.5 -164.5t-128 -163.5t-190.5 -192h414v-53h-512v41q141 133 230 225t130 163t41 140q0 92 -50 146.5 t-134 54.5q-57 0 -107.5 -39t-85.5 -92z" />
<glyph unicode="&#xbe;" horiz-adv-x="1593" d="M86 680l49 37q37 -57 98.5 -96t131.5 -39q80 0 138 47t58 133q0 84 -80 128t-215 44v49q127 0 194.5 55.5t67.5 124.5q0 72 -48 116t-132 44q-49 0 -98 -30.5t-90 -80.5l-41 37q41 53 100.5 90t132.5 37q98 0 168 -55t70 -154q0 -76 -46 -128t-114 -76 q74 -12 133.5 -63.5t59.5 -137.5q0 -111 -76 -172.5t-187 -61.5q-92 0 -162.5 47.5t-111.5 104.5zM463 -25l758 1401h65l-757 -1401h-66zM954 242v32l373 525h45v-504h119v-53h-119v-242h-57v242h-361zM1036 295h279v192l8 209h-8l-119 -172z" />
<glyph unicode="&#xbf;" horiz-adv-x="806" d="M106 -111q0 84 35 155t85 135.5t97.5 131t75 143t15.5 173.5h57q14 -104 -12.5 -185.5t-72.5 -148t-95 -128t-84 -127t-35 -144.5q0 -66 25.5 -124.5t80 -94t140.5 -35.5q78 0 150.5 35.5t123.5 99.5l41 -37q-57 -63 -136 -109.5t-183 -46.5q-98 0 -167 42t-105 111.5 t-36 153.5zM360 926q0 37 24 57.5t50 20.5q29 0 51.5 -20.5t22.5 -57.5q0 -39 -22.5 -60.5t-51.5 -21.5q-27 0 -50.5 21.5t-23.5 60.5z" />
<glyph unicode="&#xc0;" horiz-adv-x="1064" d="M20 0l484 1352h57l483 -1352h-69l-168 483h-551l-170 -483h-66zM276 541h510l-94 270q-43 123 -81 234.5t-74 236.5h-9q-37 -125 -74.5 -236.5t-80.5 -234.5zM319 1683l45 50l242 -246l-29 -33z" />
<glyph unicode="&#xc1;" horiz-adv-x="1064" d="M20 0l484 1352h57l483 -1352h-69l-168 483h-551l-170 -483h-66zM276 541h510l-94 270q-43 123 -81 234.5t-74 236.5h-9q-37 -125 -74.5 -236.5t-80.5 -234.5zM458 1487l242 246l45 -50l-258 -229z" />
<glyph unicode="&#xc2;" horiz-adv-x="1064" d="M20 0l484 1352h57l483 -1352h-69l-168 483h-551l-170 -483h-66zM266 1487l237 233h58l237 -233l-28 -33l-234 205h-8l-234 -205zM276 541h510l-94 270q-43 123 -81 234.5t-74 236.5h-9q-37 -125 -74.5 -236.5t-80.5 -234.5z" />
<glyph unicode="&#xc3;" horiz-adv-x="1064" d="M20 0l484 1352h57l483 -1352h-69l-168 483h-551l-170 -483h-66zM204 1487q4 88 46 152.5t122 64.5q59 0 101.5 -25.5t75 -58.5t65.5 -58.5t78 -25.5q47 0 78.5 45t40.5 119l49 -4q-2 -88 -45 -152.5t-123 -64.5q-59 0 -100.5 25.5t-74 58t-66.5 58.5t-79 26 q-47 0 -79.5 -45.5t-39.5 -118.5zM276 541h510l-94 270q-43 123 -81 234.5t-74 236.5h-9q-37 -125 -74.5 -236.5t-80.5 -234.5z" />
<glyph unicode="&#xc4;" horiz-adv-x="1064" d="M20 0l484 1352h57l483 -1352h-69l-168 483h-551l-170 -483h-66zM270 1556q0 31 19.5 48.5t45.5 17.5q29 0 47.5 -17.5t18.5 -48.5t-18.5 -48t-47.5 -17q-27 0 -46 17.5t-19 47.5zM276 541h510l-94 270q-43 123 -81 234.5t-74 236.5h-9q-37 -125 -74.5 -236.5 t-80.5 -234.5zM663 1556q0 31 19.5 48.5t46.5 17.5q29 0 47 -17.5t18 -48.5t-18 -48t-47 -17q-27 0 -46.5 17.5t-19.5 47.5z" />
<glyph unicode="&#xc5;" horiz-adv-x="1064" d="M20 0l484 1352h57l483 -1352h-69l-168 483h-551l-170 -483h-66zM276 541h510l-94 270q-43 123 -81 234.5t-74 236.5h-9q-37 -125 -74.5 -236.5t-80.5 -234.5zM360 1606q0 78 50 125t122 47q70 0 121 -47.5t51 -124.5q0 -76 -51 -124t-121 -48q-72 0 -122 48t-50 124z M409 1606q0 -63 36 -95t87 -32q47 0 83 31.5t36 95.5q0 59 -36 93t-83 34q-51 0 -87 -34t-36 -93z" />
<glyph unicode="&#xc6;" horiz-adv-x="1646" d="M53 0l762 1352h717v-58h-619v-544h512v-58h-512v-635h639v-57h-704v463h-465l-260 -463h-70zM416 520h432v770h-8q-63 -117 -131 -238.5t-136 -248.5z" />
<glyph unicode="&#xc7;" horiz-adv-x="1150" d="M115 680q0 213 70.5 369.5t198.5 241.5t300 85q117 0 205 -49t139 -110l-41 -46q-55 66 -131 105t-172 39q-156 0 -267.5 -78t-172 -220.5t-60.5 -336.5q0 -195 59.5 -339t170 -224t262.5 -80q109 0 192.5 43t159.5 129l41 -41q-76 -88 -170 -140.5t-227 -52.5 q-166 0 -292 87.5t-195.5 246t-69.5 371.5zM528 -389q135 10 184.5 37.5t49.5 72.5q0 47 -38 71t-122 36l82 176h57l-61 -139q66 -14 104.5 -46t38.5 -93q0 -150 -283 -168z" />
<glyph unicode="&#xc8;" horiz-adv-x="1044" d="M205 0v1352h725v-58h-660v-544h553v-58h-553v-635h680v-57h-745zM381 1683l45 50l242 -246l-29 -33z" />
<glyph unicode="&#xc9;" horiz-adv-x="1044" d="M205 0v1352h725v-58h-660v-544h553v-58h-553v-635h680v-57h-745zM520 1487l242 246l45 -50l-258 -229z" />
<glyph unicode="&#xca;" horiz-adv-x="1044" d="M205 0v1352h725v-58h-660v-544h553v-58h-553v-635h680v-57h-745zM328 1487l237 233h58l237 -233l-28 -33l-234 205h-8l-234 -205z" />
<glyph unicode="&#xcb;" horiz-adv-x="1044" d="M205 0v1352h725v-58h-660v-544h553v-58h-553v-635h680v-57h-745zM332 1556q0 31 19.5 48.5t45.5 17.5q29 0 47.5 -17.5t18.5 -48.5t-18.5 -48t-47.5 -17q-27 0 -46 17.5t-19 47.5zM725 1556q0 31 19.5 48.5t46.5 17.5q29 0 47 -17.5t18 -48.5t-18 -48t-47 -17 q-27 0 -46.5 17.5t-19.5 47.5z" />
<glyph unicode="&#xcc;" horiz-adv-x="475" d="M25 1683l45 50l242 -246l-29 -33zM205 0v1352h65v-1352h-65z" />
<glyph unicode="&#xcd;" horiz-adv-x="475" d="M164 1487l242 246l45 -50l-258 -229zM205 0v1352h65v-1352h-65z" />
<glyph unicode="&#xce;" horiz-adv-x="475" d="M-28 1487l237 233h58l237 -233l-28 -33l-234 205h-8l-234 -205zM205 0v1352h65v-1352h-65z" />
<glyph unicode="&#xcf;" horiz-adv-x="475" d="M-24 1556q0 31 19.5 48.5t45.5 17.5q29 0 47.5 -17.5t18.5 -48.5t-18.5 -48t-47.5 -17q-27 0 -46 17.5t-19 47.5zM205 0v1352h65v-1352h-65zM369 1556q0 31 19.5 48.5t46.5 17.5q29 0 47 -17.5t18 -48.5t-18 -48t-47 -17q-27 0 -46.5 17.5t-19.5 47.5z" />
<glyph unicode="&#xd0;" horiz-adv-x="1269" d="M78 688v53l168 4v607h303q209 0 343 -84t198.5 -235.5t64.5 -352.5t-64.5 -354.5t-198.5 -239.5t-343 -86h-303v688h-168zM311 57h230q193 0 312.5 82t175.5 222.5t56 318.5t-56 317.5t-176 218t-312 78.5h-230v-549h344v-57h-344v-631z" />
<glyph unicode="&#xd1;" horiz-adv-x="1294" d="M205 0v1352h69l598 -992l156 -266h8q-2 98 -5 192.5t-3 188.5v877h62v-1352h-70l-598 991l-156 266h-8q4 -94 6 -183t2 -185v-889h-61zM348 1487q4 88 46 152.5t122 64.5q59 0 101.5 -25.5t75 -58.5t65.5 -58.5t78 -25.5q47 0 78.5 45t40.5 119l49 -4q-2 -88 -45 -152.5 t-123 -64.5q-59 0 -100.5 25.5t-74 58t-66.5 58.5t-79 26q-47 0 -79.5 -45.5t-39.5 -118.5z" />
<glyph unicode="&#xd2;" horiz-adv-x="1327" d="M115 680q0 213 70.5 369.5t194.5 241.5t284 85t283.5 -85t194 -241.5t70.5 -369.5t-70.5 -371.5t-194 -246t-283.5 -87.5t-284 87.5t-194.5 246t-70.5 371.5zM184 680q0 -195 60.5 -339t168.5 -224t251 -80t250.5 80t168 224t60.5 339t-60.5 337t-168 220t-250.5 78 t-251 -78t-168.5 -220.5t-60.5 -336.5zM451 1683l45 50l242 -246l-29 -33z" />
<glyph unicode="&#xd3;" horiz-adv-x="1327" d="M115 680q0 213 70.5 369.5t194.5 241.5t284 85t283.5 -85t194 -241.5t70.5 -369.5t-70.5 -371.5t-194 -246t-283.5 -87.5t-284 87.5t-194.5 246t-70.5 371.5zM184 680q0 -195 60.5 -339t168.5 -224t251 -80t250.5 80t168 224t60.5 339t-60.5 337t-168 220t-250.5 78 t-251 -78t-168.5 -220.5t-60.5 -336.5zM590 1487l242 246l45 -50l-258 -229z" />
<glyph unicode="&#xd4;" horiz-adv-x="1327" d="M115 680q0 213 70.5 369.5t194.5 241.5t284 85t283.5 -85t194 -241.5t70.5 -369.5t-70.5 -371.5t-194 -246t-283.5 -87.5t-284 87.5t-194.5 246t-70.5 371.5zM184 680q0 -195 60.5 -339t168.5 -224t251 -80t250.5 80t168 224t60.5 339t-60.5 337t-168 220t-250.5 78 t-251 -78t-168.5 -220.5t-60.5 -336.5zM398 1487l237 233h58l237 -233l-28 -33l-234 205h-8l-234 -205z" />
<glyph unicode="&#xd5;" horiz-adv-x="1327" d="M115 680q0 213 70.5 369.5t194.5 241.5t284 85t283.5 -85t194 -241.5t70.5 -369.5t-70.5 -371.5t-194 -246t-283.5 -87.5t-284 87.5t-194.5 246t-70.5 371.5zM184 680q0 -195 60.5 -339t168.5 -224t251 -80t250.5 80t168 224t60.5 339t-60.5 337t-168 220t-250.5 78 t-251 -78t-168.5 -220.5t-60.5 -336.5zM336 1487q4 88 46 152.5t122 64.5q59 0 101.5 -25.5t75 -58.5t65.5 -58.5t78 -25.5q47 0 78.5 45t40.5 119l49 -4q-2 -88 -45 -152.5t-123 -64.5q-59 0 -100.5 25.5t-74 58t-66.5 58.5t-79 26q-47 0 -79.5 -45.5t-39.5 -118.5z" />
<glyph unicode="&#xd6;" horiz-adv-x="1327" d="M115 680q0 213 70.5 369.5t194.5 241.5t284 85t283.5 -85t194 -241.5t70.5 -369.5t-70.5 -371.5t-194 -246t-283.5 -87.5t-284 87.5t-194.5 246t-70.5 371.5zM184 680q0 -195 60.5 -339t168.5 -224t251 -80t250.5 80t168 224t60.5 339t-60.5 337t-168 220t-250.5 78 t-251 -78t-168.5 -220.5t-60.5 -336.5zM402 1556q0 31 19.5 48.5t45.5 17.5q29 0 47.5 -17.5t18.5 -48.5t-18.5 -48t-47.5 -17q-27 0 -46 17.5t-19 47.5zM795 1556q0 31 19.5 48.5t46.5 17.5q29 0 47 -17.5t18 -48.5t-18 -48t-47 -17q-27 0 -46.5 17.5t-19.5 47.5z" />
<glyph unicode="&#xd7;" d="M106 328l336 348l-336 348l41 45l336 -352l336 352l41 -45l-336 -348l336 -348l-41 -45l-336 352l-336 -352z" />
<glyph unicode="&#xd8;" horiz-adv-x="1327" d="M119 -8l143 194q-66 92 -102.5 217t-36.5 277q0 213 70.5 369.5t194.5 241.5t284 85q215 0 360 -149l123 166l45 -33l-131 -176q72 -90 112 -218t40 -286q0 -213 -71 -371.5t-195 -246t-283 -87.5q-111 0 -206 43t-167 123l-135 -182zM193 680q0 -133 29.5 -243.5 t80.5 -194.5l690 932q-125 141 -321 141q-143 0 -251 -78t-168 -220t-60 -337zM338 195q63 -76 148.5 -117t185.5 -41q143 0 250.5 80t168 224t60.5 339q0 139 -32 253t-89 195z" />
<glyph unicode="&#xd9;" horiz-adv-x="1290" d="M201 504v848h65v-832q0 -186 53.5 -291.5t139.5 -148.5t184 -43q100 0 188.5 43t142.5 148.5t54 291.5v832h62v-848q0 -156 -39 -259.5t-103.5 -161.5t-143.5 -83t-161 -25t-161 25t-142.5 83t-101 161.5t-37.5 259.5zM430 1683l45 50l242 -246l-29 -33z" />
<glyph unicode="&#xda;" horiz-adv-x="1290" d="M201 504v848h65v-832q0 -186 53.5 -291.5t139.5 -148.5t184 -43q100 0 188.5 43t142.5 148.5t54 291.5v832h62v-848q0 -156 -39 -259.5t-103.5 -161.5t-143.5 -83t-161 -25t-161 25t-142.5 83t-101 161.5t-37.5 259.5zM569 1487l242 246l45 -50l-258 -229z" />
<glyph unicode="&#xdb;" horiz-adv-x="1290" d="M201 504v848h65v-832q0 -186 53.5 -291.5t139.5 -148.5t184 -43q100 0 188.5 43t142.5 148.5t54 291.5v832h62v-848q0 -156 -39 -259.5t-103.5 -161.5t-143.5 -83t-161 -25t-161 25t-142.5 83t-101 161.5t-37.5 259.5zM377 1487l237 233h58l237 -233l-28 -33l-234 205h-8 l-234 -205z" />
<glyph unicode="&#xdc;" horiz-adv-x="1290" d="M201 504v848h65v-832q0 -186 53.5 -291.5t139.5 -148.5t184 -43q100 0 188.5 43t142.5 148.5t54 291.5v832h62v-848q0 -156 -39 -259.5t-103.5 -161.5t-143.5 -83t-161 -25t-161 25t-142.5 83t-101 161.5t-37.5 259.5zM381 1556q0 31 19.5 48.5t45.5 17.5 q29 0 47.5 -17.5t18.5 -48.5t-18.5 -48t-47.5 -17q-27 0 -46 17.5t-19 47.5zM774 1556q0 31 19.5 48.5t46.5 17.5q29 0 47 -17.5t18 -48.5t-18 -48t-47 -17q-27 0 -46.5 17.5t-19.5 47.5z" />
<glyph unicode="&#xdd;" horiz-adv-x="892" d="M8 1352h70l217 -439q37 -74 72.5 -145.5t74.5 -144.5h9q41 74 79.5 145.5t71.5 144.5l217 439h66l-406 -795v-557h-65v557zM372 1487l242 246l45 -50l-258 -229z" />
<glyph unicode="&#xde;" horiz-adv-x="1138" d="M205 0v1352h65v-246h287q227 0 351 -83t124 -286q0 -193 -124 -289t-351 -96h-287v-352h-65zM270 410h262q219 0 325 76.5t106 250.5q0 178 -105.5 245t-325.5 67h-262v-639z" />
<glyph unicode="&#xdf;" horiz-adv-x="1085" d="M197 0v1102q0 188 92 292.5t239 104.5q123 0 195 -75.5t72 -190.5q0 -80 -32 -138.5t-73 -106.5t-72.5 -98t-31.5 -116q0 -61 31.5 -101t82 -67.5t105.5 -54.5t105.5 -62.5t82 -91t31.5 -143.5q0 -80 -38 -142.5t-102.5 -99.5t-146.5 -37q-80 0 -149.5 29t-124.5 78 l37 49q59 -49 114.5 -73.5t122.5 -24.5q111 0 166 67.5t55 149.5q0 76 -31.5 124t-81.5 79.5t-105.5 58.5t-105.5 57.5t-82 78.5t-32 122q0 78 32 133t73 102.5t72.5 100.5t31.5 123q0 92 -51 152.5t-154 60.5q-119 0 -192.5 -89t-73.5 -280v-1073h-61z" />
<glyph unicode="&#xe0;" horiz-adv-x="995" d="M123 240q0 164 155.5 248.5t487.5 121.5q2 80 -15.5 158t-70.5 128t-156 50q-104 0 -188 -41t-131 -78l-33 50q31 23 84 52t123 52t149 23q115 0 180.5 -51.5t92 -135.5t26.5 -182v-635h-53l-8 131h-4q-76 -61 -167 -108.5t-189 -47.5q-76 0 -140.5 28t-103.5 86t-39 151 zM188 242q0 -113 67 -161t155 -48q90 0 174 43t182 125v356q-215 -25 -341 -66.5t-181.5 -103t-55.5 -145.5zM319 1483l49 41l270 -316l-36 -32z" />
<glyph unicode="&#xe1;" horiz-adv-x="995" d="M123 240q0 164 155.5 248.5t487.5 121.5q2 80 -15.5 158t-70.5 128t-156 50q-104 0 -188 -41t-131 -78l-33 50q31 23 84 52t123 52t149 23q115 0 180.5 -51.5t92 -135.5t26.5 -182v-635h-53l-8 131h-4q-76 -61 -167 -108.5t-189 -47.5q-76 0 -140.5 28t-103.5 86t-39 151 zM188 242q0 -113 67 -161t155 -48q90 0 174 43t182 125v356q-215 -25 -341 -66.5t-181.5 -103t-55.5 -145.5zM426 1208l270 316l49 -41l-283 -307z" />
<glyph unicode="&#xe2;" horiz-adv-x="995" d="M123 240q0 164 155.5 248.5t487.5 121.5q2 80 -15.5 158t-70.5 128t-156 50q-104 0 -188 -41t-131 -78l-33 50q31 23 84 52t123 52t149 23q115 0 180.5 -51.5t92 -135.5t26.5 -182v-635h-53l-8 131h-4q-76 -61 -167 -108.5t-189 -47.5q-76 0 -140.5 28t-103.5 86t-39 151 zM188 242q0 -113 67 -161t155 -48q90 0 174 43t182 125v356q-215 -25 -341 -66.5t-181.5 -103t-55.5 -145.5zM262 1208l241 299h58l241 -299l-37 -32l-229 266h-8l-229 -266z" />
<glyph unicode="&#xe3;" horiz-adv-x="995" d="M123 240q0 164 155.5 248.5t487.5 121.5q2 80 -15.5 158t-70.5 128t-156 50q-104 0 -188 -41t-131 -78l-33 50q31 23 84 52t123 52t149 23q115 0 180.5 -51.5t92 -135.5t26.5 -182v-635h-53l-8 131h-4q-76 -61 -167 -108.5t-189 -47.5q-76 0 -140.5 28t-103.5 86t-39 151 zM188 242q0 -113 67 -161t155 -48q90 0 174 43t182 125v356q-215 -25 -341 -66.5t-181.5 -103t-55.5 -145.5zM204 1196q4 59 19.5 116.5t51.5 95.5t101 38q59 0 99.5 -31t73 -71.5t66.5 -71.5t79 -31q57 0 83.5 60.5t28.5 140.5l54 -4q-4 -57 -19.5 -114.5t-50 -96.5 t-100.5 -39q-59 0 -100.5 30.5t-74 71.5t-65.5 72t-78 31q-57 0 -83.5 -58.5t-30.5 -142.5z" />
<glyph unicode="&#xe4;" horiz-adv-x="995" d="M123 240q0 164 155.5 248.5t487.5 121.5q2 80 -15.5 158t-70.5 128t-156 50q-104 0 -188 -41t-131 -78l-33 50q31 23 84 52t123 52t149 23q115 0 180.5 -51.5t92 -135.5t26.5 -182v-635h-53l-8 131h-4q-76 -61 -167 -108.5t-189 -47.5q-76 0 -140.5 28t-103.5 86t-39 151 zM188 242q0 -113 67 -161t155 -48q90 0 174 43t182 125v356q-215 -25 -341 -66.5t-181.5 -103t-55.5 -145.5zM290 1298q0 29 19.5 47.5t46.5 18.5q29 0 47 -18.5t18 -47.5q0 -27 -18 -46t-47 -19q-27 0 -46.5 19.5t-19.5 45.5zM643 1298q0 29 19.5 47.5t45.5 18.5 q29 0 47.5 -18.5t18.5 -47.5q0 -27 -18.5 -46t-47.5 -19q-27 0 -46 19.5t-19 45.5z" />
<glyph unicode="&#xe5;" horiz-adv-x="995" d="M123 240q0 164 155.5 248.5t487.5 121.5q2 80 -15.5 158t-70.5 128t-156 50q-104 0 -188 -41t-131 -78l-33 50q31 23 84 52t123 52t149 23q115 0 180.5 -51.5t92 -135.5t26.5 -182v-635h-53l-8 131h-4q-76 -61 -167 -108.5t-189 -47.5q-76 0 -140.5 28t-103.5 86t-39 151 zM188 242q0 -113 67 -161t155 -48q90 0 174 43t182 125v356q-215 -25 -341 -66.5t-181.5 -103t-55.5 -145.5zM344 1311q0 86 54 139t134 53t134 -53t54 -139t-54 -139.5t-134 -53.5t-134 53.5t-54 139.5zM393 1311q0 -68 41 -108t98 -40q59 0 99 40t40 108t-40 107.5 t-99 39.5q-57 0 -98 -40t-41 -107z" />
<glyph unicode="&#xe6;" horiz-adv-x="1605" d="M139 238q0 166 156 250.5t475 121.5q2 80 -15.5 158t-70.5 128t-156 50q-94 0 -177 -41t-130 -78l-33 50q31 23 84.5 52t120 52t139.5 23q123 0 195 -71t92 -188q53 117 145.5 188t202.5 71q170 0 265.5 -116t95.5 -335v-30.5t-4 -35.5h-693q-2 -131 46.5 -233 t131.5 -161.5t187 -59.5q84 0 145.5 25.5t116.5 64.5l29 -53q-55 -33 -119.5 -64t-175.5 -31q-90 0 -155.5 31t-114 79t-82.5 99q-94 -94 -210 -151.5t-208 -57.5q-76 0 -140.5 27t-103.5 85t-39 151zM205 242q0 -113 66.5 -161t154.5 -48q84 0 192.5 53t196.5 152 q-20 47 -32.5 117.5t-12.5 144.5v57q-307 -37 -436 -112.5t-129 -202.5zM831 541h635q0 203 -79.5 304t-219.5 101q-86 0 -158.5 -52t-120 -143t-57.5 -210z" />
<glyph unicode="&#xe7;" horiz-adv-x="913" d="M111 487q0 164 61 280t160.5 176.5t216.5 60.5q102 0 169.5 -38t117.5 -85l-41 -45q-49 47 -108.5 78.5t-137.5 31.5q-104 0 -188.5 -58.5t-134.5 -161.5t-50 -239q0 -135 46 -237.5t130 -159.5t197 -57q84 0 153.5 34.5t120.5 84.5l37 -46q-61 -55 -138 -93t-173 -38 q-125 0 -224.5 60.5t-156.5 175.5t-57 276zM389 -389q135 10 184.5 37.5t49.5 72.5q0 47 -38 71t-122 36l82 176h57l-61 -139q66 -14 104.5 -46t38.5 -93q0 -150 -283 -168z" />
<glyph unicode="&#xe8;" horiz-adv-x="978" d="M111 487q0 160 60 276t156.5 178.5t204.5 62.5q170 0 269.5 -116t99.5 -335v-30.5t-4 -35.5h-721q0 -131 48 -233t134 -161.5t203 -59.5q84 0 149.5 25.5t120.5 64.5l29 -53q-55 -33 -123.5 -64t-179.5 -31q-123 0 -224.5 61.5t-161.5 176.5t-60 274zM176 545h664 q0 203 -84 302t-224 99q-88 0 -165.5 -48t-129 -138t-61.5 -215zM319 1483l49 41l270 -316l-36 -32z" />
<glyph unicode="&#xe9;" horiz-adv-x="978" d="M111 487q0 160 60 276t156.5 178.5t204.5 62.5q170 0 269.5 -116t99.5 -335v-30.5t-4 -35.5h-721q0 -131 48 -233t134 -161.5t203 -59.5q84 0 149.5 25.5t120.5 64.5l29 -53q-55 -33 -123.5 -64t-179.5 -31q-123 0 -224.5 61.5t-161.5 176.5t-60 274zM176 545h664 q0 203 -84 302t-224 99q-88 0 -165.5 -48t-129 -138t-61.5 -215zM426 1208l270 316l49 -41l-283 -307z" />
<glyph unicode="&#xea;" horiz-adv-x="978" d="M111 487q0 160 60 276t156.5 178.5t204.5 62.5q170 0 269.5 -116t99.5 -335v-30.5t-4 -35.5h-721q0 -131 48 -233t134 -161.5t203 -59.5q84 0 149.5 25.5t120.5 64.5l29 -53q-55 -33 -123.5 -64t-179.5 -31q-123 0 -224.5 61.5t-161.5 176.5t-60 274zM176 545h664 q0 203 -84 302t-224 99q-88 0 -165.5 -48t-129 -138t-61.5 -215zM262 1208l241 299h58l241 -299l-37 -32l-229 266h-8l-229 -266z" />
<glyph unicode="&#xeb;" horiz-adv-x="978" d="M111 487q0 160 60 276t156.5 178.5t204.5 62.5q170 0 269.5 -116t99.5 -335v-30.5t-4 -35.5h-721q0 -131 48 -233t134 -161.5t203 -59.5q84 0 149.5 25.5t120.5 64.5l29 -53q-55 -33 -123.5 -64t-179.5 -31q-123 0 -224.5 61.5t-161.5 176.5t-60 274zM176 545h664 q0 203 -84 302t-224 99q-88 0 -165.5 -48t-129 -138t-61.5 -215zM290 1298q0 29 19.5 47.5t46.5 18.5q29 0 47 -18.5t18 -47.5q0 -27 -18 -46t-47 -19q-27 0 -46.5 19.5t-19.5 45.5zM643 1298q0 29 19.5 47.5t45.5 18.5q29 0 47.5 -18.5t18.5 -47.5q0 -27 -18.5 -46 t-47.5 -19q-27 0 -46 19.5t-19 45.5z" />
<glyph unicode="&#xec;" horiz-adv-x="454" d="M16 1483l49 41l270 -316l-36 -32zM197 0v979h61v-979h-61z" />
<glyph unicode="&#xed;" horiz-adv-x="454" d="M123 1208l270 316l49 -41l-283 -307zM197 0v979h61v-979h-61z" />
<glyph unicode="&#xee;" horiz-adv-x="454" d="M-41 1208l241 299h58l241 -299l-37 -32l-229 266h-8l-229 -266zM197 0v979h61v-979h-61z" />
<glyph unicode="&#xef;" horiz-adv-x="454" d="M-13 1298q0 29 19.5 47.5t46.5 18.5q29 0 47 -18.5t18 -47.5q0 -27 -18 -46t-47 -19q-27 0 -46.5 19.5t-19.5 45.5zM197 0v979h61v-979h-61zM340 1298q0 29 19.5 47.5t45.5 18.5q29 0 47.5 -18.5t18.5 -47.5q0 -27 -18.5 -46t-47.5 -19q-27 0 -46 19.5t-19 45.5z" />
<glyph unicode="&#xf0;" horiz-adv-x="1089" d="M127 446q0 133 53 235.5t148.5 161t224.5 58.5q186 0 313 -162q-27 160 -91 274.5t-154 203.5l-289 -152l-25 45l273 143q-57 53 -124 97.5t-137 83.5l33 45q76 -41 147.5 -89.5t135.5 -107.5l291 152l24 -45l-276 -146q123 -125 199.5 -301t76.5 -430q0 -164 -52 -285 t-143 -186.5t-210 -65.5q-106 0 -201.5 56.5t-156 162t-60.5 252.5zM193 446q0 -121 48 -214t128 -146t176 -53q119 0 193.5 65.5t110.5 174t36 239.5q0 72 -6 133q-82 123 -166 161t-164 38q-117 0 -197 -55.5t-119.5 -147t-39.5 -195.5z" />
<glyph unicode="&#xf1;" horiz-adv-x="1077" d="M197 0v979h53l8 -156h4q78 78 159 129.5t181 51.5q152 0 223.5 -91.5t71.5 -281.5v-631h-61v623q0 164 -55.5 243.5t-182.5 79.5q-92 0 -168 -49t-172 -147v-750h-61zM245 1196q4 59 19.5 116.5t51.5 95.5t101 38q59 0 99.5 -31t73 -71.5t66.5 -71.5t79 -31 q57 0 83.5 60.5t28.5 140.5l54 -4q-4 -57 -19.5 -114.5t-50 -96.5t-100.5 -39q-59 0 -100.5 30.5t-74 71.5t-65.5 72t-78 31q-57 0 -83.5 -58.5t-30.5 -142.5z" />
<glyph unicode="&#xf2;" horiz-adv-x="1089" d="M111 487q0 164 59 280t158.5 176.5t216.5 60.5t215 -60.5t158.5 -176.5t60.5 -280q0 -162 -60.5 -276.5t-158.5 -175t-215 -60.5t-216.5 60.5t-158.5 175.5t-59 276zM176 487q0 -135 49 -237.5t132.5 -159.5t187.5 -57t188 57t132 159.5t48 237.5t-48 238.5t-132 162 t-188 58.5t-187.5 -58.5t-132.5 -161.5t-49 -239zM332 1483l49 41l270 -316l-36 -32z" />
<glyph unicode="&#xf3;" horiz-adv-x="1089" d="M111 487q0 164 59 280t158.5 176.5t216.5 60.5t215 -60.5t158.5 -176.5t60.5 -280q0 -162 -60.5 -276.5t-158.5 -175t-215 -60.5t-216.5 60.5t-158.5 175.5t-59 276zM176 487q0 -135 49 -237.5t132.5 -159.5t187.5 -57t188 57t132 159.5t48 237.5t-48 238.5t-132 162 t-188 58.5t-187.5 -58.5t-132.5 -161.5t-49 -239zM439 1208l270 316l49 -41l-283 -307z" />
<glyph unicode="&#xf4;" horiz-adv-x="1089" d="M111 487q0 164 59 280t158.5 176.5t216.5 60.5t215 -60.5t158.5 -176.5t60.5 -280q0 -162 -60.5 -276.5t-158.5 -175t-215 -60.5t-216.5 60.5t-158.5 175.5t-59 276zM176 487q0 -135 49 -237.5t132.5 -159.5t187.5 -57t188 57t132 159.5t48 237.5t-48 238.5t-132 162 t-188 58.5t-187.5 -58.5t-132.5 -161.5t-49 -239zM275 1208l241 299h58l241 -299l-37 -32l-229 266h-8l-229 -266z" />
<glyph unicode="&#xf5;" horiz-adv-x="1089" d="M111 487q0 164 59 280t158.5 176.5t216.5 60.5t215 -60.5t158.5 -176.5t60.5 -280q0 -162 -60.5 -276.5t-158.5 -175t-215 -60.5t-216.5 60.5t-158.5 175.5t-59 276zM176 487q0 -135 49 -237.5t132.5 -159.5t187.5 -57t188 57t132 159.5t48 237.5t-48 238.5t-132 162 t-188 58.5t-187.5 -58.5t-132.5 -161.5t-49 -239zM217 1196q4 59 19.5 116.5t51.5 95.5t101 38q59 0 99.5 -31t73 -71.5t66.5 -71.5t79 -31q57 0 83.5 60.5t28.5 140.5l54 -4q-4 -57 -19.5 -114.5t-50 -96.5t-100.5 -39q-59 0 -100.5 30.5t-74 71.5t-65.5 72t-78 31 q-57 0 -83.5 -58.5t-30.5 -142.5z" />
<glyph unicode="&#xf6;" horiz-adv-x="1089" d="M111 487q0 164 59 280t158.5 176.5t216.5 60.5t215 -60.5t158.5 -176.5t60.5 -280q0 -162 -60.5 -276.5t-158.5 -175t-215 -60.5t-216.5 60.5t-158.5 175.5t-59 276zM176 487q0 -135 49 -237.5t132.5 -159.5t187.5 -57t188 57t132 159.5t48 237.5t-48 238.5t-132 162 t-188 58.5t-187.5 -58.5t-132.5 -161.5t-49 -239zM303 1298q0 29 19.5 47.5t46.5 18.5q29 0 47 -18.5t18 -47.5q0 -27 -18 -46t-47 -19q-27 0 -46.5 19.5t-19.5 45.5zM656 1298q0 29 19.5 47.5t45.5 18.5q29 0 47.5 -18.5t18.5 -47.5q0 -27 -18.5 -46t-47.5 -19 q-27 0 -46 19.5t-19 45.5z" />
<glyph unicode="&#xf7;" d="M70 647v58h827v-58h-827zM418 307q0 31 19.5 50.5t45.5 19.5q29 0 47.5 -19.5t18.5 -50.5q0 -33 -18.5 -53.5t-47.5 -20.5q-27 0 -46 20.5t-19 53.5zM418 1044q0 31 19.5 50.5t45.5 19.5q29 0 47.5 -19.5t18.5 -50.5q0 -33 -18.5 -53t-47.5 -20q-27 0 -46 20.5t-19 52.5z " />
<glyph unicode="&#xf8;" horiz-adv-x="1089" d="M94 -8l123 147q-49 66 -77.5 153t-28.5 195q0 164 59 280t158.5 176.5t216.5 60.5q170 0 291 -121l114 137l45 -37l-121 -145q49 -63 77 -152.5t28 -198.5q0 -162 -60.5 -276.5t-158.5 -175t-215 -60.5q-170 0 -289 119l-117 -139zM176 487q0 -88 21.5 -163.5 t60.5 -133.5l537 644q-49 53 -113 82.5t-137 29.5q-104 0 -187.5 -58.5t-132.5 -162t-49 -238.5zM295 143q49 -51 112.5 -80.5t137.5 -29.5q104 0 188 57t132 159.5t48 237.5q0 90 -21.5 166t-60.5 133z" />
<glyph unicode="&#xf9;" horiz-adv-x="1073" d="M180 348v631h62v-623q0 -162 56 -242.5t181 -80.5q92 0 168 51t168 162v733h62v-979h-54l-8 168h-4q-74 -86 -154 -139.5t-182 -53.5q-150 0 -222.5 91.5t-72.5 281.5zM319 1483l49 41l270 -316l-36 -32z" />
<glyph unicode="&#xfa;" horiz-adv-x="1073" d="M180 348v631h62v-623q0 -162 56 -242.5t181 -80.5q92 0 168 51t168 162v733h62v-979h-54l-8 168h-4q-74 -86 -154 -139.5t-182 -53.5q-150 0 -222.5 91.5t-72.5 281.5zM426 1208l270 316l49 -41l-283 -307z" />
<glyph unicode="&#xfb;" horiz-adv-x="1073" d="M180 348v631h62v-623q0 -162 56 -242.5t181 -80.5q92 0 168 51t168 162v733h62v-979h-54l-8 168h-4q-74 -86 -154 -139.5t-182 -53.5q-150 0 -222.5 91.5t-72.5 281.5zM262 1208l241 299h58l241 -299l-37 -32l-229 266h-8l-229 -266z" />
<glyph unicode="&#xfc;" horiz-adv-x="1073" d="M180 348v631h62v-623q0 -162 56 -242.5t181 -80.5q92 0 168 51t168 162v733h62v-979h-54l-8 168h-4q-74 -86 -154 -139.5t-182 -53.5q-150 0 -222.5 91.5t-72.5 281.5zM290 1298q0 29 19.5 47.5t46.5 18.5q29 0 47 -18.5t18 -47.5q0 -27 -18 -46t-47 -19 q-27 0 -46.5 19.5t-19.5 45.5zM643 1298q0 29 19.5 47.5t45.5 18.5q29 0 47.5 -18.5t18.5 -47.5q0 -27 -18.5 -46t-47.5 -19q-27 0 -46 19.5t-19 45.5z" />
<glyph unicode="&#xfd;" horiz-adv-x="868" d="M25 979h69l250 -643q25 -61 54.5 -135t56.5 -140h8q25 66 49.5 139.5t44.5 135.5l221 643h66l-393 -1118q-25 -76 -67 -148.5t-103.5 -120t-145.5 -47.5q-53 0 -94 21l16 57q16 -6 39 -11t43 -5q92 0 157.5 80t104.5 198l29 90zM353 1208l270 316l49 -41l-283 -307z" />
<glyph unicode="&#xfe;" horiz-adv-x="1105" d="M197 -455v1934h61v-627q78 59 165 105.5t179 46.5q201 0 297 -136.5t96 -363.5q0 -166 -60.5 -284t-158.5 -181.5t-215 -63.5q-70 0 -146.5 33t-156.5 90v-553h-61zM258 168q90 -74 170 -104.5t137 -30.5q106 0 188.5 60.5t129.5 167t47 243.5q0 125 -33 225 t-105.5 158.5t-193.5 58.5q-76 0 -160 -44t-180 -128v-606z" />
<glyph unicode="&#xff;" horiz-adv-x="868" d="M25 979h69l250 -643q25 -61 54.5 -135t56.5 -140h8q25 66 49.5 139.5t44.5 135.5l221 643h66l-393 -1118q-25 -76 -67 -148.5t-103.5 -120t-145.5 -47.5q-53 0 -94 21l16 57q16 -6 39 -11t43 -5q92 0 157.5 80t104.5 198l29 90zM217 1298q0 29 19.5 47.5t46.5 18.5 q29 0 47 -18.5t18 -47.5q0 -27 -18 -46t-47 -19q-27 0 -46.5 19.5t-19.5 45.5zM570 1298q0 29 19.5 47.5t45.5 18.5q29 0 47.5 -18.5t18.5 -47.5q0 -27 -18.5 -46t-47.5 -19q-27 0 -46 19.5t-19 45.5z" />
<glyph unicode="&#x152;" horiz-adv-x="1695" d="M115 680q0 201 68.5 352.5t210 235.5t356.5 84h831v-58h-618v-544h512v-58h-512v-635h639v-57h-852q-215 0 -356.5 86t-210 239.5t-68.5 354.5zM184 680q0 -178 60.5 -318.5t187.5 -222.5t326 -82h139v1237h-139q-199 0 -326 -78.5t-187.5 -218t-60.5 -317.5z" />
<glyph unicode="&#x153;" horiz-adv-x="1744" d="M111 487q0 164 59 280t156.5 176.5t210.5 60.5q121 0 229 -77t160 -231q53 141 151.5 224.5t220.5 83.5q170 0 269.5 -116t99.5 -335v-30.5t-4 -35.5h-705q-2 -131 47.5 -233t133.5 -161.5t188 -59.5q84 0 149.5 25.5t120.5 64.5l29 -53q-55 -33 -123.5 -64t-179.5 -31 q-135 0 -239.5 83t-157.5 221q-55 -150 -155.5 -227t-233.5 -77q-113 0 -210.5 60.5t-156.5 175.5t-59 276zM176 487q0 -135 47 -237.5t129.5 -159.5t184.5 -57q104 0 185 57t128 159.5t47 237.5t-47 238.5t-128 162t-185 58.5q-102 0 -184.5 -58.5t-129.5 -161.5t-47 -239z M958 541h648q0 203 -84 304t-224 101q-86 0 -159.5 -52t-122 -143t-58.5 -210z" />
<glyph unicode="&#x178;" horiz-adv-x="892" d="M8 1352h70l217 -439q37 -74 72.5 -145.5t74.5 -144.5h9q41 74 79.5 145.5t71.5 144.5l217 439h66l-406 -795v-557h-65v557zM184 1556q0 31 19.5 48.5t45.5 17.5q29 0 47.5 -17.5t18.5 -48.5t-18.5 -48t-47.5 -17q-27 0 -46 17.5t-19 47.5zM577 1556q0 31 19.5 48.5 t46.5 17.5q29 0 47 -17.5t18 -48.5t-18 -48t-47 -17q-27 0 -46.5 17.5t-19.5 47.5z" />
<glyph unicode="&#x2c6;" horiz-adv-x="1089" d="M275 1208l241 299h58l241 -299l-37 -32l-229 266h-8l-229 -266z" />
<glyph unicode="&#x2dc;" horiz-adv-x="1089" d="M217 1196q4 59 19.5 116.5t51.5 95.5t101 38q59 0 99.5 -31t73 -71.5t66.5 -71.5t79 -31q57 0 83.5 60.5t28.5 140.5l54 -4q-4 -57 -19.5 -114.5t-50 -96.5t-100.5 -39q-59 0 -100.5 30.5t-74 71.5t-65.5 72t-78 31q-57 0 -83.5 -58.5t-30.5 -142.5z" />
<glyph unicode="&#x2000;" horiz-adv-x="889" />
<glyph unicode="&#x2001;" horiz-adv-x="1778" />
<glyph unicode="&#x2002;" horiz-adv-x="889" />
<glyph unicode="&#x2003;" horiz-adv-x="1778" />
<glyph unicode="&#x2004;" horiz-adv-x="592" />
<glyph unicode="&#x2005;" horiz-adv-x="444" />
<glyph unicode="&#x2006;" horiz-adv-x="296" />
<glyph unicode="&#x2007;" horiz-adv-x="296" />
<glyph unicode="&#x2008;" horiz-adv-x="222" />
<glyph unicode="&#x2009;" horiz-adv-x="355" />
<glyph unicode="&#x200a;" horiz-adv-x="98" />
<glyph unicode="&#x2010;" horiz-adv-x="602" d="M82 479v62h442v-62h-442z" />
<glyph unicode="&#x2011;" horiz-adv-x="602" d="M82 479v62h442v-62h-442z" />
<glyph unicode="&#x2012;" horiz-adv-x="602" d="M82 479v62h442v-62h-442z" />
<glyph unicode="&#x2013;" horiz-adv-x="983" d="M82 483v58h819v-58h-819z" />
<glyph unicode="&#x2014;" horiz-adv-x="1638" d="M82 483v58h1474v-58h-1474z" />
<glyph unicode="&#x2018;" horiz-adv-x="425" d="M119 1143q0 104 43 178t117 125l32 -37q-63 -55 -97 -111.5t-34 -140.5q4 2 17 2q25 0 47 -15.5t22 -49.5q0 -33 -19 -51.5t-50 -18.5q-33 0 -55.5 30.5t-22.5 88.5z" />
<glyph unicode="&#x2019;" horiz-adv-x="425" d="M115 1049q66 55 98.5 111.5t32.5 139.5q-4 -2 -17 -2q-25 0 -47 16.5t-22 49.5q0 35 19.5 52.5t49.5 17.5q35 0 56.5 -30t21.5 -89q0 -104 -43 -177t-117 -126z" />
<glyph unicode="&#x201a;" horiz-adv-x="425" d="M115 -221q66 55 98.5 111.5t32.5 139.5q-4 -2 -17 -2q-25 0 -47 16.5t-22 49.5q0 35 19.5 52.5t49.5 17.5q35 0 56.5 -30t21.5 -89q0 -104 -43 -177t-117 -126z" />
<glyph unicode="&#x201c;" horiz-adv-x="688" d="M119 1143q0 104 43 178t117 125l32 -37q-63 -55 -97 -111.5t-34 -140.5q4 2 17 2q25 0 47 -15.5t22 -49.5q0 -33 -19 -51.5t-50 -18.5q-33 0 -55.5 30.5t-22.5 88.5zM381 1143q0 104 43 178t117 125l32 -37q-63 -55 -97 -111.5t-34 -140.5q4 2 17 2q25 0 47 -15.5 t22 -49.5q0 -33 -19 -51.5t-50 -18.5q-33 0 -55.5 30.5t-22.5 88.5z" />
<glyph unicode="&#x201d;" horiz-adv-x="688" d="M115 1049q66 55 98.5 111.5t32.5 139.5q-4 -2 -17 -2q-25 0 -47 16.5t-22 49.5q0 35 19.5 52.5t49.5 17.5q35 0 56.5 -30t21.5 -89q0 -104 -43 -177t-117 -126zM377 1049q66 55 98.5 111.5t32.5 139.5q-4 -2 -17 -2q-25 0 -47 16.5t-22 49.5q0 35 19.5 52.5t49.5 17.5 q35 0 56.5 -30t21.5 -89q0 -104 -43 -177t-117 -126z" />
<glyph unicode="&#x201e;" horiz-adv-x="688" d="M115 -221q66 55 98.5 111.5t32.5 139.5q-4 -2 -17 -2q-25 0 -47 16.5t-22 49.5q0 35 19.5 52.5t49.5 17.5q35 0 56.5 -30t21.5 -89q0 -104 -43 -177t-117 -126zM377 -221q66 55 98.5 111.5t32.5 139.5q-4 -2 -17 -2q-25 0 -47 16.5t-22 49.5q0 35 19.5 52.5t49.5 17.5 q35 0 56.5 -30t21.5 -89q0 -104 -43 -177t-117 -126z" />
<glyph unicode="&#x2022;" horiz-adv-x="557" d="M82 541q0 102 61.5 159.5t135.5 57.5t135 -57.5t61 -159.5q0 -100 -61 -158.5t-135 -58.5t-135.5 58t-61.5 159z" />
<glyph unicode="&#x2026;" horiz-adv-x="1892" d="M221 53q0 41 23.5 61.5t50.5 20.5q29 0 51.5 -20.5t22.5 -61.5q0 -37 -22.5 -57.5t-51.5 -20.5q-27 0 -50.5 20.5t-23.5 57.5zM913 53q0 41 23.5 61.5t50.5 20.5q29 0 51.5 -20.5t22.5 -61.5q0 -37 -22.5 -57.5t-51.5 -20.5q-27 0 -50.5 20.5t-23.5 57.5zM1605 53 q0 41 23.5 61.5t50.5 20.5q29 0 51.5 -20.5t22.5 -61.5q0 -37 -22.5 -57.5t-51.5 -20.5q-27 0 -50.5 20.5t-23.5 57.5z" />
<glyph unicode="&#x202f;" horiz-adv-x="355" />
<glyph unicode="&#x2039;" horiz-adv-x="520" d="M86 487v58l283 336l41 -37l-254 -328l254 -332l-41 -32z" />
<glyph unicode="&#x203a;" horiz-adv-x="520" d="M111 184l254 332l-254 328l41 37l282 -336v-58l-282 -335z" />
<glyph unicode="&#x205f;" horiz-adv-x="444" />
<glyph unicode="&#x20ac;" d="M49 512v49l129 8q-2 23 -2 45.5v44.5v37t2 37h-129v49l133 9q27 254 152 399t321 145q92 0 166 -49t117 -110l-45 -41q-45 66 -104.5 104.5t-133.5 38.5q-172 0 -276.5 -131t-126.5 -356h588v-58h-592q-2 -18 -2 -36.5v-37.5v-45t2 -45h510v-57h-504q25 -219 121 -349 t252 -130q90 0 156.5 43t129.5 129l45 -37q-63 -88 -141.5 -140.5t-193.5 -52.5q-178 0 -294 144.5t-145 392.5h-135z" />
<glyph unicode="&#x2122;" horiz-adv-x="1228" d="M4 1327v57h512v-57h-225v-569h-62v569h-225zM627 758v626h90l110 -266l66 -180h8l66 180l106 266h90v-626h-61v348l8 197h-8l-176 -447h-62l-176 447h-8l8 -197v-348h-61z" />
<glyph unicode="&#x25fc;" horiz-adv-x="983" d="M0 0v983h983v-983h-983z" />
<glyph unicode="&#xfb01;" horiz-adv-x="970" d="M70 922v49l135 8v242q0 145 60.5 213.5t164.5 68.5q63 0 135 -33l-20 -53q-31 16 -60.5 22.5t-58.5 6.5q-82 0 -121 -61.5t-39 -172.5v-233h234v-57h-234v-922h-61v922h-135zM679 1303q0 31 19.5 50t46.5 19q29 0 47.5 -19.5t18.5 -49.5q0 -33 -18.5 -53.5t-47.5 -20.5 q-27 0 -46.5 20.5t-19.5 53.5zM713 0v979h61v-979h-61z" />
<glyph unicode="&#xfb02;" horiz-adv-x="987" d="M70 922v49l135 8v242q0 145 60.5 213.5t164.5 68.5q63 0 135 -33l-20 -53q-31 16 -60.5 22.5t-58.5 6.5q-82 0 -121 -61.5t-39 -172.5v-233h234v-57h-234v-922h-61v922h-135zM713 106v1373h61v-1385q0 -61 41 -61q6 0 14.5 1t22.5 3l12 -53q-12 -2 -23.5 -5.5t-29.5 -3.5 q-45 0 -71.5 31t-26.5 100z" />
<glyph unicode="&#xfb03;" horiz-adv-x="1503" d="M70 922v49l135 8v201q0 154 68.5 228.5t181.5 74.5q80 0 159 -37l-20 -53q-39 18 -74 25t-69 7q-92 0 -138.5 -66.5t-46.5 -187.5v-192h471v242q0 145 60.5 213.5t165.5 68.5q63 0 135 -33l-21 -53q-31 16 -60.5 22.5t-58.5 6.5q-82 0 -120.5 -61.5t-38.5 -172.5v-233 h233v-57h-233v-922h-62v922h-471v-922h-61v922h-135zM1212 1303q0 31 19.5 50t46.5 19q29 0 47.5 -19.5t18.5 -49.5q0 -33 -18.5 -53.5t-47.5 -20.5q-27 0 -46.5 20.5t-19.5 53.5zM1246 0v979h61v-979h-61z" />
<glyph unicode="&#xfb04;" horiz-adv-x="1519" d="M70 922v49l135 8v201q0 154 68.5 228.5t181.5 74.5q80 0 159 -37l-20 -53q-39 18 -74 25t-69 7q-92 0 -138.5 -66.5t-46.5 -187.5v-192h471v242q0 145 60.5 213.5t165.5 68.5q63 0 135 -33l-21 -53q-31 16 -60.5 22.5t-58.5 6.5q-82 0 -120.5 -61.5t-38.5 -172.5v-233 h233v-57h-233v-922h-62v922h-471v-922h-61v922h-135zM1246 106v1373h61v-1385q0 -61 41 -61q6 0 14.5 1t22.5 3l12 -53q-12 -2 -23.5 -5.5t-29.5 -3.5q-45 0 -71.5 31t-26.5 100z" />
</font>
</defs>
</svg>
