<?xml version="1.0" standalone="no"?>
<!DOCTYPE svg PUBLIC "-//W3C//DTD SVG 1.1//EN" "http://www.w3.org/Graphics/SVG/1.1/DTD/svg11.dtd" >
<svg xmlns="http://www.w3.org/2000/svg" xmlns:xlink="http://www.w3.org/1999/xlink" version="1.1">
<metadata></metadata>
<defs>
<font id="source_sans_problack_italic" horiz-adv-x="520" >
<font-face units-per-em="1000" ascent="750" descent="-250" />
<missing-glyph horiz-adv-x="200" />
<glyph horiz-adv-x="0" />
<glyph horiz-adv-x="333" />
<glyph unicode=" "  horiz-adv-x="200" />
<glyph unicode="&#x09;" horiz-adv-x="200" />
<glyph unicode="&#xa0;" horiz-adv-x="200" />
<glyph unicode="!" horiz-adv-x="350" d="M46 72q0 27 14 53t38.5 42.5t57.5 16.5q36 0 58 -24t22 -60q0 -28 -13.5 -53.5t-38.5 -42t-58 -16.5q-36 0 -58 23.5t-22 60.5zM120 238l58 432h160l-32 -140l-82 -292h-104z" />
<glyph unicode="&#x22;" horiz-adv-x="550" d="M118 338l20 192l20 140h158l-32 -140l-62 -192h-104zM358 338l20 192l20 140h158l-32 -140l-62 -192h-104z" />
<glyph unicode="#" horiz-adv-x="516" d="M16 182l24 102h82l32 102h-74l24 102h82l52 162h92l-52 -162h90l52 162h92l-52 -162h74l-24 -102h-82l-32 -102h74l-24 -102h-82l-58 -182h-92l58 182h-90l-58 -182h-92l58 182h-74zM214 284h90l32 102h-90z" />
<glyph unicode="$" d="M2 90l98 96q23 -28 53.5 -49t66.5 -21q72 0 72 60q0 29 -20 51.5t-49.5 44.5t-59 47t-49.5 57.5t-20 77.5q0 81 52 136t139 64l19 100h104l-20 -108q68 -21 122 -84l-100 -90q-19 26 -44.5 41t-51.5 15q-30 0 -46 -16t-16 -40q0 -26 20 -47t49.5 -42t59 -46.5t49.5 -59.5 t20 -81q0 -82 -52 -138t-141 -67l-21 -101h-104l21 106q-42 11 -81 34.5t-70 59.5z" />
<glyph unicode="%" horiz-adv-x="844" d="M50 420q0 73 25 130t69 89.5t102 32.5q39 0 72 -19.5t52.5 -56t19.5 -86.5q0 -73 -25 -130t-69 -89.5t-102 -32.5q-39 0 -71.5 19.5t-52.5 56t-20 86.5zM144 -12l470 684h90l-470 -684h-90zM162 422q0 -33 10.5 -51.5t31.5 -18.5q30 0 52 41.5t22 114.5q0 33 -10.5 51.5 t-31.5 18.5q-30 0 -52 -41t-22 -115zM470 150q0 73 25 130t69 89.5t102 32.5q39 0 72 -19.5t52.5 -56t19.5 -86.5q0 -73 -25 -130t-69 -89.5t-102 -32.5q-39 0 -71.5 19.5t-52.5 56t-20 86.5zM582 152q0 -33 10.5 -51.5t31.5 -18.5q30 0 52 41.5t22 114.5q0 33 -10.5 51.5 t-31.5 18.5q-30 0 -52 -41t-22 -115z" />
<glyph unicode="&#x26;" horiz-adv-x="652" d="M14 154q0 53 20.5 91t54 65.5t71.5 48.5q-20 57 -20 107q0 53 27.5 97.5t74.5 71.5t106 27q69 0 106.5 -37.5t37.5 -102.5q0 -48 -24 -84.5t-62 -64.5t-79 -53q20 -28 44 -55t50 -50q31 35 54 74t41 83h144q-28 -59 -62.5 -115.5t-80.5 -109.5q26 -13 50 -20.5t43 -12.5 l-62 -126q-73 14 -142 59q-43 -28 -92.5 -43.5t-105.5 -15.5q-93 0 -143.5 46.5t-50.5 119.5zM168 170q0 -27 17.5 -44.5t50.5 -17.5q18 0 37 4t38 13q-56 56 -97 123q-21 -17 -33.5 -36t-12.5 -42zM272 470q0 -13 2 -25.5t5 -25.5q39 21 64.5 45.5t25.5 60.5q0 33 -31 33 q-25 0 -45.5 -23t-20.5 -65z" />
<glyph unicode="'" horiz-adv-x="310" d="M118 338l20 192l20 140h158l-32 -140l-62 -192h-104z" />
<glyph unicode="(" horiz-adv-x="344" d="M52 130q0 116 27 217t79.5 195.5t129.5 191.5l92 -46q-105 -142 -152.5 -284.5t-47.5 -283.5q0 -41 3.5 -87.5t11 -91t19.5 -79.5l-102 -42q-22 63 -41 146t-19 164z" />
<glyph unicode=")" horiz-adv-x="346" d="M-28 -134q105 143 152.5 285t47.5 283q0 41 -3.5 87.5t-11 91t-19.5 79.5l102 42q23 -63 41.5 -146t18.5 -164q0 -116 -27 -217t-79.5 -195.5t-129.5 -191.5z" />
<glyph unicode="*" horiz-adv-x="452" d="M92 556l36 74l110 -34l34 118l82 -6l-8 -122l118 14l12 -80l-114 -40l38 -110l-74 -42l-64 96l-90 -84l-60 56l78 102z" />
<glyph unicode="+" d="M48 274v112h166v182h116v-182h166v-112h-168v-182h-116v182h-164z" />
<glyph unicode="," horiz-adv-x="310" d="M-26 -110q62 17 94.5 47.5t42.5 64.5q-37 2 -61 22.5t-24 57.5q0 41 28 71.5t76 30.5q45 0 69.5 -28.5t24.5 -79.5q0 -69 -28 -125.5t-80.5 -94.5t-125.5 -52z" />
<glyph unicode="-" horiz-adv-x="328" d="M32 198l24 112h240l-24 -112h-240z" />
<glyph unicode="&#xad;" horiz-adv-x="328" d="M32 198l24 112h240l-24 -112h-240z" />
<glyph unicode="." horiz-adv-x="310" d="M24 72q0 27 14 53t38.5 42.5t57.5 16.5q36 0 58 -24t22 -60q0 -28 -13.5 -53.5t-38.5 -42t-58 -16.5q-36 0 -58 23.5t-22 60.5z" />
<glyph unicode="/" horiz-adv-x="324" d="M-68 -160l348 870h104l-350 -870h-102z" />
<glyph unicode="0" d="M36 220q0 112 25.5 192.5t67.5 132t92.5 76.5t100.5 25q52 0 94 -25t67 -76.5t25 -132.5q0 -112 -25 -192t-66.5 -131.5t-92 -76t-100.5 -24.5q-52 0 -94.5 24.5t-68 76t-25.5 131.5zM184 202q0 -55 14 -73.5t36 -18.5q30 0 59.5 40.5t49 112.5t19.5 167q0 56 -13.5 75 t-36.5 19q-30 0 -59.5 -41t-49 -113.5t-19.5 -167.5z" />
<glyph unicode="1" d="M16 0l26 128h128l70 346h-116l20 100q56 9 94.5 23.5t75.5 36.5h118l-102 -506h112l-26 -128h-400z" />
<glyph unicode="2" d="M-14 0l18 90q94 76 168.5 138.5t118 117.5t43.5 108q0 30 -17 48t-49 18q-25 0 -46.5 -13t-47.5 -33l-76 92q47 39 94.5 59.5t95.5 20.5q93 0 147.5 -48t54.5 -128q0 -62 -30.5 -115.5t-83 -106.5t-118.5 -114h192l-26 -134h-438z" />
<glyph unicode="3" d="M-18 104l100 82q26 -34 60 -52t62 -18q45 0 70.5 19t25.5 53q0 25 -12 42.5t-43.5 26.5t-90.5 9l22 112q62 0 96 11t47 30.5t13 44.5q0 26 -18 41t-50 15q-21 0 -41.5 -9t-50.5 -27l-76 102q51 35 99 47.5t99 12.5q59 0 104.5 -19.5t71.5 -54.5t26 -82q0 -60 -28.5 -101 t-103.5 -67v-4q51 -21 73.5 -56t22.5 -76q0 -65 -33.5 -109t-90.5 -66.5t-128 -22.5q-57 0 -118 26t-108 90z" />
<glyph unicode="4" d="M6 146l22 112l294 376h194l-73 -366h69l-24 -122h-69l-29 -146h-146l29 146h-267zM184 268h113l17 86q8 36 17.5 73t16.5 73h-4q-18 -30 -37 -60t-41 -60z" />
<glyph unicode="5" d="M-4 104l100 82q52 -70 118 -70q39 0 68.5 26t29.5 74q0 38 -20 57t-56 19q-22 0 -38.5 -5t-49.5 -23l-58 48l78 322h358l-26 -134h-220l-28 -100q14 6 26.5 8t25.5 2q72 0 121 -42.5t49 -125.5q0 -59 -22 -106t-59.5 -80t-84 -50.5t-96.5 -17.5q-57 0 -113 26t-103 90z " />
<glyph unicode="6" d="M50 218q0 130 42 226t115.5 149t168.5 53q42 0 73.5 -14.5t54 -35.5t36.5 -40l-100 -84q-13 20 -30.5 33t-43.5 13q-50 0 -92 -42t-62 -131q26 26 59.5 40.5t56.5 14.5q44 0 80 -17t57 -53.5t21 -95.5q0 -46 -16.5 -90t-47.5 -79t-73 -56t-93 -21q-63 0 -109 29t-71.5 81 t-25.5 120zM198 201q0 -47 19 -71t47 -24q27 0 44 19t24.5 46t7.5 50q0 34 -14.5 52.5t-41.5 18.5q-18 0 -39 -12t-46 -43q-1 -9 -1 -18v-18z" />
<glyph unicode="7" d="M90 500l26 134h444l-20 -100q-73 -65 -121.5 -132t-79 -135t-50 -135t-33.5 -132h-164q45 161 106 283.5t158 216.5h-266z" />
<glyph unicode="8" d="M32 152q0 64 39.5 108t96.5 66v4q-28 29 -43 61t-15 69q0 58 30 99.5t80.5 64t109.5 22.5q45 0 87 -15t69.5 -47.5t27.5 -85.5q0 -58 -30.5 -100.5t-83.5 -69.5v-4q38 -25 59 -61.5t21 -84.5q0 -58 -33.5 -100.5t-88.5 -66t-120 -23.5q-35 0 -71 9t-66.5 29t-49.5 51 t-19 75zM174 170q0 -28 18.5 -50t57.5 -22q33 0 58.5 20t25.5 60q0 32 -27.5 53t-74.5 49q-23 -19 -40.5 -47t-17.5 -63zM250 466q0 -31 20.5 -51.5t59.5 -42.5q19 19 33.5 43.5t14.5 58.5q0 25 -12.5 42.5t-47.5 17.5q-28 0 -48 -17.5t-20 -50.5z" />
<glyph unicode="9" d="M8 78l100 84q14 -19 31.5 -32.5t42.5 -13.5q50 0 92.5 42t61.5 131q-25 -26 -59 -40.5t-57 -14.5q-44 0 -80 17t-57 54t-21 95q0 46 16.5 90t47.5 79t73 56t93 21q63 0 109.5 -29t71.5 -80.5t25 -120.5q0 -130 -42 -226t-115.5 -149t-168.5 -53q-42 0 -73.5 14.5 t-54 35.5t-36.5 40zM208 413q0 -34 14.5 -52.5t41.5 -18.5q18 0 39 12t46 43q1 9 1 18v18q0 47 -18.5 71t-47.5 24q-27 0 -43.5 -19t-24.5 -45.5t-8 -50.5z" />
<glyph unicode=":" horiz-adv-x="310" d="M24 72q0 27 14 53t38.5 42.5t57.5 16.5q36 0 58 -24t22 -60q0 -28 -13.5 -53.5t-38.5 -42t-58 -16.5q-36 0 -58 23.5t-22 60.5zM78 392q0 27 14 53t38.5 42.5t57.5 16.5q36 0 58 -24t22 -60q0 -28 -13.5 -53.5t-38.5 -42t-58 -16.5q-36 0 -58 23.5t-22 60.5z" />
<glyph unicode=";" horiz-adv-x="310" d="M-26 -110q62 17 94.5 47.5t42.5 64.5q-37 2 -61 22.5t-24 57.5q0 41 28 71.5t76 30.5q45 0 69.5 -28.5t24.5 -79.5q0 -69 -28 -125.5t-80.5 -94.5t-125.5 -52zM78 392q0 27 14 53t38.5 42.5t57.5 16.5q36 0 58 -24t22 -60q0 -28 -13.5 -53.5t-38.5 -42t-58 -16.5 q-36 0 -58 23.5t-22 60.5z" />
<glyph unicode="&#x3c;" d="M46 276v110l450 178v-130l-158 -54l-130 -46v-4l130 -46l158 -54v-132z" />
<glyph unicode="=" d="M48 154v112h448v-112h-448zM48 394v112h448v-112h-448z" />
<glyph unicode="&#x3e;" d="M48 98v132l158 54l130 46v4l-130 46l-158 54v130l450 -178v-110z" />
<glyph unicode="?" horiz-adv-x="458" d="M88 72q0 27 14 53t38.5 42.5t57.5 16.5q36 0 58 -24t22 -60q0 -28 -13.5 -53.5t-38.5 -42t-58 -16.5q-36 0 -58 23.5t-22 60.5zM114 610q75 72 166 72q86 0 139 -41t53 -115q0 -46 -17 -77.5t-43 -55t-53.5 -46t-48.5 -49.5t-28 -66l-136 12q5 47 24 79t43.5 55t48 41.5 t39 38t15.5 44.5q0 24 -15 38t-41 14q-32 0 -66 -34z" />
<glyph unicode="@" horiz-adv-x="886" d="M42 162q0 108 38 201t103.5 163t150 109t178.5 39q107 0 182.5 -42t115.5 -113t40 -157q0 -109 -34 -181.5t-91 -108.5t-125 -36q-34 0 -63 18.5t-39 55.5h-4q-18 -28 -50 -46t-62 -18q-55 0 -91.5 41t-36.5 107q0 48 16 93t45 80t66 56t79 21q23 0 39.5 -11t28.5 -37h2 l16 40h96l-52 -224q-9 -40 0.5 -59t39.5 -19q25 0 53 23.5t47.5 70.5t19.5 118q0 44 -13 86t-42 76t-78 54t-121 20q-61 0 -122 -30.5t-112 -85t-81.5 -127.5t-30.5 -159q0 -67 22 -116t59 -81t82 -47.5t91 -15.5q24 0 56 9.5t56 24.5l42 -86q-43 -21 -84 -32.5t-84 -11.5 q-68 0 -130.5 21t-111.5 62.5t-77.5 105.5t-28.5 149zM372 202q0 -27 11 -42.5t33 -15.5q14 0 27 10t29 34l30 130q-12 26 -38 26t-47 -23t-33 -56t-12 -63z" />
<glyph unicode="A" horiz-adv-x="562" d="M-66 0l340 650h192l62 -650h-168l-4 148h-179l-67 -148h-176zM232 268h120l-2 76q-1 47 -2.5 92t-1.5 94h-4q-19 -48 -37 -93.5t-39 -92.5z" />
<glyph unicode="B" horiz-adv-x="612" d="M26 0l130 650h208q66 0 117 -15.5t80 -48.5t29 -86q0 -52 -36 -96.5t-104 -65.5l-2 -4q110 -27 110 -118q0 -78 -40 -125.5t-105 -69t-141 -21.5h-246zM210 122h74q60 0 90 24t30 64q0 72 -88 72h-74zM264 390h54q59 0 83.5 22.5t24.5 59.5q0 56 -88 56h-46z" />
<glyph unicode="C" horiz-adv-x="574" d="M56 264q0 87 27.5 160t75.5 126t111.5 82.5t135.5 29.5q57 0 103.5 -27.5t74.5 -78.5l-108 -84q-35 52 -78 52q-47 0 -87.5 -33.5t-65.5 -90t-25 -126.5t29 -109t95 -39q26 0 52 13.5t48 32.5l66 -102q-18 -17 -47.5 -36t-68 -32.5t-84.5 -13.5q-76 0 -133 32.5t-89 94 t-32 149.5z" />
<glyph unicode="D" horiz-adv-x="626" d="M26 0l130 650h152q137 0 214.5 -62t77.5 -194t-47.5 -219.5t-129 -131t-183.5 -43.5h-214zM212 128h24q54 0 99.5 25t73 81t27.5 150q0 77 -37.5 107.5t-94.5 30.5h-14z" />
<glyph unicode="E" horiz-adv-x="536" d="M26 0l130 650h396l-26 -134h-238l-22 -114h202l-26 -134h-202l-28 -134h246l-26 -134h-406z" />
<glyph unicode="F" horiz-adv-x="516" d="M26 0l130 650h396l-26 -134h-238l-26 -134h202l-26 -134h-202l-50 -248h-160z" />
<glyph unicode="G" horiz-adv-x="620" d="M56 264q0 87 27.5 160t76.5 126t114.5 82.5t141.5 29.5q65 0 112.5 -27.5t75.5 -78.5l-108 -84q-35 52 -88 52q-52 0 -94.5 -33.5t-68 -90t-25.5 -126.5t29.5 -110t98.5 -40q32 0 56 16l24 108h-96l24 130h236l-62 -322q-37 -28 -92 -48t-118 -20q-121 0 -192.5 72 t-71.5 204z" />
<glyph unicode="H" horiz-adv-x="664" d="M26 0l130 650h160l-50 -244h194l48 244h160l-130 -650h-160l54 266h-194l-52 -266h-160z" />
<glyph unicode="I" horiz-adv-x="310" d="M26 0l130 650h160l-130 -650h-160z" />
<glyph unicode="J" horiz-adv-x="504" d="M-10 86l96 98q15 -21 40 -39.5t56 -18.5q35 0 56.5 27t33.5 86l82 411h160l-88 -439q-12 -59 -41 -110t-79 -82t-124 -31q-55 0 -107.5 25t-84.5 73z" />
<glyph unicode="K" horiz-adv-x="622" d="M26 0l130 650h160l-49 -246h4l213 246h174l-234 -274l144 -376h-166l-96 276l-84 -96l-36 -180h-160z" />
<glyph unicode="L" horiz-adv-x="514" d="M26 0l130 650h160l-104 -516h236l-26 -134h-396z" />
<glyph unicode="M" horiz-adv-x="754" d="M26 0l130 650h166l42 -280l15 -110h4l57 110l152 280h166l-130 -650h-150l46 216q7 34 18 74.5t23 80.5t23 73h-3l-81 -152l-138 -236h-60l-42 236l-20 152h-3q-2 -33 -5.5 -73.5t-8 -81t-11.5 -73.5l-44 -216h-146z" />
<glyph unicode="N" horiz-adv-x="652" d="M26 0l130 650h154l90 -308l32 -146h4q5 53 9.5 120.5t16.5 125.5l42 208h152l-130 -650h-154l-90 308l-30 146h-4q-4 -55 -10 -120t-18 -124l-42 -210h-152z" />
<glyph unicode="O" horiz-adv-x="670" d="M56 264q0 91 28 164t75.5 125.5t108 80.5t124.5 28q75 0 132 -32.5t88.5 -94t31.5 -149.5q0 -91 -28 -164t-75.5 -125.5t-107.5 -80.5t-125 -28q-75 0 -131.5 32.5t-88.5 94t-32 149.5zM220 274q0 -70 25.5 -109t70.5 -39q37 0 75 31.5t63.5 87.5t25.5 131 q0 71 -25.5 109.5t-70.5 38.5q-37 0 -75 -31.5t-63.5 -87.5t-25.5 -131z" />
<glyph unicode="P" horiz-adv-x="596" d="M26 0l130 650h214q65 0 117 -17.5t82.5 -56.5t30.5 -104q0 -71 -24.5 -121t-67.5 -80.5t-98 -44.5t-116 -14h-66l-42 -212h-160zM254 338h59q62 0 95.5 28t33.5 82q0 39 -25 57.5t-69 18.5h-58z" />
<glyph unicode="Q" horiz-adv-x="670" d="M56 264q0 91 28 164t75.5 125.5t108 80.5t124.5 28q75 0 132 -32.5t88.5 -94t31.5 -149.5q0 -105 -37 -186.5t-98.5 -134t-134.5 -69.5q21 -26 56 -38t72 -12q21 0 37.5 3t32.5 7l6 -120q-18 -7 -43 -12.5t-43 -5.5q-213 0 -289 189q-68 28 -107.5 93.5t-39.5 163.5z M220 274q0 -76 25.5 -115t70.5 -39q37 0 75 31t63.5 88.5t25.5 136.5q0 71 -25.5 109.5t-70.5 38.5q-37 0 -75 -31.5t-63.5 -87.5t-25.5 -131z" />
<glyph unicode="R" horiz-adv-x="612" d="M26 0l130 650h214q65 0 117 -16.5t82.5 -54.5t30.5 -101q0 -91 -44.5 -147t-112.5 -82l97 -249h-168l-75 224h-67l-44 -224h-160zM256 350h58q65 0 96.5 29t31.5 75q0 36 -24.5 53t-69.5 17h-58z" />
<glyph unicode="S" horiz-adv-x="538" d="M2 113l114 90q26 -35 62.5 -57t73.5 -22q35 0 55.5 15t20.5 42q0 22 -20 35.5t-54 34.5l-56 35q-45 29 -70.5 67t-25.5 99q0 59 32 106.5t86.5 75.5t120.5 28q57 0 109.5 -27t92.5 -74l-100 -94q-25 25 -50.5 41t-57.5 16q-34 0 -51.5 -16.5t-17.5 -39.5 q0 -20 20.5 -33.5t59.5 -38.5l60 -37q47 -28 67.5 -63t20.5 -92q0 -59 -31 -108.5t-88 -78.5t-135 -29q-62 0 -124.5 28.5t-113.5 96.5z" />
<glyph unicode="T" horiz-adv-x="540" d="M80 516l26 134h488l-26 -134h-164l-102 -516h-160l102 516h-164z" />
<glyph unicode="U" horiz-adv-x="654" d="M74 222q0 23 5 54t9 56l64 318h160l-70 -350q-3 -19 -5.5 -37.5t-2.5 -36.5q0 -49 18.5 -74.5t67.5 -25.5q44 0 70 36t42 120l74 368h156l-74 -364q-30 -153 -95.5 -225.5t-176.5 -72.5q-121 0 -181.5 57t-60.5 177z" />
<glyph unicode="V" horiz-adv-x="576" d="M78 650h168l12 -304q2 -51 3 -102.5t1 -103.5h4q22 52 43 103t43 103l132 304h176l-334 -650h-194z" />
<glyph unicode="W" horiz-adv-x="808" d="M70 0l28 650h164l-26 -294q-5 -51 -10.5 -103.5t-13.5 -104.5h4q20 52 41.5 105t40.5 103l123 294h133v-294q-1 -49 -4 -102l-6 -106h4q17 53 35 105.5t33 102.5l98 294h152l-246 -650h-202l8 278q0 29 3.5 71.5t7.5 79.5h-4q-13 -36 -28 -74.5t-29 -76.5l-108 -278h-198 z" />
<glyph unicode="X" horiz-adv-x="576" d="M-36 0l238 334l-98 316h178l24 -114q5 -22 10 -48.5t12 -57.5h4q17 31 32 57.5t28 48.5l64 114h170l-226 -322l106 -328h-178l-28 126q-6 26 -12 51.5t-12 54.5h-4q-16 -29 -31.5 -54.5t-30.5 -51.5l-76 -126h-170z" />
<glyph unicode="Y" horiz-adv-x="528" d="M79 650h166l21 -144q6 -37 11 -71t11 -73h4q20 39 37.5 74t38.5 72l78 142h172l-276 -422l-46 -228h-159l45 228z" />
<glyph unicode="Z" horiz-adv-x="530" d="M-6 0l20 96l330 420h-240l26 134h432l-20 -96l-326 -420h264l-28 -134h-458z" />
<glyph unicode="[" horiz-adv-x="344" d="M-8 -152l172 860h212l-16 -84h-94l-138 -692h94l-18 -84h-212z" />
<glyph unicode="\" horiz-adv-x="324" d="M84 710h102l62 -870h-104z" />
<glyph unicode="]" horiz-adv-x="344" d="M-22 -152l18 84h92l138 692h-92l16 84h212l-172 -860h-212z" />
<glyph unicode="^" horiz-adv-x="516" d="M68 272l150 398h126l150 -398h-130l-38 118l-42 136h-4l-44 -136l-38 -118h-130z" />
<glyph unicode="_" horiz-adv-x="480" d="M-52 -144l18 88h456l-18 -88h-456z" />
<glyph unicode="`" horiz-adv-x="540" d="M204 742l136 102l124 -199l-98 -76z" />
<glyph unicode="a" horiz-adv-x="558" d="M28 172q0 71 22 133t59.5 108.5t85 72.5t99.5 26q32 0 61.5 -16.5t42.5 -45.5h2l22 50h128l-100 -500h-130v62h-2q-33 -34 -73.5 -54t-76.5 -20q-66 0 -103 48t-37 136zM194 192q0 -39 12.5 -56.5t33.5 -17.5q20 0 44.5 13t43.5 53l32 160q-9 20 -24.5 29t-29.5 9 q-29 0 -54.5 -24t-41.5 -67t-16 -99z" />
<glyph unicode="b" horiz-adv-x="560" d="M8 0l140 696h160l-30 -146l-26 -92h2q32 26 67 40t69 14q66 0 103 -47.5t37 -136.5q0 -71 -22 -133t-59.5 -108.5t-85 -72.5t-99.5 -26q-31 0 -58.5 17t-41.5 45h-2l-22 -50h-132zM200 156q8 -19 22.5 -28.5t29.5 -9.5q29 0 54.5 24t41.5 67t16 99q0 39 -12.5 56.5 t-33.5 17.5q-19 0 -42.5 -11.5t-41.5 -44.5z" />
<glyph unicode="c" horiz-adv-x="446" d="M26 196q0 63 22.5 120t63 101t95.5 69.5t119 25.5q48 0 83 -19.5t53 -42.5l-88 -94q-13 14 -26.5 21t-31.5 7q-36 0 -64.5 -25t-45 -67.5t-16.5 -93.5q0 -37 18 -59.5t54 -22.5q23 0 39 9t29 19l66 -98q-28 -21 -69 -39.5t-101 -18.5q-56 0 -101.5 24.5t-72 71 t-26.5 112.5z" />
<glyph unicode="d" horiz-adv-x="550" d="M28 172q0 71 22 133t59.5 108.5t85 72.5t99.5 26q32 0 57.5 -15t38.5 -41h2l10 94l28 146h160l-140 -696h-130v62h-2q-33 -34 -73.5 -54t-76.5 -20q-66 0 -103 48t-37 136zM194 192q0 -39 12.5 -56.5t33.5 -17.5q20 0 43.5 13t44.5 53l32 160q-9 20 -24.5 29t-29.5 9 q-29 0 -54.5 -24t-41.5 -67t-16 -99z" />
<glyph unicode="e" horiz-adv-x="502" d="M26 204q0 69 25 125.5t66 97.5t91 63t100 22q61 0 97.5 -26t52.5 -69t16 -95q0 -36 -10 -70.5t-16 -45.5h-272q0 -52 30.5 -75t73.5 -23q21 0 44.5 10t39.5 22l56 -100q-30 -21 -77 -36.5t-109 -15.5q-61 0 -108 26t-73.5 74.5t-26.5 115.5zM188 302h152q2 5 3 13t1 15 q0 26 -12 43t-44 17q-28 0 -55.5 -20.5t-44.5 -67.5z" />
<glyph unicode="f" horiz-adv-x="344" d="M34 0l76 376h-64l24 118l66 6l2 14q10 52 34.5 96t66.5 71t105 27q61 0 114 -28l-50 -112q-7 5 -20.5 9.5t-25.5 4.5q-25 0 -40.5 -10.5t-23.5 -51.5l-4 -20h82l-24 -124h-84l-74 -376h-160z" />
<glyph unicode="g" horiz-adv-x="552" d="M-8 -126l68 106q29 -21 60 -35.5t64 -14.5q41 0 69.5 19.5t40.5 56.5l26 82q-65 -68 -146 -68q-63 0 -104.5 43t-41.5 131q0 67 21 124.5t57.5 101t83 68t98.5 24.5q32 0 60.5 -16.5t41.5 -45.5h2l22 50h130l-96 -480q-22 -112 -91.5 -164t-176.5 -52q-42 0 -92.5 17 t-95.5 53zM194 214q0 -33 12.5 -48.5t31.5 -15.5q21 0 45 11t43 45l26 138q-9 20 -23.5 29t-28.5 9q-43 0 -74.5 -46.5t-31.5 -121.5z" />
<glyph unicode="h" horiz-adv-x="556" d="M8 0l140 696h160l-34 -162l-24 -88h4q30 27 68.5 46.5t83.5 19.5q62 0 90 -32.5t28 -97.5q0 -16 -1.5 -35t-6.5 -37l-62 -310h-160l58 290q3 14 5.5 24.5t2.5 19.5q0 42 -42 42q-21 0 -41 -13.5t-47 -42.5l-62 -320h-160z" />
<glyph unicode="i" horiz-adv-x="276" d="M8 0l100 500h160l-100 -500h-160zM126 638q0 36 28 63t68 27q32 0 58 -19t26 -55q0 -39 -27.5 -64.5t-68.5 -25.5q-31 0 -57.5 18.5t-26.5 55.5z" />
<glyph unicode="j" horiz-adv-x="278" d="M-134 -164l48 114q21 -12 42 -12q24 0 35.5 16.5t20.5 55.5l98 490h160l-100 -498q-11 -52 -34 -95t-63.5 -69t-102.5 -26q-27 0 -52 5.5t-52 18.5zM126 638q0 36 28 63t68 27q32 0 58 -19t26 -55q0 -39 -27.5 -64.5t-68.5 -25.5q-31 0 -57.5 18.5t-26.5 55.5z" />
<glyph unicode="k" horiz-adv-x="544" d="M8 0l140 696h160l-76 -376h4l164 180h176l-206 -222l118 -278h-160l-68 186l-68 -68l-24 -118h-160z" />
<glyph unicode="l" horiz-adv-x="286" d="M34 98q0 15 2 31t6 37l106 530h160l-108 -536q-1 -7 -1.5 -11t-0.5 -8q0 -14 6.5 -19.5t13.5 -5.5q5 0 8.5 0.5t9.5 1.5l-6 -118q-13 -4 -34 -8t-48 -4q-61 0 -87.5 29.5t-26.5 80.5z" />
<glyph unicode="m" horiz-adv-x="838" d="M8 0l100 500h130v-64h4q35 30 75 53t83 23q54 0 79 -22.5t37 -61.5q39 36 81 60t85 24q62 0 90 -32.5t28 -97.5q0 -34 -8 -72l-62 -310h-160l58 290q3 14 5.5 24.5t2.5 19.5q0 42 -42 42q-29 0 -82 -56l-64 -320h-160l58 290q3 14 5.5 24.5t2.5 19.5q0 21 -11 31.5 t-29 10.5q-31 0 -84 -56l-62 -320h-160z" />
<glyph unicode="n" horiz-adv-x="562" d="M8 0l100 500h130v-64h4q35 30 75.5 53t88.5 23q62 0 90 -32.5t28 -97.5q0 -34 -8 -72l-62 -310h-160l58 290q3 14 5.5 24.5t2.5 19.5q0 42 -42 42q-21 0 -41 -13.5t-47 -42.5l-62 -320h-160z" />
<glyph unicode="o" horiz-adv-x="540" d="M26 196q0 73 24.5 131t65.5 99.5t91.5 63.5t102.5 22q60 0 105 -26t70 -73t25 -109q0 -73 -24.5 -131t-65.5 -99.5t-91.5 -63.5t-102.5 -22q-60 0 -105 26t-70 73t-25 109zM188 198q0 -37 14 -59.5t42 -22.5q29 0 52.5 24t37.5 66t14 96q0 38 -13.5 60t-42.5 22 t-52.5 -24t-37.5 -66t-14 -96z" />
<glyph unicode="p" horiz-adv-x="560" d="M-28 -176l136 676h130l4 -54h2q33 30 71.5 48t74.5 18q66 0 103 -47.5t37 -136.5q0 -71 -22 -133t-59.5 -108.5t-85 -72.5t-99.5 -26q-28 0 -53.5 14.5t-40.5 39.5h-2l-12 -94l-24 -124h-160zM200 156q8 -19 22.5 -28.5t29.5 -9.5q29 0 54.5 24t41.5 67t16 99 q0 39 -12.5 56.5t-33.5 17.5q-19 0 -42.5 -11.5t-41.5 -44.5z" />
<glyph unicode="q" horiz-adv-x="558" d="M28 172q0 71 22 133t59.5 108.5t85 72.5t99.5 26q32 0 61.5 -16.5t42.5 -45.5h2l22 50h128l-136 -676h-160l26 124l40 114h-2q-33 -34 -73.5 -54t-76.5 -20q-66 0 -103 48t-37 136zM194 192q0 -39 12.5 -56.5t33.5 -17.5q20 0 43.5 13t44.5 53l32 160q-9 20 -24.5 29 t-29.5 9q-29 0 -54.5 -24t-41.5 -67t-16 -99z" />
<glyph unicode="r" horiz-adv-x="400" d="M8 0l100 500h130l-4 -98h4q29 48 68.5 79t81.5 31q21 0 34 -2.5t20 -7.5l-52 -138q-10 6 -25 7t-27 1q-31 0 -59 -21t-57 -71l-54 -280h-160z" />
<glyph unicode="s" horiz-adv-x="432" d="M-10 86l92 76q27 -31 52.5 -44.5t47.5 -13.5q23 0 39.5 9.5t16.5 24.5q0 20 -22.5 32t-61.5 34q-37 21 -66.5 56t-29.5 84q0 48 27 86t73 60t102 22q54 0 96.5 -23.5t73.5 -56.5l-86 -82q-18 18 -39 31t-45 13t-38 -10.5t-14 -25.5q0 -21 26 -33t54 -29q24 -13 47 -31.5 t38 -45t15 -63.5q0 -50 -27.5 -88t-76.5 -59t-112 -21q-29 0 -63 11t-65.5 32.5t-53.5 54.5z" />
<glyph unicode="t" horiz-adv-x="384" d="M42 376l24 118l72 6l44 128h134l-24 -128h108l-24 -124h-112l-38 -188q-1 -9 -1.5 -16.5t-0.5 -15.5q0 -44 48 -44q9 0 18 3t18 7l28 -112q-21 -7 -52.5 -14.5t-73.5 -7.5q-79 0 -114.5 39.5t-35.5 100.5q0 17 2.5 33.5t5.5 32.5l38 182h-64z" />
<glyph unicode="u" horiz-adv-x="552" d="M32 118q0 34 8 72l62 310h160l-58 -290q-3 -13 -5.5 -24t-2.5 -20q0 -42 42 -42q20 0 39 14t43 42l62 320h160l-98 -500h-130v64h-4q-31 -30 -73 -53t-87 -23q-61 0 -89.5 33t-28.5 97z" />
<glyph unicode="v" horiz-adv-x="518" d="M60 500h160l10 -228q2 -37 2 -75.5v-78.5h4q17 39 32.5 77t31.5 77l98 228h156l-250 -500h-184z" />
<glyph unicode="w" horiz-adv-x="764" d="M73 500h158l-5 -222q-1 -37 -4.5 -74.5t-5.5 -75.5h4q14 38 27 76t29 74l91 222h136l5 -222v-30v-44q-2 -38 -2 -76h4q14 38 25.5 75.5t24.5 74.5l80 222h148l-208 -500h-186v186q2 35 2 70.5t2 75.5h-4q-14 -40 -25.5 -75.5t-24.5 -70.5l-72 -186h-180z" />
<glyph unicode="x" horiz-adv-x="514" d="M-38 0l206 268l-84 232h162l25 -78q5 -21 11 -42t11 -42h4q11 21 24 42t23 42l38 78h170l-192 -268l90 -232h-164l-26 76q-7 21 -13 43t-13 43h-4q-12 -21 -25 -42.5t-26 -43.5l-46 -76h-171z" />
<glyph unicode="y" horiz-adv-x="518" d="M-24 -166l48 114q17 -10 38 -10q23 0 45.5 15.5t35.5 41.5l10 20l-88 485h159l18 -205q3 -32 4.5 -73.5t1.5 -77.5h4q15 35 32 76t32 75l90 205h154l-261 -499q-56 -97 -111.5 -143t-135.5 -46q-15 0 -38 6.5t-38 15.5z" />
<glyph unicode="z" horiz-adv-x="456" d="M-10 0l18 90l240 286h-164l24 124h364l-18 -92l-240 -284h190l-24 -124h-390z" />
<glyph unicode="{" horiz-adv-x="342" d="M24 232l20 92q50 2 71.5 26.5t26.5 49.5q6 31 8 54.5t4.5 48t9.5 59.5q11 55 28.5 87t47 45.5t75.5 13.5h70l-18 -84h-16q-28 0 -40 -14.5t-20 -53.5q-7 -38 -13 -75t-14 -81q-12 -60 -37.5 -87.5t-66.5 -36.5l-1 -4q30 -7 45.5 -23t15.5 -51q0 -25 -6.5 -56.5t-15.5 -64 t-15.5 -62t-6.5 -49.5q0 -19 8 -26.5t30 -7.5h14l-16 -84h-68q-55 0 -77.5 23.5t-22.5 66.5q0 30 7.5 63.5t17.5 66.5t17.5 60t7.5 44q0 23 -14.5 41t-55.5 19z" />
<glyph unicode="|" horiz-adv-x="264" d="M86 -250v1000h98v-1000h-98z" />
<glyph unicode="}" horiz-adv-x="346" d="M-32 -152l18 84h16q28 0 40.5 14.5t19.5 53.5q8 38 13.5 75.5t13.5 80.5q12 60 37.5 87.5t66.5 36.5l1 4q-30 7 -45.5 23.5t-15.5 50.5q0 25 6.5 56.5t15.5 64t15.5 62t6.5 49.5q0 19 -7.5 26.5t-30.5 7.5h-14l16 84h68q56 0 78 -23t22 -67q0 -30 -7.5 -63.5t-17.5 -66.5 t-17.5 -60t-7.5 -44q0 -22 15 -40t55 -20l-20 -92q-49 -1 -71 -25.5t-27 -50.5q-6 -31 -8 -54.5t-4.5 -48t-9.5 -59.5q-11 -55 -28.5 -87t-47 -45.5t-75.5 -13.5h-70z" />
<glyph unicode="~" d="M36 314q35 60 75 84t77 24q29 0 51 -11t40 -26t36 -26t37 -11q39 0 66 54l80 -54q-34 -60 -74 -84t-78 -24q-28 0 -50.5 11t-40.5 26t-35.5 26t-37.5 11q-39 0 -66 -54z" />
<glyph unicode="&#xa1;" horiz-adv-x="350" d="M16 -170l32 140l82 292h104l-58 -432h-160zM118 400q0 28 14 53.5t38.5 42t57.5 16.5q36 0 58 -23t22 -61q0 -27 -13.5 -52.5t-38.5 -42.5t-58 -17q-36 0 -58 24t-22 60z" />
<glyph unicode="&#xa2;" d="M70 286q0 85 38 148.5t99 101.5t129 48l18 94h86l-19 -94q36 -7 62.5 -27t48.5 -45l-92 -86q-11 11 -22 18t-22 11l-50 -255q35 6 68 30l48 -102q-34 -22 -69 -36t-73 -19l-18 -93h-86l18 93q-74 13 -119 68t-45 145zM226 310q0 -65 37 -94l46 233q-39 -16 -61 -53.5 t-22 -85.5z" />
<glyph unicode="&#xa3;" d="M-4 0l20 98q58 24 94.5 65.5t40.5 98.5h-95l20 108l66 5q-1 9 -1.5 17.5t-0.5 15.5q0 71 33 124.5t89 83.5t124 30q54 0 94 -22.5t70 -63.5l-102 -84q-16 21 -31.5 31.5t-38.5 10.5q-36 0 -63 -31t-27 -103v-4v-4h144l-22 -114h-116q-7 -69 -54 -124v-4h226l-24 -134 h-446z" />
<glyph unicode="&#xa4;" d="M6 166l63 54q-17 34 -17 76q0 45 15.5 82.5t41.5 66.5l-45 55l84 72l51 -63q52 23 107 23q28 0 53 -5.5t46 -15.5l71 61l68 -80l-64 -55q8 -16 12 -34.5t4 -38.5q0 -45 -15.5 -82.5t-41.5 -66.5l47 -57l-84 -72l-53 64q-25 -11 -52.5 -16.5t-54.5 -5.5t-51 5t-45 15 l-72 -62zM198 308q0 -31 17 -49.5t45 -18.5q35 0 62.5 31.5t27.5 80.5q0 33 -16.5 50.5t-45.5 17.5q-34 0 -62 -31t-28 -81z" />
<glyph unicode="&#xa5;" d="M14 145l15 74h145l10 53h-145l15 75h112l-79 288h163l16 -127q4 -33 8.5 -66t10.5 -65h3l36 66t36 65l66 127h159l-194 -288h112l-15 -75h-145l-11 -53h145l-15 -74h-145l-29 -145h-158l29 145h-145z" />
<glyph unicode="&#xa6;" horiz-adv-x="264" d="M86 202h98v-452h-98v452zM86 316v434h98v-434h-98z" />
<glyph unicode="&#xa7;" horiz-adv-x="516" d="M-4 0l78 98q24 -24 59 -46t71 -22q48 0 48 38q0 18 -21 34t-51.5 33.5t-61 41t-51.5 56.5t-21 79q0 50 29 87.5t73 59.5q-7 14 -11.5 29t-4.5 32q0 49 23 88t65 61.5t98 22.5q48 0 94.5 -21.5t83.5 -60.5l-80 -88q-19 18 -44 34t-54 16q-18 0 -30 -9t-12 -27 q0 -17 21.5 -33t53.5 -34.5t64 -42.5t53.5 -57t21.5 -77q0 -55 -28 -93.5t-75 -64.5q9 -21 9 -48q0 -79 -55 -126.5t-145 -47.5q-49 0 -103.5 23t-96.5 65zM182 330q0 -23 21.5 -41.5t53 -36.5t61.5 -40q16 10 25 25t9 37q0 23 -21 41t-52 35.5t-62 38.5q-15 -9 -25 -23.5 t-10 -35.5z" />
<glyph unicode="&#xa8;" horiz-adv-x="540" d="M160 632q0 32 24 57t60 25q28 0 47 -17.5t19 -48.5q0 -34 -24 -58t-60 -24q-28 0 -47 17t-19 49zM380 632q0 32 24 57t60 25q28 0 47 -17.5t19 -48.5q0 -34 -24 -58t-60 -24q-28 0 -47 17t-19 49z" />
<glyph unicode="&#xa9;" horiz-adv-x="674" d="M28 270q0 81 28 151t78.5 123t120 82.5t151.5 29.5q78 0 139 -36t96 -99t35 -143q0 -81 -28 -151t-78.5 -123t-119.5 -82.5t-152 -29.5q-78 0 -139 36t-96 99t-35 143zM100 276q0 -57 22.5 -106.5t68 -79.5t113.5 -30q63 0 117.5 24t95.5 66.5t64 99.5t23 122 q0 57 -22.5 106.5t-68 79.5t-113.5 30q-63 0 -117.5 -24t-95.5 -66.5t-64 -99.5t-23 -122zM172 284q0 53 20 96t53 73.5t73 46.5t80 16q35 0 62 -17t42 -35l-66 -64q-12 14 -25 19t-27 5q-23 0 -45.5 -16t-37.5 -44.5t-15 -65.5q0 -36 19 -57t53 -21q18 0 31.5 5.5 t32.5 18.5l44 -68q-31 -25 -65.5 -36.5t-68.5 -11.5q-72 0 -116 42t-44 114z" />
<glyph unicode="&#xaa;" horiz-adv-x="369" d="M74 482q0 63 25.5 114.5t66 81.5t86.5 30q21 0 38 -12t26 -30h4l16 34h90l-66 -332h-90v40h-4q-21 -22 -47.5 -35t-50.5 -13q-43 0 -68.5 32t-25.5 90zM188 496q0 -24 8 -35t20 -11q14 0 29.5 8.5t28.5 33.5l18 102q-4 12 -13.5 18t-18.5 6q-27 0 -49.5 -34t-22.5 -88z " />
<glyph unicode="&#xab;" horiz-adv-x="480" d="M40 200l20 112l152 136l48 -52l-130 -150l76 -152l-62 -40zM240 200l20 112l152 136l48 -52l-130 -150l76 -152l-62 -40z" />
<glyph unicode="&#xac;" d="M48 274v112h448v-294h-114v182h-334z" />
<glyph unicode="&#xae;" horiz-adv-x="458" d="M84 488q0 58 26.5 110t74 85t111.5 33q47 0 87 -23.5t65 -64t26 -92.5q0 -58 -26.5 -110t-74.5 -85t-111 -33q-48 0 -88.5 23.5t-65 64t-24.5 92.5zM140 492q0 -55 34.5 -93.5t91.5 -38.5q45 0 79.5 24t53.5 63t19 85q0 56 -34.5 94t-91.5 38q-45 0 -79 -24t-53.5 -63 t-19.5 -85zM180 416l40 194h88q30 0 49 -15.5t19 -42.5q0 -19 -12 -37t-36 -27l24 -72h-60l-16 58h-24l-12 -58h-60zM260 516h14q18 0 27 9t9 21q0 20 -24 20h-16z" />
<glyph unicode="&#xaf;" horiz-adv-x="540" d="M188 590l20 100h294l-20 -100h-294z" />
<glyph unicode="&#xb0;" horiz-adv-x="362" d="M92 524q0 45 22.5 82t59 58.5t78.5 21.5q59 0 95.5 -36t36.5 -96q0 -45 -22.5 -81.5t-59 -58.5t-78.5 -22q-58 0 -95 36t-37 96zM176 524q0 -22 13.5 -39t40.5 -17q32 0 51 26t19 60q0 23 -13.5 39.5t-40.5 16.5q-31 0 -50.5 -25.5t-19.5 -60.5z" />
<glyph unicode="&#xb1;" d="M48 0v112h448v-112h-448zM48 310v112h166v146h116v-146h166v-112h-168v-146h-116v146h-164z" />
<glyph unicode="&#xb2;" horiz-adv-x="368" d="M58 368l12 62q98 62 149 112.5t51 89.5q0 17 -10.5 27.5t-31.5 10.5q-13 0 -26 -9t-28 -23l-64 68q36 32 67 48t73 16q63 0 99.5 -31t36.5 -85q0 -51 -35 -96.5t-89 -91.5h100l-20 -98h-284z" />
<glyph unicode="&#xb3;" horiz-adv-x="364" d="M62 436l74 54q27 -42 67 -42q26 0 40.5 12.5t14.5 27.5q0 21 -14.5 32.5t-63.5 11.5l14 69q52 0 67 15.5t15 34.5q0 13 -9.5 21t-26.5 8q-16 0 -28 -4t-32 -18l-48 76q36 21 67 28.5t68 7.5q55 0 90 -27t35 -71q0 -37 -17.5 -63t-58.5 -43q54 -32 54 -84q0 -40 -21 -68 t-56.5 -43t-78.5 -15q-55 0 -92 22t-60 58z" />
<glyph unicode="&#xb4;" horiz-adv-x="540" d="M247 668l191 172l95 -122l-217 -140z" />
<glyph unicode="&#xb5;" horiz-adv-x="554" d="M-28 -176l134 676h160l-58 -290q-3 -13 -5.5 -24t-2.5 -20q0 -42 42 -42q20 0 39 13.5t43 41.5l62 321h158l-96 -500h-130v64h-4q-18 -28 -44.5 -48t-53.5 -20q-16 0 -30 4t-22 14l-6 -52l-27 -138h-159z" />
<glyph unicode="&#xb6;" horiz-adv-x="636" d="M68 376q0 73 24.5 125t66.5 85t96 48.5t113 15.5h42l-92 -460h-36q-57 0 -105.5 21.5t-78.5 63t-30 101.5zM320 -80l144 730h160l-144 -730h-160z" />
<glyph unicode="&#xb7;" horiz-adv-x="310" d="M74 312q0 27 14 53t38.5 42.5t57.5 16.5q36 0 58 -24t22 -60q0 -28 -13.5 -53.5t-38.5 -42t-58 -16.5q-36 0 -58 23.5t-22 60.5z" />
<glyph unicode="&#xb8;" horiz-adv-x="540" d="M70 -178q57 3 80.5 12t27.5 30q2 14 -11.5 24t-58.5 16l68 100h98l-40 -64q38 -9 54.5 -26.5t11.5 -49.5q-10 -54 -69.5 -79.5t-160.5 -28.5v66z" />
<glyph unicode="&#xb9;" horiz-adv-x="384" d="M152 642l14 72q42 6 67 16t53 28h90l-76 -390h-118l56 274h-86z" />
<glyph unicode="&#xba;" horiz-adv-x="362" d="M76 499q0 64 27.5 110.5t71 72.5t91.5 26q57 0 96.5 -36.5t39.5 -102.5q0 -64 -27.5 -110.5t-71 -72.5t-91.5 -26q-57 0 -96.5 36.5t-39.5 102.5zM188 500q0 -24 8 -38t26 -14q32 0 50 34.5t18 85.5q0 24 -8 38t-26 14q-31 0 -49.5 -34.5t-18.5 -85.5z" />
<glyph unicode="&#xbb;" horiz-adv-x="480" d="M28 106l130 150l-76 152l62 40l104 -146l-20 -112l-152 -136zM228 106l130 150l-76 152l62 40l104 -146l-20 -112l-152 -136z" />
<glyph unicode="&#xbc;" horiz-adv-x="788" d="M100 544l14 72q42 6 67 16t53 28h90l-76 -390h-118l56 274h-86zM124 -12l470 684h90l-470 -684h-90zM408 82l12 60l188 248h146l-45 -232h57l-16 -76h-56l-16 -82h-100l17 82h-187zM526 158h84l8 38l28 124h-4l-58 -86z" />
<glyph unicode="&#xbd;" horiz-adv-x="828" d="M96 544l14 72q42 6 67 16t53 28h90l-76 -390h-118l56 274h-86zM114 -12l470 684h90l-470 -684h-90zM452 0l12 62q98 62 149 112.5t51 89.5q0 17 -10.5 27.5t-31.5 10.5q-13 0 -26 -9t-28 -23l-64 68q36 32 67 48t73 16q63 0 99.5 -31t36.5 -85q0 -51 -35 -96.5t-89 -91.5 h100l-20 -98h-284z" />
<glyph unicode="&#xbe;" horiz-adv-x="798" d="M36 338l74 54q27 -42 67 -42q26 0 40.5 12.5t14.5 27.5q0 21 -14.5 32.5t-63.5 11.5l14 69q52 0 67 15.5t15 34.5q0 13 -9.5 21t-26.5 8q-16 0 -28 -4t-32 -18l-48 76q36 21 67 28.5t68 7.5q55 0 90 -27t35 -71q0 -37 -17.5 -63t-58.5 -43q54 -32 54 -84q0 -40 -21 -68 t-56.5 -43t-78.5 -15q-55 0 -92 22t-60 58zM144 -12l470 684h90l-470 -684h-90zM418 82l12 60l188 248h146l-45 -232h57l-16 -76h-56l-16 -82h-100l17 82h-187zM536 158h84l8 38l28 124h-4l-58 -86z" />
<glyph unicode="&#xbf;" horiz-adv-x="458" d="M0 -26q0 46 17 77.5t43 55t53.5 46t48.5 49.5t28 66l136 -12q-5 -47 -24 -79t-43.5 -55t-48 -41.5t-39 -38t-15.5 -44.5q0 -24 15.5 -38t40.5 -14q32 0 66 34l80 -90q-75 -72 -166 -72q-85 0 -138.5 41.5t-53.5 114.5zM194 400q0 28 14 53.5t38.5 42t57.5 16.5 q36 0 58 -23t22 -61q0 -27 -13.5 -52.5t-38.5 -42.5t-58 -17q-36 0 -58 24t-22 60z" />
<glyph unicode="&#xc0;" horiz-adv-x="562" d="M-66 0l340 650h192l62 -650h-168l-4 148h-179l-67 -148h-176zM223 806l109 101l156 -159l-90 -78zM232 268h120l-2 76q-1 47 -2.5 92t-1.5 94h-4q-19 -48 -37 -93.5t-39 -92.5z" />
<glyph unicode="&#xc1;" horiz-adv-x="562" d="M-66 0l340 650h192l62 -650h-168l-4 148h-179l-67 -148h-176zM232 268h120l-2 76q-1 47 -2.5 92t-1.5 94h-4q-19 -48 -37 -93.5t-39 -92.5zM271 772l207 127l70 -117l-216 -102z" />
<glyph unicode="&#xc2;" horiz-adv-x="562" d="M-66 0l340 650h192l62 -650h-168l-4 148h-179l-67 -148h-176zM198 730l104 104h188l64 -110l-78 -44l-84 80h-4l-124 -80zM232 268h120l-2 76q-1 47 -2.5 92t-1.5 94h-4q-19 -48 -37 -93.5t-39 -92.5z" />
<glyph unicode="&#xc3;" horiz-adv-x="562" d="M-66 0l340 650h192l62 -650h-168l-4 148h-179l-67 -148h-176zM172 704q20 83 63.5 117.5t98.5 34.5q35 0 57.5 -13t38.5 -26t30 -13q12 0 22.5 8.5t17.5 33.5l108 -8q-19 -82 -63 -117t-99 -35q-35 0 -57.5 13t-38.5 26t-30 13q-12 0 -22 -8t-18 -34zM232 268h120l-2 76 q-1 47 -2.5 92t-1.5 94h-4q-19 -48 -37 -93.5t-39 -92.5z" />
<glyph unicode="&#xc4;" horiz-adv-x="562" d="M-66 0l340 650h192l62 -650h-168l-4 148h-179l-67 -148h-176zM206 760q0 30 23 57t59 27q26 0 45 -17t19 -47t-23 -57t-59 -27q-27 0 -45.5 17t-18.5 47zM232 268h120l-2 76q-1 47 -2.5 92t-1.5 94h-4q-19 -48 -37 -93.5t-39 -92.5zM426 760q0 30 23 57t59 27 q26 0 45 -17t19 -47t-23 -57t-59 -27q-27 0 -45.5 17t-18.5 47z" />
<glyph unicode="&#xc5;" horiz-adv-x="562" d="M-66 0l340 650h192l62 -650h-168l-4 148h-179l-67 -148h-176zM232 268h120l-2 76q-1 47 -2.5 92t-1.5 94h-4q-19 -48 -37 -93.5t-39 -92.5zM272 784q0 31 17.5 57t47.5 41.5t65 15.5q44 0 79 -21.5t35 -66.5q0 -32 -17.5 -58t-47 -41t-65.5 -15q-46 0 -80 21t-34 67z M356 790q0 -13 8 -23.5t24 -10.5q17 0 30.5 14.5t13.5 33.5q0 14 -8 24t-24 10q-19 0 -31.5 -15t-12.5 -33z" />
<glyph unicode="&#xc6;" horiz-adv-x="852" d="M-36 0l408 650h496l-26 -134h-230l-22 -114h194l-26 -134h-194l-28 -134h238l-26 -134h-398l28 140h-154l-80 -140h-180zM295 264h108l54 272h-3q-27 -46 -52.5 -88.5t-51.5 -87.5z" />
<glyph unicode="&#xc7;" horiz-adv-x="574" d="M56 264q0 87 27.5 160t75.5 126t111.5 82.5t135.5 29.5q57 0 103.5 -27.5t74.5 -78.5l-108 -84q-35 52 -78 52q-47 0 -87.5 -33.5t-65.5 -90t-25 -126.5t29 -109t95 -39q26 0 52 13.5t48 32.5l66 -102q-18 -17 -47.5 -36t-68 -32.5t-84.5 -13.5q-76 0 -133 32.5t-89 94 t-32 149.5zM130 -178q57 3 80.5 12t27.5 30q2 14 -11.5 24t-58.5 16l68 100h98l-40 -64q38 -9 54.5 -26.5t11.5 -49.5q-10 -54 -69.5 -79.5t-160.5 -28.5v66z" />
<glyph unicode="&#xc8;" horiz-adv-x="536" d="M26 0l130 650h396l-26 -134h-238l-22 -114h202l-26 -134h-202l-28 -134h246l-26 -134h-406zM213 806l109 101l156 -159l-90 -78z" />
<glyph unicode="&#xc9;" horiz-adv-x="536" d="M26 0l130 650h396l-26 -134h-238l-22 -114h202l-26 -134h-202l-28 -134h246l-26 -134h-406zM261 772l207 127l70 -117l-216 -102z" />
<glyph unicode="&#xca;" horiz-adv-x="536" d="M26 0l130 650h396l-26 -134h-238l-22 -114h202l-26 -134h-202l-28 -134h246l-26 -134h-406zM188 730l104 104h188l64 -110l-78 -44l-84 80h-4l-124 -80z" />
<glyph unicode="&#xcb;" horiz-adv-x="536" d="M26 0l130 650h396l-26 -134h-238l-22 -114h202l-26 -134h-202l-28 -134h246l-26 -134h-406zM196 760q0 30 23 57t59 27q26 0 45 -17t19 -47t-23 -57t-59 -27q-27 0 -45.5 17t-18.5 47zM416 760q0 30 23 57t59 27q26 0 45 -17t19 -47t-23 -57t-59 -27q-27 0 -45.5 17 t-18.5 47z" />
<glyph unicode="&#xcc;" horiz-adv-x="310" d="M26 0l130 650h160l-130 -650h-160zM93 806l109 101l156 -159l-90 -78z" />
<glyph unicode="&#xcd;" horiz-adv-x="310" d="M26 0l130 650h160l-130 -650h-160zM141 772l207 127l70 -117l-216 -102z" />
<glyph unicode="&#xce;" horiz-adv-x="310" d="M26 0l130 650h160l-130 -650h-160zM68 730l104 104h188l64 -110l-78 -44l-84 80h-4l-124 -80z" />
<glyph unicode="&#xcf;" horiz-adv-x="310" d="M26 0l130 650h160l-130 -650h-160zM76 760q0 30 23 57t59 27q26 0 45 -17t19 -47t-23 -57t-59 -27q-27 0 -45.5 17t-18.5 47zM296 760q0 30 23 57t59 27q26 0 45 -17t19 -47t-23 -57t-59 -27q-27 0 -45.5 17t-18.5 47z" />
<glyph unicode="&#xd0;" horiz-adv-x="644" d="M34 300l14 70l71 6l55 274h152q137 0 214.5 -62t77.5 -194t-47.5 -219.5t-129 -131t-183.5 -43.5h-214l60 300h-70zM230 128h24q54 0 99.5 25t73 81t27.5 150q0 77 -37.5 107.5t-94.5 30.5h-14l-29 -146h115l-16 -76h-114z" />
<glyph unicode="&#xd1;" horiz-adv-x="652" d="M26 0l130 650h154l90 -308l32 -146h4q5 53 9.5 120.5t16.5 125.5l42 208h152l-130 -650h-154l-90 308l-30 146h-4q-4 -55 -10 -120t-18 -124l-42 -210h-152zM212 704q20 83 63.5 117.5t98.5 34.5q35 0 57.5 -13t38.5 -26t30 -13q12 0 22.5 8.5t17.5 33.5l108 -8 q-19 -82 -63 -117t-99 -35q-35 0 -57.5 13t-38.5 26t-30 13q-12 0 -22 -8t-18 -34z" />
<glyph unicode="&#xd2;" horiz-adv-x="670" d="M56 264q0 91 28 164t75.5 125.5t108 80.5t124.5 28q75 0 132 -32.5t88.5 -94t31.5 -149.5q0 -91 -28 -164t-75.5 -125.5t-107.5 -80.5t-125 -28q-75 0 -131.5 32.5t-88.5 94t-32 149.5zM220 274q0 -70 25.5 -109t70.5 -39q37 0 75 31.5t63.5 87.5t25.5 131 q0 71 -25.5 109.5t-70.5 38.5q-37 0 -75 -31.5t-63.5 -87.5t-25.5 -131zM263 806l109 101l156 -159l-90 -78z" />
<glyph unicode="&#xd3;" horiz-adv-x="670" d="M56 264q0 91 28 164t75.5 125.5t108 80.5t124.5 28q75 0 132 -32.5t88.5 -94t31.5 -149.5q0 -91 -28 -164t-75.5 -125.5t-107.5 -80.5t-125 -28q-75 0 -131.5 32.5t-88.5 94t-32 149.5zM220 274q0 -70 25.5 -109t70.5 -39q37 0 75 31.5t63.5 87.5t25.5 131 q0 71 -25.5 109.5t-70.5 38.5q-37 0 -75 -31.5t-63.5 -87.5t-25.5 -131zM311 772l207 127l70 -117l-216 -102z" />
<glyph unicode="&#xd4;" horiz-adv-x="670" d="M56 264q0 91 28 164t75.5 125.5t108 80.5t124.5 28q75 0 132 -32.5t88.5 -94t31.5 -149.5q0 -91 -28 -164t-75.5 -125.5t-107.5 -80.5t-125 -28q-75 0 -131.5 32.5t-88.5 94t-32 149.5zM220 274q0 -70 25.5 -109t70.5 -39q37 0 75 31.5t63.5 87.5t25.5 131 q0 71 -25.5 109.5t-70.5 38.5q-37 0 -75 -31.5t-63.5 -87.5t-25.5 -131zM238 730l104 104h188l64 -110l-78 -44l-84 80h-4l-124 -80z" />
<glyph unicode="&#xd5;" horiz-adv-x="670" d="M56 264q0 91 28 164t75.5 125.5t108 80.5t124.5 28q75 0 132 -32.5t88.5 -94t31.5 -149.5q0 -91 -28 -164t-75.5 -125.5t-107.5 -80.5t-125 -28q-75 0 -131.5 32.5t-88.5 94t-32 149.5zM212 704q20 83 63.5 117.5t98.5 34.5q35 0 57.5 -13t38.5 -26t30 -13q12 0 22.5 8.5 t17.5 33.5l108 -8q-19 -82 -63 -117t-99 -35q-35 0 -57.5 13t-38.5 26t-30 13q-12 0 -22 -8t-18 -34zM220 274q0 -70 25.5 -109t70.5 -39q37 0 75 31.5t63.5 87.5t25.5 131q0 71 -25.5 109.5t-70.5 38.5q-37 0 -75 -31.5t-63.5 -87.5t-25.5 -131z" />
<glyph unicode="&#xd6;" horiz-adv-x="670" d="M56 264q0 91 28 164t75.5 125.5t108 80.5t124.5 28q75 0 132 -32.5t88.5 -94t31.5 -149.5q0 -91 -28 -164t-75.5 -125.5t-107.5 -80.5t-125 -28q-75 0 -131.5 32.5t-88.5 94t-32 149.5zM220 274q0 -70 25.5 -109t70.5 -39q37 0 75 31.5t63.5 87.5t25.5 131 q0 71 -25.5 109.5t-70.5 38.5q-37 0 -75 -31.5t-63.5 -87.5t-25.5 -131zM246 760q0 30 23 57t59 27q26 0 45 -17t19 -47t-23 -57t-59 -27q-27 0 -45.5 17t-18.5 47zM466 760q0 30 23 57t59 27q26 0 45 -17t19 -47t-23 -57t-59 -27q-27 0 -45.5 17t-18.5 47z" />
<glyph unicode="&#xd7;" d="M62 192l132 138l-132 138l78 78l132 -138l132 138l78 -78l-132 -138l132 -138l-78 -78l-132 138l-132 -138z" />
<glyph unicode="&#xd8;" horiz-adv-x="670" d="M-12 20l97 99q-29 61 -29 145q0 91 28 164t75.5 125.5t108 80.5t124.5 28q102 0 168 -58l96 98l70 -64l-109 -112q13 -29 20 -64t7 -76q0 -91 -28 -164t-75.5 -125.5t-107.5 -80.5t-125 -28q-99 0 -165 55l-85 -87zM220 257l230 235q-24 32 -66 32q-37 0 -75 -31.5 t-63.5 -87.5t-25.5 -131v-8v-9zM253 155q24 -29 63 -29q37 0 75 31.5t63.5 87.5t25.5 131v5.5v5.5z" />
<glyph unicode="&#xd9;" horiz-adv-x="654" d="M74 222q0 23 5 54t9 56l64 318h160l-70 -350q-3 -19 -5.5 -37.5t-2.5 -36.5q0 -49 18.5 -74.5t67.5 -25.5q44 0 70 36t42 120l74 368h156l-74 -364q-30 -153 -95.5 -225.5t-176.5 -72.5q-121 0 -181.5 57t-60.5 177zM273 806l109 101l156 -159l-90 -78z" />
<glyph unicode="&#xda;" horiz-adv-x="654" d="M74 222q0 23 5 54t9 56l64 318h160l-70 -350q-3 -19 -5.5 -37.5t-2.5 -36.5q0 -49 18.5 -74.5t67.5 -25.5q44 0 70 36t42 120l74 368h156l-74 -364q-30 -153 -95.5 -225.5t-176.5 -72.5q-121 0 -181.5 57t-60.5 177zM321 772l207 127l70 -117l-216 -102z" />
<glyph unicode="&#xdb;" horiz-adv-x="654" d="M74 222q0 23 5 54t9 56l64 318h160l-70 -350q-3 -19 -5.5 -37.5t-2.5 -36.5q0 -49 18.5 -74.5t67.5 -25.5q44 0 70 36t42 120l74 368h156l-74 -364q-30 -153 -95.5 -225.5t-176.5 -72.5q-121 0 -181.5 57t-60.5 177zM248 730l104 104h188l64 -110l-78 -44l-84 80h-4 l-124 -80z" />
<glyph unicode="&#xdc;" horiz-adv-x="654" d="M74 222q0 23 5 54t9 56l64 318h160l-70 -350q-3 -19 -5.5 -37.5t-2.5 -36.5q0 -49 18.5 -74.5t67.5 -25.5q44 0 70 36t42 120l74 368h156l-74 -364q-30 -153 -95.5 -225.5t-176.5 -72.5q-121 0 -181.5 57t-60.5 177zM256 760q0 30 23 57t59 27q26 0 45 -17t19 -47 t-23 -57t-59 -27q-27 0 -45.5 17t-18.5 47zM476 760q0 30 23 57t59 27q26 0 45 -17t19 -47t-23 -57t-59 -27q-27 0 -45.5 17t-18.5 47z" />
<glyph unicode="&#xdd;" horiz-adv-x="528" d="M79 650h166l21 -144q6 -37 11 -71t11 -73h4q20 39 37.5 74t38.5 72l78 142h172l-276 -422l-46 -228h-159l45 228zM251 772l207 127l70 -117l-216 -102z" />
<glyph unicode="&#xde;" horiz-adv-x="608" d="M26 0l130 660h160l-20 -100h78q59 0 107 -17.5t76.5 -56.5t28.5 -104q0 -71 -25 -121t-68 -80.5t-98.5 -44.5t-116.5 -14h-70l-24 -122h-158zM234 248h62q63 0 97.5 28t34.5 82q0 39 -22.5 57.5t-63.5 18.5h-72z" />
<glyph unicode="&#xdf;" horiz-adv-x="630" d="M8 0l100 498q12 60 45 107.5t86 75t125 27.5q50 0 96.5 -16t76 -50.5t29.5 -89.5q0 -41 -16 -70t-37 -49.5t-37 -37.5t-16 -35q0 -16 18.5 -32t42.5 -36.5t42.5 -49.5t18.5 -72q0 -51 -26 -92t-70 -65.5t-98 -24.5q-39 0 -77 10t-73 32l64 106q18 -12 39 -21t45 -9 q23 0 35.5 13.5t12.5 34.5q0 17 -13 31t-32.5 28.5t-39 31.5t-32.5 39.5t-13 53.5q0 32 16.5 55t37.5 42.5t37.5 41t16.5 51.5q0 26 -12.5 40t-41.5 14q-37 0 -61 -33.5t-35 -80.5l-94 -468h-160z" />
<glyph unicode="&#xe0;" horiz-adv-x="558" d="M28 172q0 71 22 133t59.5 108.5t85 72.5t99.5 26q32 0 61.5 -16.5t42.5 -45.5h2l22 50h128l-100 -500h-130v62h-2q-33 -34 -73.5 -54t-76.5 -20q-66 0 -103 48t-37 136zM194 192q0 -39 12.5 -56.5t33.5 -17.5q20 0 44.5 13t43.5 53l32 160q-9 20 -24.5 29t-29.5 9 q-29 0 -54.5 -24t-41.5 -67t-16 -99zM204 742l136 102l124 -199l-98 -76z" />
<glyph unicode="&#xe1;" horiz-adv-x="558" d="M28 172q0 71 22 133t59.5 108.5t85 72.5t99.5 26q32 0 61.5 -16.5t42.5 -45.5h2l22 50h128l-100 -500h-130v62h-2q-33 -34 -73.5 -54t-76.5 -20q-66 0 -103 48t-37 136zM194 192q0 -39 12.5 -56.5t33.5 -17.5q20 0 44.5 13t43.5 53l32 160q-9 20 -24.5 29t-29.5 9 q-29 0 -54.5 -24t-41.5 -67t-16 -99zM247 668l191 172l95 -122l-217 -140z" />
<glyph unicode="&#xe2;" horiz-adv-x="558" d="M28 172q0 71 22 133t59.5 108.5t85 72.5t99.5 26q32 0 61.5 -16.5t42.5 -45.5h2l22 50h128l-100 -500h-130v62h-2q-33 -34 -73.5 -54t-76.5 -20q-66 0 -103 48t-37 136zM142 622l128 124h176l84 -128l-70 -60l-110 88h-4l-150 -88zM194 192q0 -39 12.5 -56.5t33.5 -17.5 q20 0 44.5 13t43.5 53l32 160q-9 20 -24.5 29t-29.5 9q-29 0 -54.5 -24t-41.5 -67t-16 -99z" />
<glyph unicode="&#xe3;" horiz-adv-x="558" d="M28 172q0 71 22 133t59.5 108.5t85 72.5t99.5 26q32 0 61.5 -16.5t42.5 -45.5h2l22 50h128l-100 -500h-130v62h-2q-33 -34 -73.5 -54t-76.5 -20q-66 0 -103 48t-37 136zM140 588q14 85 54 121.5t96 36.5q33 0 53 -14t36 -28t35 -14q12 0 23 9.5t15 36.5l104 -6 q-13 -85 -53.5 -121.5t-96.5 -36.5q-32 0 -52.5 14t-36.5 28t-35 14q-12 0 -22.5 -9.5t-15.5 -36.5zM194 192q0 -39 12.5 -56.5t33.5 -17.5q20 0 44.5 13t43.5 53l32 160q-9 20 -24.5 29t-29.5 9q-29 0 -54.5 -24t-41.5 -67t-16 -99z" />
<glyph unicode="&#xe4;" horiz-adv-x="558" d="M28 172q0 71 22 133t59.5 108.5t85 72.5t99.5 26q32 0 61.5 -16.5t42.5 -45.5h2l22 50h128l-100 -500h-130v62h-2q-33 -34 -73.5 -54t-76.5 -20q-66 0 -103 48t-37 136zM160 632q0 32 24 57t60 25q28 0 47 -17.5t19 -48.5q0 -34 -24 -58t-60 -24q-28 0 -47 17t-19 49z M194 192q0 -39 12.5 -56.5t33.5 -17.5q20 0 44.5 13t43.5 53l32 160q-9 20 -24.5 29t-29.5 9q-29 0 -54.5 -24t-41.5 -67t-16 -99zM380 632q0 32 24 57t60 25q28 0 47 -17.5t19 -48.5q0 -34 -24 -58t-60 -24q-28 0 -47 17t-19 49z" />
<glyph unicode="&#xe5;" horiz-adv-x="558" d="M28 172q0 71 22 133t59.5 108.5t85 72.5t99.5 26q32 0 61.5 -16.5t42.5 -45.5h2l22 50h128l-100 -500h-130v62h-2q-33 -34 -73.5 -54t-76.5 -20q-66 0 -103 48t-37 136zM194 192q0 -39 12.5 -56.5t33.5 -17.5q20 0 44.5 13t43.5 53l32 160q-9 20 -24.5 29t-29.5 9 q-29 0 -54.5 -24t-41.5 -67t-16 -99zM214 662q0 50 43.5 83t110.5 33q54 0 88 -24t34 -68q0 -49 -43.5 -82.5t-110.5 -33.5q-53 0 -87.5 24.5t-34.5 67.5zM314 666q0 -15 8 -25.5t24 -10.5q18 0 31 15.5t13 36.5q0 14 -7.5 25t-24.5 11q-18 0 -31 -15.5t-13 -36.5z" />
<glyph unicode="&#xe6;" horiz-adv-x="752" d="M18 114q0 74 40.5 117t108.5 62t149 21v12q0 33 -15.5 47.5t-44.5 14.5q-27 0 -57.5 -9.5t-66.5 -26.5l-34 110q47 23 97 36.5t101 13.5q85 0 122 -56q67 56 140 56q61 0 97.5 -26t52.5 -69t16 -95q0 -36 -10 -70.5t-16 -45.5h-262q-1 -55 26.5 -76.5t69.5 -21.5 q20 0 43 10t39 22l56 -100q-28 -21 -72.5 -36.5t-101.5 -15.5q-52 0 -94.5 22t-64.5 53q-43 -35 -86 -55t-97 -20q-58 0 -97 34.5t-39 91.5zM174 146q0 -16 12.5 -26t33.5 -10q39 0 78 48l-2 28t0 32q-66 -1 -94 -22t-28 -50zM448 302h142q2 8 3 14.5t1 13.5q0 26 -12 43 t-44 17q-25 0 -50 -20.5t-40 -67.5z" />
<glyph unicode="&#xe7;" horiz-adv-x="446" d="M26 196q0 63 22.5 120t63 101t95.5 69.5t119 25.5q48 0 83 -19.5t53 -42.5l-88 -94q-13 14 -26.5 21t-31.5 7q-36 0 -64.5 -25t-45 -67.5t-16.5 -93.5q0 -37 18 -59.5t54 -22.5q23 0 39 9t29 19l66 -98q-28 -21 -69 -39.5t-101 -18.5q-56 0 -101.5 24.5t-72 71 t-26.5 112.5zM60 -178q57 3 80.5 12t27.5 30q2 14 -11.5 24t-58.5 16l68 100h98l-40 -64q38 -9 54.5 -26.5t11.5 -49.5q-10 -54 -69.5 -79.5t-160.5 -28.5v66z" />
<glyph unicode="&#xe8;" horiz-adv-x="502" d="M26 204q0 69 25 125.5t66 97.5t91 63t100 22q61 0 97.5 -26t52.5 -69t16 -95q0 -36 -10 -70.5t-16 -45.5h-272q0 -52 30.5 -75t73.5 -23q21 0 44.5 10t39.5 22l56 -100q-30 -21 -77 -36.5t-109 -15.5q-61 0 -108 26t-73.5 74.5t-26.5 115.5zM188 302h152q2 5 3 13t1 15 q0 26 -12 43t-44 17q-28 0 -55.5 -20.5t-44.5 -67.5zM204 742l136 102l124 -199l-98 -76z" />
<glyph unicode="&#xe9;" horiz-adv-x="502" d="M26 204q0 69 25 125.5t66 97.5t91 63t100 22q61 0 97.5 -26t52.5 -69t16 -95q0 -36 -10 -70.5t-16 -45.5h-272q0 -52 30.5 -75t73.5 -23q21 0 44.5 10t39.5 22l56 -100q-30 -21 -77 -36.5t-109 -15.5q-61 0 -108 26t-73.5 74.5t-26.5 115.5zM188 302h152q2 5 3 13t1 15 q0 26 -12 43t-44 17q-28 0 -55.5 -20.5t-44.5 -67.5zM247 668l191 172l95 -122l-217 -140z" />
<glyph unicode="&#xea;" horiz-adv-x="502" d="M26 204q0 69 25 125.5t66 97.5t91 63t100 22q61 0 97.5 -26t52.5 -69t16 -95q0 -36 -10 -70.5t-16 -45.5h-272q0 -52 30.5 -75t73.5 -23q21 0 44.5 10t39.5 22l56 -100q-30 -21 -77 -36.5t-109 -15.5q-61 0 -108 26t-73.5 74.5t-26.5 115.5zM142 622l128 124h176l84 -128 l-70 -60l-110 88h-4l-150 -88zM188 302h152q2 5 3 13t1 15q0 26 -12 43t-44 17q-28 0 -55.5 -20.5t-44.5 -67.5z" />
<glyph unicode="&#xeb;" horiz-adv-x="502" d="M26 204q0 69 25 125.5t66 97.5t91 63t100 22q61 0 97.5 -26t52.5 -69t16 -95q0 -36 -10 -70.5t-16 -45.5h-272q0 -52 30.5 -75t73.5 -23q21 0 44.5 10t39.5 22l56 -100q-30 -21 -77 -36.5t-109 -15.5q-61 0 -108 26t-73.5 74.5t-26.5 115.5zM160 632q0 32 24 57t60 25 q28 0 47 -17.5t19 -48.5q0 -34 -24 -58t-60 -24q-28 0 -47 17t-19 49zM188 302h152q2 5 3 13t1 15q0 26 -12 43t-44 17q-28 0 -55.5 -20.5t-44.5 -67.5zM380 632q0 32 24 57t60 25q28 0 47 -17.5t19 -48.5q0 -34 -24 -58t-60 -24q-28 0 -47 17t-19 49z" />
<glyph unicode="&#xec;" horiz-adv-x="276" d="M8 0l100 500h160l-100 -500h-160zM74 742l136 102l124 -199l-98 -76z" />
<glyph unicode="&#xed;" horiz-adv-x="276" d="M8 0l100 500h160l-100 -500h-160zM117 668l191 172l95 -122l-217 -140z" />
<glyph unicode="&#xee;" horiz-adv-x="276" d="M8 0l100 500h160l-100 -500h-160zM12 622l128 124h176l84 -128l-70 -60l-110 88h-4l-150 -88z" />
<glyph unicode="&#xef;" horiz-adv-x="276" d="M8 0l100 500h160l-100 -500h-160zM30 632q0 32 24 57t60 25q28 0 47 -17.5t19 -48.5q0 -34 -24 -58t-60 -24q-28 0 -47 17t-19 49zM250 632q0 32 24 57t60 25q28 0 47 -17.5t19 -48.5q0 -34 -24 -58t-60 -24q-28 0 -47 17t-19 49z" />
<glyph unicode="&#xf0;" horiz-adv-x="542" d="M30 186q0 49 15 97t44 87.5t71.5 63.5t97.5 24q29 0 54 -11.5t41 -34.5q-9 69 -41 121l-144 -57l-30 74l120 47q-16 14 -34.5 28t-39.5 27l72 92q75 -38 132 -95l144 57l30 -74l-122 -48q31 -47 47.5 -103t16.5 -121q0 -67 -16.5 -133.5t-50.5 -120t-86.5 -86 t-124.5 -32.5q-53 0 -98 23.5t-71.5 68t-26.5 106.5zM174 198q0 -34 16.5 -58t49.5 -24q46 0 75.5 50t37.5 129q-11 18 -30 30.5t-43 12.5q-36 0 -59.5 -21t-35 -53.5t-11.5 -65.5z" />
<glyph unicode="&#xf1;" horiz-adv-x="562" d="M8 0l100 500h130v-64h4q35 30 75.5 53t88.5 23q62 0 90 -32.5t28 -97.5q0 -34 -8 -72l-62 -310h-160l58 290q3 14 5.5 24.5t2.5 19.5q0 42 -42 42q-21 0 -41 -13.5t-47 -42.5l-62 -320h-160zM180 588q14 85 54 121.5t96 36.5q33 0 53 -14t36 -28t35 -14q12 0 23 9.5 t15 36.5l104 -6q-13 -85 -53.5 -121.5t-96.5 -36.5q-32 0 -52.5 14t-36.5 28t-35 14q-12 0 -22.5 -9.5t-15.5 -36.5z" />
<glyph unicode="&#xf2;" horiz-adv-x="540" d="M26 196q0 73 24.5 131t65.5 99.5t91.5 63.5t102.5 22q60 0 105 -26t70 -73t25 -109q0 -73 -24.5 -131t-65.5 -99.5t-91.5 -63.5t-102.5 -22q-60 0 -105 26t-70 73t-25 109zM188 198q0 -37 14 -59.5t42 -22.5q29 0 52.5 24t37.5 66t14 96q0 38 -13.5 60t-42.5 22 t-52.5 -24t-37.5 -66t-14 -96zM204 742l136 102l124 -199l-98 -76z" />
<glyph unicode="&#xf3;" horiz-adv-x="540" d="M26 196q0 73 24.5 131t65.5 99.5t91.5 63.5t102.5 22q60 0 105 -26t70 -73t25 -109q0 -73 -24.5 -131t-65.5 -99.5t-91.5 -63.5t-102.5 -22q-60 0 -105 26t-70 73t-25 109zM188 198q0 -37 14 -59.5t42 -22.5q29 0 52.5 24t37.5 66t14 96q0 38 -13.5 60t-42.5 22 t-52.5 -24t-37.5 -66t-14 -96zM247 668l191 172l95 -122l-217 -140z" />
<glyph unicode="&#xf4;" horiz-adv-x="540" d="M26 196q0 73 24.5 131t65.5 99.5t91.5 63.5t102.5 22q60 0 105 -26t70 -73t25 -109q0 -73 -24.5 -131t-65.5 -99.5t-91.5 -63.5t-102.5 -22q-60 0 -105 26t-70 73t-25 109zM142 622l128 124h176l84 -128l-70 -60l-110 88h-4l-150 -88zM188 198q0 -37 14 -59.5t42 -22.5 q29 0 52.5 24t37.5 66t14 96q0 38 -13.5 60t-42.5 22t-52.5 -24t-37.5 -66t-14 -96z" />
<glyph unicode="&#xf5;" horiz-adv-x="540" d="M26 196q0 73 24.5 131t65.5 99.5t91.5 63.5t102.5 22q60 0 105 -26t70 -73t25 -109q0 -73 -24.5 -131t-65.5 -99.5t-91.5 -63.5t-102.5 -22q-60 0 -105 26t-70 73t-25 109zM140 588q14 85 54 121.5t96 36.5q33 0 53 -14t36 -28t35 -14q12 0 23 9.5t15 36.5l104 -6 q-13 -85 -53.5 -121.5t-96.5 -36.5q-32 0 -52.5 14t-36.5 28t-35 14q-12 0 -22.5 -9.5t-15.5 -36.5zM188 198q0 -37 14 -59.5t42 -22.5q29 0 52.5 24t37.5 66t14 96q0 38 -13.5 60t-42.5 22t-52.5 -24t-37.5 -66t-14 -96z" />
<glyph unicode="&#xf6;" horiz-adv-x="540" d="M26 196q0 73 24.5 131t65.5 99.5t91.5 63.5t102.5 22q60 0 105 -26t70 -73t25 -109q0 -73 -24.5 -131t-65.5 -99.5t-91.5 -63.5t-102.5 -22q-60 0 -105 26t-70 73t-25 109zM160 632q0 32 24 57t60 25q28 0 47 -17.5t19 -48.5q0 -34 -24 -58t-60 -24q-28 0 -47 17t-19 49z M188 198q0 -37 14 -59.5t42 -22.5q29 0 52.5 24t37.5 66t14 96q0 38 -13.5 60t-42.5 22t-52.5 -24t-37.5 -66t-14 -96zM380 632q0 32 24 57t60 25q28 0 47 -17.5t19 -48.5q0 -34 -24 -58t-60 -24q-28 0 -47 17t-19 49z" />
<glyph unicode="&#xf7;" d="M48 274v112h448v-112h-448zM186 148q0 35 25 58.5t61 23.5t61 -23.5t25 -58.5q0 -36 -25 -58t-61 -22t-61 22t-25 58zM186 512q0 35 25 57.5t61 22.5t61 -22.5t25 -57.5q0 -36 -25 -59t-61 -23t-61 23t-25 59z" />
<glyph unicode="&#xf8;" horiz-adv-x="540" d="M0 20l56 58q-14 24 -22 53.5t-8 64.5q0 73 24.5 131t65.5 99.5t91.5 63.5t102.5 22q76 0 128 -42l52 54l50 -44l-59 -60q29 -49 29 -116q0 -73 -24.5 -131.5t-65.5 -100t-91.5 -63t-102.5 -21.5q-73 0 -125 40l-53 -54zM176 201l163 168q-16 19 -41 19q-32 0 -55 -18 t-38 -46t-22 -60.5t-7 -62.5zM198 128q14 -16 40 -16q33 0 56 17.5t38 45t21.5 59.5t6.5 61z" />
<glyph unicode="&#xf9;" horiz-adv-x="552" d="M32 118q0 34 8 72l62 310h160l-58 -290q-3 -13 -5.5 -24t-2.5 -20q0 -42 42 -42q20 0 39 14t43 42l62 320h160l-98 -500h-130v64h-4q-31 -30 -73 -53t-87 -23q-61 0 -89.5 33t-28.5 97zM204 742l136 102l124 -199l-98 -76z" />
<glyph unicode="&#xfa;" horiz-adv-x="552" d="M32 118q0 34 8 72l62 310h160l-58 -290q-3 -13 -5.5 -24t-2.5 -20q0 -42 42 -42q20 0 39 14t43 42l62 320h160l-98 -500h-130v64h-4q-31 -30 -73 -53t-87 -23q-61 0 -89.5 33t-28.5 97zM247 668l191 172l95 -122l-217 -140z" />
<glyph unicode="&#xfb;" horiz-adv-x="552" d="M32 118q0 34 8 72l62 310h160l-58 -290q-3 -13 -5.5 -24t-2.5 -20q0 -42 42 -42q20 0 39 14t43 42l62 320h160l-98 -500h-130v64h-4q-31 -30 -73 -53t-87 -23q-61 0 -89.5 33t-28.5 97zM142 622l128 124h176l84 -128l-70 -60l-110 88h-4l-150 -88z" />
<glyph unicode="&#xfc;" horiz-adv-x="552" d="M32 118q0 34 8 72l62 310h160l-58 -290q-3 -13 -5.5 -24t-2.5 -20q0 -42 42 -42q20 0 39 14t43 42l62 320h160l-98 -500h-130v64h-4q-31 -30 -73 -53t-87 -23q-61 0 -89.5 33t-28.5 97zM160 632q0 32 24 57t60 25q28 0 47 -17.5t19 -48.5q0 -34 -24 -58t-60 -24 q-28 0 -47 17t-19 49zM380 632q0 32 24 57t60 25q28 0 47 -17.5t19 -48.5q0 -34 -24 -58t-60 -24q-28 0 -47 17t-19 49z" />
<glyph unicode="&#xfd;" horiz-adv-x="518" d="M-24 -166l48 114q17 -10 38 -10q23 0 45.5 15.5t35.5 41.5l10 20l-88 485h159l18 -205q3 -32 4.5 -73.5t1.5 -77.5h4q15 35 32 76t32 75l90 205h154l-261 -499q-56 -97 -111.5 -143t-135.5 -46q-15 0 -38 6.5t-38 15.5zM237 668l191 172l95 -122l-217 -140z" />
<glyph unicode="&#xfe;" horiz-adv-x="560" d="M-28 -176l176 872h160l-30 -146l-26 -92h2q32 26 67 40t69 14q66 0 103 -47.5t37 -136.5q0 -71 -22 -133t-59.5 -108.5t-85 -72.5t-99.5 -26q-28 0 -53.5 14.5t-40.5 39.5h-2l-12 -94l-24 -124h-160zM200 156q8 -19 22.5 -28.5t29.5 -9.5q29 0 54.5 24t41.5 67t16 99 q0 39 -12.5 56.5t-33.5 17.5q-19 0 -42.5 -11.5t-41.5 -44.5z" />
<glyph unicode="&#xff;" horiz-adv-x="518" d="M-24 -166l48 114q17 -10 38 -10q23 0 45.5 15.5t35.5 41.5l10 20l-88 485h159l18 -205q3 -32 4.5 -73.5t1.5 -77.5h4q15 35 32 76t32 75l90 205h154l-261 -499q-56 -97 -111.5 -143t-135.5 -46q-15 0 -38 6.5t-38 15.5zM150 632q0 32 24 57t60 25q28 0 47 -17.5t19 -48.5 q0 -34 -24 -58t-60 -24q-28 0 -47 17t-19 49zM370 632q0 32 24 57t60 25q28 0 47 -17.5t19 -48.5q0 -34 -24 -58t-60 -24q-28 0 -47 17t-19 49z" />
<glyph unicode="&#x152;" horiz-adv-x="840" d="M56 256q0 132 47.5 219.5t129 131t183.5 43.5h440l-26 -134h-228l-22 -114h192l-26 -134h-192l-28 -134h236l-26 -134h-388q-136 0 -214 62t-78 194zM220 266q0 -76 37.5 -107t94.5 -31h14l78 394h-24q-54 0 -99.5 -25t-73 -81t-27.5 -150z" />
<glyph unicode="&#x153;" horiz-adv-x="792" d="M26 196q0 73 24 131t64 99.5t88.5 63.5t97.5 22q53 0 84.5 -21.5t53.5 -62.5q35 41 77.5 62.5t82.5 21.5q61 0 97.5 -26t52.5 -69t16 -95q0 -36 -10 -70t-16 -46h-262q2 -55 28.5 -76.5t65.5 -21.5q21 0 44.5 10t39.5 22l56 -100q-28 -19 -70 -35.5t-96 -16.5 q-51 0 -93 21.5t-65 64.5q-36 -42 -80.5 -64t-89.5 -22q-57 0 -99.5 26t-66.5 73t-24 109zM188 198q0 -37 14 -59.5t42 -22.5q26 0 47.5 24t34 66t12.5 96q0 38 -13.5 60t-42.5 22q-24 0 -45.5 -24t-35 -66t-13.5 -96zM488 302h142q2 6 3 13.5t1 14.5q0 26 -12 43t-44 17 q-25 0 -50 -20.5t-40 -67.5z" />
<glyph unicode="&#x178;" horiz-adv-x="528" d="M79 650h166l21 -144q6 -37 11 -71t11 -73h4q20 39 37.5 74t38.5 72l78 142h172l-276 -422l-46 -228h-159l45 228zM186 760q0 30 23 57t59 27q26 0 45 -17t19 -47t-23 -57t-59 -27q-27 0 -45.5 17t-18.5 47zM406 760q0 30 23 57t59 27q26 0 45 -17t19 -47t-23 -57t-59 -27 q-27 0 -45.5 17t-18.5 47z" />
<glyph unicode="&#x2c6;" horiz-adv-x="540" d="M142 622l128 124h176l84 -128l-70 -60l-110 88h-4l-150 -88z" />
<glyph unicode="&#x2dc;" horiz-adv-x="540" d="M140 588q14 85 54 121.5t96 36.5q33 0 53 -14t36 -28t35 -14q12 0 23 9.5t15 36.5l104 -6q-13 -85 -53.5 -121.5t-96.5 -36.5q-32 0 -52.5 14t-36.5 28t-35 14q-12 0 -22.5 -9.5t-15.5 -36.5z" />
<glyph unicode="&#x2000;" horiz-adv-x="453" />
<glyph unicode="&#x2001;" horiz-adv-x="907" />
<glyph unicode="&#x2002;" horiz-adv-x="453" />
<glyph unicode="&#x2003;" horiz-adv-x="907" />
<glyph unicode="&#x2004;" horiz-adv-x="302" />
<glyph unicode="&#x2005;" horiz-adv-x="226" />
<glyph unicode="&#x2006;" horiz-adv-x="151" />
<glyph unicode="&#x2007;" horiz-adv-x="151" />
<glyph unicode="&#x2008;" horiz-adv-x="113" />
<glyph unicode="&#x2009;" horiz-adv-x="181" />
<glyph unicode="&#x200a;" horiz-adv-x="50" />
<glyph unicode="&#x2010;" horiz-adv-x="328" d="M32 198l24 112h240l-24 -112h-240z" />
<glyph unicode="&#x2011;" horiz-adv-x="328" d="M32 198l24 112h240l-24 -112h-240z" />
<glyph unicode="&#x2012;" horiz-adv-x="328" d="M32 198l24 112h240l-24 -112h-240z" />
<glyph unicode="&#x2013;" horiz-adv-x="464" d="M34 202l20 102h376l-20 -102h-376z" />
<glyph unicode="&#x2014;" horiz-adv-x="772" d="M34 202l20 102h684l-20 -102h-684z" />
<glyph unicode="&#x2018;" horiz-adv-x="310" d="M92 432q0 65 26 114t69 80.5t93 45.5l24 -68q-39 -13 -66.5 -36t-41.5 -45.5t-14 -36.5h3.5h2.5q35 0 57.5 -18.5t22.5 -51.5q0 -36 -25 -64t-69 -28q-37 0 -59.5 28.5t-22.5 79.5z" />
<glyph unicode="&#x2019;" horiz-adv-x="310" d="M106 416q40 14 67 36.5t41 45t14 36.5h-2.5h-3.5q-34 0 -57 18.5t-23 51.5q0 36 25.5 64t68.5 28q38 0 60 -28.5t22 -79.5q0 -65 -26 -114t-69 -80.5t-93 -45.5z" />
<glyph unicode="&#x201a;" horiz-adv-x="310" d="M6 -94q40 14 67 36.5t41 45t14 36.5h-2.5h-3.5q-34 0 -57 18.5t-23 51.5q0 36 25.5 64t68.5 28q38 0 60 -28.5t22 -79.5q0 -65 -26 -114t-69 -80.5t-93 -45.5z" />
<glyph unicode="&#x201c;" horiz-adv-x="550" d="M92 432q0 65 26 114t69 80.5t93 45.5l24 -68q-39 -13 -66.5 -36t-41.5 -45.5t-14 -36.5h3.5h2.5q35 0 57.5 -18.5t22.5 -51.5q0 -36 -25 -64t-69 -28q-37 0 -59.5 28.5t-22.5 79.5zM332 432q0 65 26 114t69 80.5t93 45.5l24 -68q-39 -13 -66.5 -36t-41.5 -45.5t-14 -36.5 h3.5h2.5q35 0 57.5 -18.5t22.5 -51.5q0 -36 -25 -64t-69 -28q-37 0 -59.5 28.5t-22.5 79.5z" />
<glyph unicode="&#x201d;" horiz-adv-x="550" d="M106 416q40 14 67 36.5t41 45t14 36.5h-2.5h-3.5q-34 0 -57 18.5t-23 51.5q0 36 25.5 64t68.5 28q38 0 60 -28.5t22 -79.5q0 -65 -26 -114t-69 -80.5t-93 -45.5zM346 416q40 14 67 36.5t41 45t14 36.5h-2.5h-3.5q-34 0 -57 18.5t-23 51.5q0 36 25.5 64t68.5 28 q38 0 60 -28.5t22 -79.5q0 -65 -26 -114t-69 -80.5t-93 -45.5z" />
<glyph unicode="&#x201e;" horiz-adv-x="550" d="M6 -94q40 14 67 36.5t41 45t14 36.5h-2.5h-3.5q-34 0 -57 18.5t-23 51.5q0 36 25.5 64t68.5 28q38 0 60 -28.5t22 -79.5q0 -65 -26 -114t-69 -80.5t-93 -45.5zM246 -94q40 14 67 36.5t41 45t14 36.5h-2.5h-3.5q-34 0 -57 18.5t-23 51.5q0 36 25.5 64t68.5 28 q38 0 60 -28.5t22 -79.5q0 -65 -26 -114t-69 -80.5t-93 -45.5z" />
<glyph unicode="&#x2022;" horiz-adv-x="344" d="M38 246q0 38 18 74.5t51 60t77 23.5q53 0 87.5 -35t34.5 -91q0 -38 -18 -74.5t-51 -60t-77 -23.5q-52 0 -87 35.5t-35 90.5z" />
<glyph unicode="&#x2026;" horiz-adv-x="982" d="M64 72q0 27 14 53t38.5 42.5t57.5 16.5q36 0 58 -24t22 -60q0 -28 -13.5 -53.5t-38.5 -42t-58 -16.5q-36 0 -58 23.5t-22 60.5zM380 72q0 27 14 53t38.5 42.5t57.5 16.5q36 0 58 -24t22 -60q0 -28 -13.5 -53.5t-38.5 -42t-58 -16.5q-36 0 -58 23.5t-22 60.5zM696 72 q0 27 14 53t38.5 42.5t57.5 16.5q36 0 58 -24t22 -60q0 -28 -13.5 -53.5t-38.5 -42t-58 -16.5q-36 0 -58 23.5t-22 60.5z" />
<glyph unicode="&#x202f;" horiz-adv-x="181" />
<glyph unicode="&#x2039;" horiz-adv-x="280" d="M40 200l20 112l152 136l48 -52l-130 -150l76 -152l-62 -40z" />
<glyph unicode="&#x203a;" horiz-adv-x="280" d="M28 106l130 150l-76 152l62 40l104 -146l-20 -112l-152 -136z" />
<glyph unicode="&#x205f;" horiz-adv-x="226" />
<glyph unicode="&#x20ac;" d="M14 218l16 74l48 4q2 13 3.5 25.5t3.5 24.5h-45l16 74l51 4q27 72 72 124t103.5 80t123.5 28q56 0 92.5 -27t61.5 -71l-114 -76q-10 23 -23 34.5t-33 11.5q-43 0 -73.5 -28t-50.5 -74h194l-16 -80h-200q-4 -22 -6 -48h158l-16 -80h-142q5 -49 27.5 -75.5t62.5 -26.5 q21 0 42 12.5t40 31.5l74 -94q-52 -45 -100.5 -61.5t-89.5 -16.5q-97 0 -154.5 59t-62.5 171h-63z" />
<glyph unicode="&#x2122;" horiz-adv-x="668" d="M70 584l18 92h262l-18 -92h-78l-44 -224h-102l44 224h-82zM328 360l60 316h114l20 -86l6 -68h4l28 68l54 86h116l-60 -316h-100l18 88l44 128h-4l-98 -170h-48l-32 170h-4l-4 -128l-18 -88h-96z" />
<glyph unicode="&#xfb01;" horiz-adv-x="620" d="M34 0l76 376h-64l24 118l66 6l2 14q10 52 34.5 96t66.5 71t105 27q61 0 114 -28l-50 -112q-7 5 -20.5 9.5t-25.5 4.5q-25 0 -40.5 -10.5t-23.5 -51.5l-4 -20h82l-24 -124h-84l-74 -376h-160zM352 0l100 500h160l-100 -500h-160zM470 638q0 36 28 63t68 27q32 0 58 -19 t26 -55q0 -39 -27.5 -64.5t-68.5 -25.5q-31 0 -57.5 18.5t-26.5 55.5z" />
<glyph unicode="&#xfb02;" horiz-adv-x="630" d="M34 0l76 376h-64l24 118l66 6l2 14q10 52 34.5 96t66.5 71t105 27q61 0 114 -28l-50 -112q-7 5 -20.5 9.5t-25.5 4.5q-25 0 -40.5 -10.5t-23.5 -51.5l-4 -20h82l-24 -124h-84l-74 -376h-160zM378 98q0 15 2 31t6 37l106 530h160l-108 -536q-1 -7 -1.5 -11t-0.5 -8 q0 -14 6.5 -19.5t13.5 -5.5q5 0 8.5 0.5t9.5 1.5l-6 -118q-13 -4 -34 -8t-48 -4q-61 0 -87.5 29.5t-26.5 80.5z" />
<glyph unicode="&#xfb03;" horiz-adv-x="932" d="M34 0l76 376h-64l24 118l65 5l1 5q10 52 34.5 96t66.5 71t105 27q61 0 114 -28l-50 -112q-7 5 -20.5 9.5t-25.5 4.5q-25 0 -40.5 -10.5t-23.5 -51.5l-2 -10h153l3 14q10 52 34.5 96t66.5 71t105 27q61 0 114 -28l-50 -112q-7 5 -20.5 9.5t-25.5 4.5q-25 0 -40.5 -10.5 t-23.5 -51.5l-4 -20h82l-24 -124h-83l-75 -376h-160l76 376h-153l-75 -376h-160zM664 0l100 500h160l-100 -500h-160zM782 638q0 36 28 63t68 27q32 0 58 -19t26 -55q0 -39 -27.5 -64.5t-68.5 -25.5q-31 0 -57.5 18.5t-26.5 55.5z" />
<glyph unicode="&#xfb04;" horiz-adv-x="942" d="M34 0l76 376h-64l24 118l65 5l1 5q10 52 34.5 96t66.5 71t105 27q61 0 114 -28l-50 -112q-7 5 -20.5 9.5t-25.5 4.5q-25 0 -40.5 -10.5t-23.5 -51.5l-2 -10h153l3 14q10 52 34.5 96t66.5 71t105 27q61 0 114 -28l-50 -112q-7 5 -20.5 9.5t-25.5 4.5q-25 0 -40.5 -10.5 t-23.5 -51.5l-4 -20h82l-24 -124h-83l-75 -376h-160l76 376h-153l-75 -376h-160zM690 98q0 15 2 31t6 37l106 530h160l-108 -536q-1 -7 -1.5 -11t-0.5 -8q0 -14 6.5 -19.5t13.5 -5.5q5 0 8.5 0.5t9.5 1.5l-6 -118q-13 -4 -34 -8t-48 -4q-61 0 -87.5 29.5t-26.5 80.5z" />
</font>
</defs>
</svg>
