<?xml version="1.0" standalone="no"?>
<!DOCTYPE svg PUBLIC "-//W3C//DTD SVG 1.1//EN" "http://www.w3.org/Graphics/SVG/1.1/DTD/svg11.dtd" >
<svg xmlns="http://www.w3.org/2000/svg" xmlns:xlink="http://www.w3.org/1999/xlink" version="1.1">
<metadata></metadata>
<defs>
<font id="open_sansregular" horiz-adv-x="1171" >
<font-face units-per-em="2048" ascent="1638" descent="-410" />
<missing-glyph horiz-adv-x="532" />
<glyph unicode="&#xfb01;" horiz-adv-x="1206" d="M30 966v80l194 55v73q0 138 41 224.5t119 127.5t190 41q63 0 115.5 -11t92.5 -25l-43 -131q-34 11 -76.5 20.5t-86.5 9.5q-95 0 -140.5 -61.5t-45.5 -192.5v-80h273v-130h-273v-966h-166v966h-194zM849 1397q0 56 28.5 82.5t71.5 26.5q41 0 70.5 -26.5t29.5 -82.5 q0 -55 -29.5 -82t-70.5 -27q-43 0 -71.5 27t-28.5 82zM864 0v1096h166v-1096h-166z" />
<glyph unicode="&#xfb02;" horiz-adv-x="1206" d="M30 966v80l194 55v73q0 138 41 224.5t119 127.5t190 41q63 0 115.5 -11t92.5 -25l-43 -131q-34 11 -76.5 20.5t-86.5 9.5q-95 0 -140.5 -61.5t-45.5 -192.5v-80h273v-130h-273v-966h-166v966h-194zM864 0v1556h167v-1556h-167z" />
<glyph unicode="&#xfb03;" horiz-adv-x="1894" d="M30 966v80l194 55v73q0 138 41 224.5t119 127.5t190 41q63 0 115.5 -11t92.5 -25l-43 -131q-34 11 -76.5 20.5t-86.5 9.5q-95 0 -140.5 -61.5t-45.5 -192.5v-80h273v-130h-273v-966h-166v966h-194zM719 966v80l194 55v73q0 138 41 224.5t119 127.5t190 41q63 0 115.5 -11 t92.5 -25l-43 -131q-34 11 -76.5 20.5t-86.5 9.5q-95 0 -140.5 -61.5t-45.5 -192.5v-80h273v-130h-273v-966h-166v966h-194zM1538 1397q0 56 28.5 82.5t71.5 26.5q41 0 70.5 -26.5t29.5 -82.5q0 -55 -29.5 -82t-70.5 -27q-43 0 -71.5 27t-28.5 82zM1553 0v1096h166v-1096 h-166z" />
<glyph unicode="&#xfb04;" horiz-adv-x="1894" d="M30 966v80l194 55v73q0 138 41 224.5t119 127.5t190 41q63 0 115.5 -11t92.5 -25l-43 -131q-34 11 -76.5 20.5t-86.5 9.5q-95 0 -140.5 -61.5t-45.5 -192.5v-80h273v-130h-273v-966h-166v966h-194zM719 966v80l194 55v73q0 138 41 224.5t119 127.5t190 41q63 0 115.5 -11 t92.5 -25l-43 -131q-34 11 -76.5 20.5t-86.5 9.5q-95 0 -140.5 -61.5t-45.5 -192.5v-80h273v-130h-273v-966h-166v966h-194zM1553 0v1556h167v-1556h-167z" />
<glyph horiz-adv-x="0" />
<glyph horiz-adv-x="682" />
<glyph horiz-adv-x="0" />
<glyph horiz-adv-x="0" />
<glyph unicode="&#xd;" horiz-adv-x="532" />
<glyph unicode=" "  horiz-adv-x="532" />
<glyph unicode="&#x09;" horiz-adv-x="532" />
<glyph unicode="&#xa0;" horiz-adv-x="532" />
<glyph unicode="!" horiz-adv-x="541" d="M150 104q0 70 34 99.5t85 29.5q50 0 84.5 -29.5t34.5 -99.5q0 -69 -34.5 -100.5t-84.5 -31.5q-51 0 -85 31.5t-34 100.5zM170 1462h201l-46 -1056h-109z" />
<glyph unicode="&#x22;" horiz-adv-x="816" d="M135 1462h180l-38 -528h-105zM502 1462h179l-37 -528h-105z" />
<glyph unicode="#" horiz-adv-x="1323" d="M52 432v127h287l67 340h-278v125h301l83 438h137l-83 -438h307l83 438h132l-83 -438h265v-125h-290l-65 -340h283v-127h-308l-85 -432h-135l85 432h-305l-82 -432h-133l79 432h-262zM474 559h305l66 340h-305z" />
<glyph unicode="$" d="M127 1046q0 102 48.5 174.5t136.5 113.5t206 47v173h122v-171q107 -3 195 -23.5t163 -52.5l-52 -139q-68 27 -147 46t-159 26v-437q134 -39 224.5 -83t136.5 -109t46 -168q0 -146 -107 -235.5t-300 -108.5v-218h-122v210q-115 2 -219.5 20t-170.5 47v162q69 -32 177 -56 t213 -26v440q-132 37 -218.5 84.5t-129.5 116.5t-43 167zM290 1060q0 -59 22.5 -98.5t73 -67t132.5 -49.5v391q-75 -5 -126 -28t-76.5 -60t-25.5 -88zM640 247q123 12 183.5 59.5t60.5 125.5q0 56 -23.5 92t-76.5 62.5t-144 50.5v-390z" />
<glyph unicode="%" horiz-adv-x="1693" d="M102 1026q0 218 73 337.5t224 119.5q150 0 227.5 -119.5t77.5 -337.5t-75 -339.5t-230 -121.5q-144 0 -220.5 121.5t-76.5 339.5zM242 1026q0 -169 38 -255t119 -86q84 0 125 86t41 255q0 168 -40.5 253t-125.5 85q-81 0 -119 -84.5t-38 -253.5zM368 0l811 1462h146 l-811 -1462h-146zM989 440q0 218 72.5 337.5t224.5 119.5q149 0 227 -119.5t78 -337.5q0 -217 -75 -338.5t-230 -121.5q-145 0 -221 121.5t-76 338.5zM1129 440q0 -169 38 -254.5t119 -85.5q84 0 125 84.5t41 255.5q0 168 -40.5 252.5t-125.5 84.5q-81 0 -119 -84t-38 -253z " />
<glyph unicode="&#x26;" horiz-adv-x="1492" d="M111 379q0 106 39 182t111 135t172 115q-47 52 -89 105.5t-68 115t-26 135.5q0 100 45.5 171t129 109t198.5 38q108 0 186.5 -37.5t121 -107.5t42.5 -169q0 -130 -84.5 -220t-214.5 -164l406 -394q55 64 90 148.5t59 183.5h168q-32 -132 -82.5 -243t-126.5 -195l293 -287 h-225l-181 177q-64 -59 -137.5 -103.5t-163 -69t-204.5 -24.5q-140 0 -243 46t-159.5 135t-56.5 218zM285 385q0 -117 79 -187.5t211 -70.5q136 0 231.5 45t162.5 109l-436 425q-78 -45 -133.5 -89t-85 -99t-29.5 -133zM413 1168q0 -76 41 -140t117 -142q125 69 181.5 133.5 t56.5 151.5q0 79 -52.5 128t-139.5 49q-91 0 -147.5 -47.5t-56.5 -132.5z" />
<glyph unicode="'" horiz-adv-x="449" d="M135 1462h180l-38 -528h-105z" />
<glyph unicode="(" horiz-adv-x="604" d="M82 561q0 169 32.5 329t99.5 305t169 267h159q-145 -190 -218 -422t-73 -477q0 -160 32.5 -315.5t97 -299.5t159.5 -272h-157q-102 120 -169 261.5t-99.5 299.5t-32.5 324z" />
<glyph unicode=")" horiz-adv-x="604" d="M62 1462h159q103 -123 169.5 -267.5t99 -304t32.5 -327.5q0 -167 -32.5 -325.5t-99 -300.5t-169.5 -261h-157q96 127 160.5 272t97 300.5t32.5 315.5q0 163 -33 321t-97.5 304t-161.5 273z" />
<glyph unicode="*" horiz-adv-x="1128" d="M89 1099l28 175l389 -115l-39 397h184l-38 -397l395 115l26 -175l-378 -39l244 -325l-162 -89l-181 356l-166 -356l-168 89l242 325z" />
<glyph unicode="+" d="M103 654v136h412v426h137v-426h412v-136h-412v-424h-137v424h-412z" />
<glyph unicode="," horiz-adv-x="530" d="M83 -264q21 80 41 168.5t36.5 175t26.5 158.5h178l13 -23q-18 -73 -45.5 -156t-60 -166.5t-65.5 -156.5h-124z" />
<glyph unicode="-" horiz-adv-x="659" d="M82 476v148h496v-148h-496z" />
<glyph unicode="." horiz-adv-x="538" d="M150 104q0 70 34 99.5t83 29.5q51 0 86 -29.5t35 -99.5q0 -69 -35 -100.5t-86 -31.5q-49 0 -83 31.5t-34 100.5z" />
<glyph unicode="/" horiz-adv-x="751" d="M21 0l545 1462h163l-544 -1462h-164z" />
<glyph unicode="0" d="M103 733q0 234 47.5 402.5t153.5 259t280 90.5q165 0 272 -89.5t159 -258t52 -404.5q0 -178 -27 -318t-85 -237t-150 -147.5t-221 -50.5q-163 0 -269.5 89t-159 257.5t-52.5 406.5zM270 733q0 -204 31 -340t100.5 -203.5t182.5 -67.5t182.5 67t101 203t31.5 341 q0 201 -31 336.5t-100 204t-184 68.5t-184 -68.5t-99.5 -204t-30.5 -336.5z" />
<glyph unicode="1" d="M185 1157l396 305h138v-1462h-162v1036q0 59 0.5 101.5t2 78t4.5 72.5q-31 -32 -58 -54.5t-67 -55.5l-167 -134z" />
<glyph unicode="2" d="M101 0v139l391 397q109 110 183.5 196t113.5 169.5t39 183.5q0 124 -73.5 189.5t-193.5 65.5q-105 0 -186 -36t-166 -102l-89 112q58 49 126.5 87t147 60t167.5 22q135 0 233 -47t151.5 -134t53.5 -207q0 -116 -46 -215.5t-129 -197t-194 -206.5l-318 -317v-7h747v-152 h-958z" />
<glyph unicode="3" d="M92 60v156q91 -45 198 -70.5t207 -25.5q200 0 289 79.5t89 217.5q0 95 -49.5 153.5t-142 86t-222.5 27.5h-146v142h147q119 0 202 35t126.5 98.5t43.5 150.5q0 111 -74 171.5t-201 60.5q-78 0 -142 -16t-120 -44t-112 -65l-84 114q80 62 195 107t261 45q224 0 336 -102 t112 -260q0 -98 -38 -170t-106 -117.5t-160 -63.5v-8q174 -22 261.5 -112t87.5 -236q0 -127 -59.5 -225t-182 -153.5t-313.5 -55.5q-116 0 -214.5 18.5t-188.5 61.5z" />
<glyph unicode="4" d="M44 339v140l696 991h173v-981h219v-150h-219v-339h-162v339h-707zM209 489h542v478q0 55 1 99.5t3 83t3.5 73.5t2.5 69h-8q-19 -40 -43.5 -84.5t-49.5 -79.5z" />
<glyph unicode="5" d="M132 60v158q73 -44 177 -70t202 -26q111 0 194.5 35.5t130 108t46.5 182.5q0 146 -89.5 225.5t-282.5 79.5q-62 0 -136 -10t-122 -22l-84 55l56 686h727v-152h-585l-37 -441q38 8 98 16.5t136 8.5q149 0 259 -50.5t170.5 -146.5t60.5 -233q0 -150 -65 -258.5t-187 -167 t-292 -58.5q-114 0 -212 20t-165 60z" />
<glyph unicode="6" d="M116 625q0 132 18.5 258t62.5 234.5t120 190.5t189.5 128.5t272.5 46.5q45 0 97 -4.5t86 -14.5v-143q-37 13 -84.5 19t-95.5 6q-186 0 -292.5 -81t-153.5 -219.5t-54 -311.5h11q31 50 79 90.5t116.5 64.5t159.5 24q128 0 223.5 -52t148 -151t52.5 -240q0 -151 -56 -261 t-159.5 -169.5t-246.5 -59.5q-107 0 -197 41t-156.5 122t-103.5 201.5t-37 280.5zM285 508q0 -66 19.5 -134t59.5 -126t101 -93t143 -35q136 0 218 87t82 263q0 144 -73 228t-220 84q-100 0 -174 -41.5t-115 -104.5t-41 -128z" />
<glyph unicode="7" d="M93 1310v152h975v-128l-596 -1334h-182l600 1310h-797z" />
<glyph unicode="8" d="M103 371q0 101 43 175.5t114 128.5t155 91q-73 40 -133.5 91t-96 119.5t-35.5 159.5q0 111 56.5 188.5t155 118t222.5 40.5q127 0 225 -40t153.5 -117.5t55.5 -190.5q0 -89 -38.5 -155.5t-103.5 -116t-144 -88.5q94 -43 169.5 -97t119.5 -127t44 -173 q0 -123 -59.5 -212.5t-166.5 -137.5t-251 -48q-155 0 -263.5 46.5t-165 134t-56.5 210.5zM266 370q0 -112 79 -184.5t239 -72.5q152 0 235 72.5t83 190.5q0 73 -38 128.5t-108 99.5t-165 80l-36 13q-92 -38 -156.5 -84.5t-98.5 -105.5t-34 -137zM314 1128q0 -76 36.5 -128.5 t99.5 -90t141 -69.5q76 32 135 70.5t93 91.5t34 127q0 106 -74.5 162t-196.5 56q-118 0 -193 -56.5t-75 -162.5z" />
<glyph unicode="9" d="M103 991q0 151 57.5 261.5t161.5 170.5t245 60q108 0 198 -41t156.5 -122.5t103 -201.5t36.5 -279q0 -133 -18.5 -259t-63 -235t-120.5 -191t-190.5 -128.5t-273.5 -46.5q-43 0 -98 5.5t-90 15.5v144q37 -13 87 -20.5t98 -7.5q187 0 294 80.5t154 219t53 311.5h-12 q-30 -48 -78.5 -88.5t-117.5 -65t-161 -24.5q-127 0 -221.5 52t-147 151t-52.5 239zM269 993q0 -145 71 -229t219 -84q102 0 176.5 41t115 104t40.5 129t-19.5 134t-59.5 125.5t-101 93t-144 35.5q-133 0 -215.5 -87t-82.5 -262z" />
<glyph unicode=":" horiz-adv-x="538" d="M150 104q0 70 34 99.5t83 29.5q51 0 86 -29.5t35 -99.5q0 -69 -35 -100.5t-86 -31.5q-49 0 -83 31.5t-34 100.5zM150 991q0 72 34 101.5t83 29.5q51 0 86 -29.5t35 -101.5q0 -68 -35 -99t-86 -31q-49 0 -83 31t-34 99z" />
<glyph unicode=";" horiz-adv-x="538" d="M65 -264q21 79 41 167.5t37.5 175.5t27.5 159h177l14 -23q-18 -72 -46 -155.5t-60.5 -167t-64.5 -156.5h-126zM146 991q0 72 34 101.5t83 29.5q53 0 87 -29.5t34 -101.5q0 -68 -34 -99t-87 -31q-49 0 -83 31t-34 99z" />
<glyph unicode="&#x3c;" d="M103 669v95l962 476v-148l-782 -369l782 -333v-147z" />
<glyph unicode="=" d="M115 449v135h938v-135h-938zM115 858v135h938v-135h-938z" />
<glyph unicode="&#x3e;" d="M103 243v147l783 331l-783 371v148l962 -476v-95z" />
<glyph unicode="?" horiz-adv-x="884" d="M31 1386q82 43 178 70t214 27q193 0 299 -95.5t106 -262.5q0 -93 -30 -158.5t-85 -120t-130 -115.5q-66 -56 -101 -98.5t-48 -87t-13 -106.5v-33h-133v52q0 80 15 137.5t52.5 107.5t104.5 106q78 65 123.5 110.5t65.5 91.5t20 111q0 104 -67 159.5t-189 55.5 q-99 0 -176 -25t-148 -60zM244 104q0 70 33 99.5t85 29.5q49 0 83.5 -29.5t34.5 -99.5q0 -69 -34.5 -100.5t-83.5 -31.5q-52 0 -85 31.5t-33 100.5z" />
<glyph unicode="@" horiz-adv-x="1836" d="M118 574q0 193 59.5 355t172 281t273 184.5t361.5 65.5q215 0 380.5 -88.5t260 -252t94.5 -389.5q0 -95 -21.5 -185.5t-65.5 -163t-109.5 -115.5t-154.5 -43q-93 0 -148 54t-66 128h-9q-38 -79 -111.5 -130.5t-180.5 -51.5q-156 0 -240.5 103.5t-84.5 275.5 q0 134 53.5 237.5t151 163t230.5 59.5q89 0 173 -15t134 -33l-20 -403q-1 -37 -2 -56.5t-1 -30.5q0 -108 38.5 -145.5t93.5 -37.5q67 0 112.5 52.5t69.5 141t24 196.5q0 191 -77 326t-212.5 206t-311.5 71q-175 0 -310.5 -55t-229 -155.5t-141.5 -238.5t-48 -305 q0 -204 72.5 -347t213 -217.5t342.5 -74.5q122 0 235 27t202 61v-130q-88 -37 -197 -60.5t-240 -23.5q-241 0 -412 90.5t-262 260.5t-91 408zM677 598q0 -133 53 -195t147 -62q116 0 170.5 87t62.5 230l12 261q-29 9 -70.5 15.5t-86.5 6.5q-103 0 -166.5 -49t-92.5 -127 t-29 -167z" />
<glyph unicode="A" horiz-adv-x="1295" d="M0 0l572 1468h153l568 -1468h-176l-180 464h-586l-179 -464h-172zM408 615h478l-171 461q-6 18 -19.5 59t-27.5 85t-23 71q-10 -41 -21.5 -81.5t-22.5 -75t-19 -58.5z" />
<glyph unicode="B" horiz-adv-x="1323" d="M200 0v1462h414q274 0 412 -82t138 -279q0 -85 -32.5 -152.5t-94.5 -111.5t-153 -61v-10q96 -15 170 -55t116 -112t42 -183q0 -135 -62.5 -228t-176.5 -140.5t-270 -47.5h-503zM370 145h304q195 0 276 76.5t81 206.5q0 83 -36.5 142t-118 90.5t-217.5 31.5h-289v-547z M370 835h280q191 0 264.5 63t73.5 184q0 125 -87.5 180t-278.5 55h-252v-482z" />
<glyph unicode="C" horiz-adv-x="1290" d="M125 733q0 166 46.5 303.5t136 237.5t220 154.5t299.5 54.5q111 0 214 -22t186 -63l-68 -144q-70 32 -153.5 55.5t-180.5 23.5q-121 0 -217.5 -41.5t-164 -120t-103.5 -189.5t-36 -250q0 -184 57.5 -319.5t172 -209.5t286.5 -74q98 0 184.5 16.5t168.5 41.5v-148 q-80 -30 -168 -44.5t-209 -14.5q-223 0 -372.5 92.5t-224 261.5t-74.5 399z" />
<glyph unicode="D" horiz-adv-x="1486" d="M200 0v1462h441q223 0 384 -81.5t248.5 -241t87.5 -394.5q0 -247 -90 -412.5t-260.5 -249t-413.5 -83.5h-397zM370 146h207q302 0 453.5 149t151.5 444q0 197 -65.5 325t-192 190.5t-309.5 62.5h-245v-1171z" />
<glyph unicode="E" horiz-adv-x="1138" d="M200 0v1462h814v-150h-644v-473h607v-148h-607v-541h644v-150h-814z" />
<glyph unicode="F" horiz-adv-x="1057" d="M200 0v1462h814v-150h-644v-536h605v-149h-605v-627h-170z" />
<glyph unicode="G" horiz-adv-x="1489" d="M125 731q0 227 89.5 396t259 262.5t407.5 93.5q122 0 231.5 -22.5t203.5 -63.5l-65 -148q-81 35 -178.5 60t-201.5 25q-179 0 -306.5 -74t-195 -209t-67.5 -320q0 -183 59 -318.5t184 -210.5t322 -75q99 0 170 11.5t129 27.5v448h-341v152h511v-709q-115 -39 -236.5 -58 t-271.5 -19q-228 0 -384.5 91t-237.5 259.5t-81 400.5z" />
<glyph unicode="H" horiz-adv-x="1510" d="M200 0v1462h170v-623h768v623h170v-1462h-170v689h-768v-689h-170z" />
<glyph unicode="I" horiz-adv-x="572" d="M200 0v1462h170v-1462h-170z" />
<glyph unicode="J" horiz-adv-x="550" d="M-164 -214q32 -10 69 -15.5t80 -5.5q56 0 103 22t75 75t28 146v1454h171v-1441q0 -137 -45.5 -227t-129 -134.5t-198.5 -44.5q-50 0 -88 7t-65 19v145z" />
<glyph unicode="K" horiz-adv-x="1254" d="M200 0v1462h170v-729q57 65 117 129.5t119 130.5l427 469h199l-582 -634l604 -828h-201l-527 711l-156 -140v-571h-170z" />
<glyph unicode="L" horiz-adv-x="1069" d="M200 0v1462h170v-1310h649v-152h-819z" />
<glyph unicode="M" horiz-adv-x="1842" d="M200 0v1462h252l463 -1216h7l470 1216h250v-1462h-168v936q0 65 2 130.5t5 124t6 101.5h-8l-497 -1292h-139l-491 1294h-8q4 -41 7 -100t5 -128.5t2 -141.5v-924h-158z" />
<glyph unicode="N" horiz-adv-x="1542" d="M200 0v1462h195l794 -1224h7q-2 35 -5 99.5t-5.5 139t-2.5 138.5v847h160v-1462h-196l-797 1228h-8q3 -49 7 -111.5t6.5 -133t2.5 -143.5v-840h-158z" />
<glyph unicode="O" horiz-adv-x="1593" d="M125 735q0 224 74 393t224.5 263t377.5 94q217 0 365.5 -93t225 -261.5t76.5 -397.5q0 -169 -43 -307.5t-127.5 -238t-209.5 -153.5t-290 -54q-170 0 -296.5 54t-210 154t-125 239t-41.5 308zM304 733q0 -186 53 -322t162.5 -210t278.5 -74q170 0 278.5 74t160.5 210 t52 322q0 283 -118.5 442.5t-369.5 159.5q-170 0 -280 -73t-163.5 -207.5t-53.5 -321.5z" />
<glyph unicode="P" horiz-adv-x="1232" d="M200 0v1462h382q283 0 413.5 -110.5t130.5 -316.5q0 -93 -30.5 -176.5t-98.5 -147t-178.5 -100t-270.5 -36.5h-178v-575h-170zM370 721h159q140 0 233.5 30t140.5 97.5t47 179.5q0 146 -93 217.5t-291 71.5h-196v-596z" />
<glyph unicode="Q" horiz-adv-x="1593" d="M125 735q0 224 74 393t224.5 263t377.5 94q217 0 365.5 -93t225 -261.5t76.5 -397.5q0 -180 -49 -326t-145.5 -247t-240.5 -147l344 -361h-243l-283 330q-13 0 -26.5 -1t-26.5 -1q-170 0 -296.5 54t-210 154t-125 239t-41.5 308zM304 733q0 -186 53 -322t162.5 -210 t278.5 -74q170 0 278.5 74t160.5 210t52 322q0 283 -118.5 442.5t-369.5 159.5q-170 0 -280 -73t-163.5 -207.5t-53.5 -321.5z" />
<glyph unicode="R" horiz-adv-x="1264" d="M200 0v1462h395q180 0 297.5 -44.5t175.5 -135.5t58 -232q0 -116 -42 -193.5t-110 -125.5t-145 -74l401 -657h-198l-358 610h-304v-610h-170zM370 754h232q179 0 263.5 73t84.5 215q0 149 -89.5 211t-275.5 62h-215v-561z" />
<glyph unicode="S" horiz-adv-x="1123" d="M105 48v163q75 -31 183 -57.5t226 -26.5q110 0 186 29.5t115.5 85t39.5 133.5q0 75 -33 125.5t-109.5 92t-208.5 88.5q-93 33 -164 72.5t-119 89.5t-72.5 116t-24.5 151q0 117 59.5 200.5t165 128t242.5 44.5q117 0 216.5 -22t182.5 -59l-53 -146q-79 33 -167.5 55 t-182.5 22t-158.5 -27.5t-98.5 -77.5t-34 -119q0 -77 32.5 -128t104 -90.5t189.5 -82.5q129 -47 219 -99.5t137 -128t47 -191.5q0 -130 -64.5 -221.5t-180.5 -139.5t-273 -48q-83 0 -157 8t-136 23t-109 37z" />
<glyph unicode="T" horiz-adv-x="1128" d="M18 1312v150h1089v-150h-458v-1312h-171v1312h-460z" />
<glyph unicode="U" horiz-adv-x="1493" d="M185 520v942h171v-947q0 -186 98.5 -287t294.5 -101q134 0 219.5 48.5t127 136t41.5 202.5v948h169v-946q0 -155 -62.5 -276t-188.5 -190.5t-316 -69.5q-271 0 -412.5 147t-141.5 393z" />
<glyph unicode="V" horiz-adv-x="1221" d="M0 1462h178l342 -963q21 -58 37.5 -111t29.5 -102t23 -95q10 46 23 95.5t30 103t38 112.5l340 960h180l-525 -1462h-171z" />
<glyph unicode="W" horiz-adv-x="1891" d="M30 1462h177l235 -917q12 -46 22.5 -90.5t19 -86.5t15.5 -82t13 -78q5 39 13 81.5t17.5 86.5t21 89t24.5 90l263 907h175l274 -914q14 -47 26 -93t21.5 -89.5t17 -83t13.5 -74.5q7 49 17 103t23.5 113t29.5 122l235 916h178l-391 -1462h-171l-290 984q-13 42 -24.5 84.5 t-21.5 81t-16.5 68t-9.5 44.5q-2 -15 -7.5 -44t-14 -67t-20 -81t-24.5 -87l-282 -983h-171z" />
<glyph unicode="X" horiz-adv-x="1183" d="M6 0l487 762l-453 700h189l365 -583l367 583h180l-452 -697l487 -765h-193l-395 644l-401 -644h-181z" />
<glyph unicode="Y" horiz-adv-x="1145" d="M0 1462h186l387 -733l389 733h183l-487 -895v-567h-170v559z" />
<glyph unicode="Z" horiz-adv-x="1172" d="M78 0v128l787 1182h-760v152h967v-128l-788 -1182h809v-152h-1015z" />
<glyph unicode="[" horiz-adv-x="670" d="M166 -324v1786h453v-136h-291v-1512h291v-138h-453z" />
<glyph unicode="\" horiz-adv-x="751" d="M21 1462h164l546 -1462h-165z" />
<glyph unicode="]" horiz-adv-x="670" d="M51 -186h291v1512h-291v136h454v-1786h-454v138z" />
<glyph unicode="^" d="M80 549l439 924h96l477 -924h-149l-374 746l-340 -746h-149z" />
<glyph unicode="_" horiz-adv-x="897" d="M-4 -184h905v-123h-905v123z" />
<glyph unicode="`" horiz-adv-x="568" d="M82 1549v20h198q24 -46 59.5 -102.5t75 -110t72.5 -91.5v-24h-113q-36 29 -78.5 69t-84.5 84.5t-76 85t-53 69.5z" />
<glyph unicode="a" horiz-adv-x="1138" d="M94 301q0 164 130 252t396 96l189 8v67q0 142 -61 199t-172 57q-86 0 -164 -25t-148 -59l-51 126q74 38 170 65t202 27q196 0 291 -88t95 -281v-745h-121l-32 162h-8q-46 -60 -96 -100.5t-115.5 -61t-160.5 -20.5q-100 0 -177.5 35t-122 106t-44.5 180zM267 299 q0 -94 57 -139t151 -45q146 0 239 81t93 243v101l-167 -7q-205 -8 -289 -67t-84 -167z" />
<glyph unicode="b" horiz-adv-x="1253" d="M175 0v1556h166v-389q0 -67 -3.5 -130t-5.5 -98h9q45 74 130 125t217 51q206 0 328.5 -142.5t122.5 -423.5q0 -185 -56 -312t-158 -192t-241 -65q-130 0 -213.5 48.5t-128.5 118.5h-13l-34 -147h-120zM341 544q0 -207 69 -316.5t251 -109.5q153 0 229.5 112t76.5 320 q0 212 -75.5 319t-230.5 107q-119 0 -189 -46.5t-100.5 -140t-30.5 -236.5v-9z" />
<glyph unicode="c" horiz-adv-x="981" d="M114 542q0 199 66.5 325.5t183.5 187.5t266 61q82 0 158.5 -16.5t125.5 -41.5l-50 -139q-50 20 -115.5 36t-122.5 16q-114 0 -189.5 -49t-113 -144t-37.5 -234q0 -133 36.5 -227t109 -143.5t181.5 -49.5q87 0 157 18.5t127 43.5v-148q-55 -28 -122.5 -43t-160.5 -15 q-148 0 -261 61t-176 186t-63 315z" />
<glyph unicode="d" horiz-adv-x="1253" d="M114 544q0 283 124 427.5t330 144.5q87 0 152 -23t112 -61.5t79 -87.5h12q-4 31 -8 85t-4 88v439h166v-1556h-134l-25 156h-7q-31 -49 -78.5 -89t-113 -63.5t-154.5 -23.5q-208 0 -329.5 142t-121.5 422zM286 540q0 -202 75.5 -312t229.5 -110q176 0 249 100t73 297v30 q0 209 -69.5 321t-252.5 112q-153 0 -229 -117.5t-76 -320.5z" />
<glyph unicode="e" horiz-adv-x="1150" d="M114 540q0 177 59.5 306.5t168 199.5t255.5 70q140 0 240 -62t153 -173.5t53 -260.5v-103h-757q3 -193 96 -294t262 -101q104 0 184 19t166 56v-146q-83 -37 -164.5 -54t-192.5 -17q-158 0 -275.5 64.5t-182.5 189.5t-65 306zM289 650h580q-1 98 -30.5 172.5t-89.5 116 t-154 41.5q-133 0 -212 -87t-94 -243z" />
<glyph unicode="f" horiz-adv-x="689" d="M30 966v80l194 55v73q0 138 41 224.5t119 127.5t190 41q63 0 115.5 -11t92.5 -25l-43 -131q-34 11 -76.5 20.5t-86.5 9.5q-95 0 -140.5 -61.5t-45.5 -192.5v-80h273v-130h-273v-966h-166v966h-194z" />
<glyph unicode="g" horiz-adv-x="1112" d="M31 -186q0 103 65.5 176t181.5 97q-43 20 -73.5 60t-30.5 92q0 60 33.5 105.5t102.5 87.5q-86 35 -139.5 118.5t-53.5 194.5q0 118 49 201.5t142 127.5t225 44q29 0 58.5 -2.5t56.5 -7t47 -10.5h376v-107l-202 -25q30 -39 50 -94t20 -122q0 -164 -111 -260.5t-305 -96.5 q-46 0 -94 8q-49 -27 -74.5 -60t-25.5 -76q0 -32 19.5 -51t56.5 -27.5t89 -8.5h193q179 0 274.5 -75t95.5 -219q0 -182 -148 -279t-428 -97q-216 0 -333 80.5t-117 225.5zM197 -180q0 -89 75 -135.5t214 -46.5q136 0 225.5 27.5t134 79t44.5 122.5q0 66 -30 99.5t-88 45 t-142 11.5h-190q-74 0 -129 -23t-84.5 -68t-29.5 -112zM290 746q0 -112 62 -172t177 -60q119 0 179 60t60 175q0 123 -61 184.5t-180 61.5q-114 0 -175.5 -63.5t-61.5 -185.5z" />
<glyph unicode="h" horiz-adv-x="1256" d="M175 0v1556h166v-465q0 -40 -2 -80.5t-7 -74.5h11q34 58 86.5 97.5t119.5 60t142 20.5q132 0 220.5 -42t133 -130t44.5 -228v-714h-164v703q0 137 -62.5 205t-191.5 68q-122 0 -194.5 -46.5t-104 -136.5t-31.5 -220v-573h-166z" />
<glyph unicode="i" horiz-adv-x="517" d="M160 1397q0 56 28.5 82.5t71.5 26.5q41 0 70.5 -26.5t29.5 -82.5q0 -55 -29.5 -82t-70.5 -27q-43 0 -71.5 27t-28.5 82zM175 0v1096h166v-1096h-166z" />
<glyph unicode="j" horiz-adv-x="517" d="M-112 -332q31 -10 63 -15.5t72 -5.5q68 0 110 38t42 138v1273h166v-1269q0 -100 -32 -171.5t-98 -109.5t-168 -38q-51 0 -89 7.5t-66 17.5v135zM160 1397q0 56 28.5 82.5t71.5 26.5q41 0 70.5 -26.5t29.5 -82.5q0 -55 -29.5 -82t-70.5 -27q-43 0 -71.5 27t-28.5 82z" />
<glyph unicode="k" horiz-adv-x="1076" d="M175 0v1556h165v-808q0 -40 -3 -97.5t-5 -101.5h7q21 26 61.5 77t68.5 82l364 388h195l-441 -468l473 -628h-200l-387 519l-133 -122v-397h-165z" />
<glyph unicode="l" horiz-adv-x="517" d="M175 0v1556h167v-1556h-167z" />
<glyph unicode="m" horiz-adv-x="1896" d="M175 0v1096h134l25 -155h9q33 57 83 96t112 59t132 20q125 0 209.5 -46.5t122.5 -141.5h9q54 95 148 141.5t206 46.5q181 0 273 -94.5t92 -303.5v-718h-164v710q0 133 -57.5 199.5t-170.5 66.5q-159 0 -231 -92t-72 -271v-613h-165v710q0 89 -25.5 148t-76 88.5 t-127.5 29.5q-109 0 -175 -45t-95.5 -133.5t-29.5 -217.5v-580h-166z" />
<glyph unicode="n" horiz-adv-x="1256" d="M175 0v1096h134l25 -158h9q35 58 89 97.5t121 60t141 20.5q195 0 295 -95.5t100 -306.5v-714h-164v703q0 137 -62.5 205t-191.5 68q-182 0 -256 -103t-74 -299v-574h-166z" />
<glyph unicode="o" horiz-adv-x="1232" d="M114 550q0 180 61 306.5t174.5 193t270.5 66.5q150 0 262.5 -67t175 -193.5t62.5 -305.5q0 -135 -35 -241t-101 -179t-159.5 -111.5t-211.5 -38.5q-110 0 -201.5 38.5t-158 111.5t-103 179t-36.5 241zM286 550q0 -132 35 -229t108 -150t188 -53q114 0 187.5 53t108.5 150 t35 229q0 131 -35 226.5t-108 147.5t-189 52q-171 0 -250.5 -113t-79.5 -313z" />
<glyph unicode="p" horiz-adv-x="1253" d="M175 -490v1586h137l22 -162h8q32 50 78 91.5t112.5 66t157.5 24.5q205 0 327 -141t122 -424q0 -187 -56 -314t-157.5 -192t-239.5 -65q-87 0 -153 23t-113 62t-78 85h-12q3 -39 7.5 -94t4.5 -96v-450h-167zM342 549q0 -139 30.5 -235t101 -146t189.5 -50q102 0 170 55 t101.5 153.5t33.5 226.5q0 194 -75.5 308.5t-231.5 114.5q-114 0 -183.5 -44t-101.5 -131.5t-34 -219.5v-32z" />
<glyph unicode="q" horiz-adv-x="1253" d="M113 546q0 185 56 312t158.5 192.5t239.5 65.5q131 0 214 -51.5t130 -125.5h8l25 157h132v-1586h-166v470q0 39 2 90t7 88h-11q-46 -76 -131 -127t-219 -51q-201 0 -323 142t-122 424zM285 542q0 -201 75 -312.5t229 -111.5q116 0 186 43.5t102.5 131.5t34.5 219v35 q0 212 -72 321.5t-251 109.5q-154 0 -229 -117.5t-75 -318.5z" />
<glyph unicode="r" horiz-adv-x="837" d="M175 0v1096h138l18 -202h7q34 61 82 111.5t111.5 80.5t141.5 30q33 0 69 -3.5t64 -9.5l-21 -154q-27 7 -60 11t-62 4q-66 0 -124.5 -26.5t-102.5 -76t-69 -119t-25 -154.5v-588h-167z" />
<glyph unicode="s" horiz-adv-x="976" d="M103 49v153q67 -33 160 -60t190 -27q142 0 206 46t64 125q0 45 -25.5 79.5t-85.5 67t-166 71.5q-105 40 -181.5 79.5t-118 96.5t-41.5 148q0 139 112.5 213.5t295.5 74.5q99 0 185.5 -19.5t161.5 -52.5l-56 -133q-68 29 -145 49t-157 20q-115 0 -176.5 -38t-61.5 -104 q0 -51 28.5 -84t91.5 -62t166 -68q103 -38 178 -78.5t115.5 -98t40.5 -147.5q0 -105 -52.5 -176.5t-150 -107.5t-232.5 -36q-115 0 -199 18t-147 51z" />
<glyph unicode="t" horiz-adv-x="730" d="M32 966v81l157 65l66 238h100v-254h321v-130h-321v-645q0 -103 47.5 -154t126.5 -51q41 0 84 7t70 17v-129q-29 -13 -80.5 -22t-100.5 -9q-87 0 -158 30.5t-113.5 103.5t-42.5 202v650h-156z" />
<glyph unicode="u" horiz-adv-x="1256" d="M163 378v718h168v-706q0 -137 62 -204.5t189 -67.5q122 0 194.5 46t104.5 135.5t32 219.5v577h167v-1096h-136l-24 154h-9q-34 -57 -88 -96t-121.5 -58.5t-143.5 -19.5q-130 0 -218 42t-132.5 130t-44.5 226z" />
<glyph unicode="v" horiz-adv-x="1023" d="M0 1096h178l241 -663q25 -68 51 -150t36 -132h7q12 50 40 132.5t51 149.5l241 663h178l-417 -1096h-190z" />
<glyph unicode="w" horiz-adv-x="1587" d="M24 1098h172l158 -605q16 -60 30.5 -118.5t25 -110t15.5 -89.5h8q6 25 13.5 60t17 74.5t20.5 79t22 74.5l202 635h179l195 -634q15 -48 29.5 -100t26.5 -100.5t17 -86.5h8q4 34 15 84t25.5 110t30.5 122l160 605h169l-303 -1096h-193l-195 638q-13 41 -24.5 80.5t-21 76 t-17 68t-12.5 54.5h-7q-4 -23 -11 -54.5t-16.5 -68.5t-20.5 -77.5t-25 -81.5l-204 -635h-187z" />
<glyph unicode="x" horiz-adv-x="1072" d="M39 0l397 561l-379 535h190l289 -422l288 422h188l-379 -535l400 -561h-190l-307 447l-309 -447h-188z" />
<glyph unicode="y" horiz-adv-x="1026" d="M2 1096h178l242 -636q21 -56 39 -107.5t32 -98.5t22 -91h7q14 50 40 131.5t56 166.5l229 635h179l-477 -1257q-38 -101 -88.5 -176t-122.5 -115.5t-174 -40.5q-47 0 -83 5.5t-62 12.5v133q22 -5 53.5 -9t65.5 -4q62 0 107.5 23.5t78.5 68.5t57 107l60 154z" />
<glyph unicode="z" horiz-adv-x="960" d="M80 0v110l601 856h-563v130h748v-123l-593 -844h606v-129h-799z" />
<glyph unicode="{" horiz-adv-x="768" d="M57 501v138q81 1 136 20.5t83 62.5t28 114v308q0 107 50 177.5t139.5 105.5t208.5 35v-136q-74 -2 -126.5 -23t-80 -64t-27.5 -111v-301q0 -104 -53 -167t-163 -83v-12q112 -19 164 -82t52 -168v-307q0 -68 27 -110.5t79.5 -62.5t127.5 -21v-138q-124 1 -213.5 36.5 t-137 106.5t-47.5 178v306q0 71 -28 114.5t-83 63.5t-136 20z" />
<glyph unicode="|" horiz-adv-x="1125" d="M492 -496v2053h139v-2053h-139z" />
<glyph unicode="}" horiz-adv-x="768" d="M67 -186q74 2 126 22.5t79.5 63t27.5 110.5v303q0 105 53.5 168t162.5 82v12q-111 20 -163.5 83t-52.5 167v304q0 69 -27 112t-79 63.5t-127 21.5v136q124 -1 213 -36t136.5 -105.5t47.5 -178.5v-304q0 -72 28 -115.5t83.5 -63.5t136.5 -20v-138q-81 0 -136.5 -20 t-83.5 -63t-28 -113v-310q0 -106 -50 -177t-139 -106.5t-208 -35.5v138z" />
<glyph unicode="~" d="M103 595v149q50 53 111.5 80t134.5 27q62 0 120.5 -13.5t146.5 -51.5q73 -31 121 -44t93 -13q59 0 122 34t113 86v-147q-48 -52 -109 -80.5t-135 -28.5q-60 0 -119 13t-148 52q-71 32 -120 44.5t-96 12.5q-57 0 -120.5 -34t-114.5 -86z" />
<glyph unicode="&#xa1;" horiz-adv-x="541" d="M150 985q0 68 34.5 99.5t84.5 31.5t84.5 -31.5t34.5 -99.5q0 -70 -34.5 -99.5t-84.5 -29.5t-84.5 29.5t-34.5 99.5zM166 -374l46 1055h111l46 -1055h-203z" />
<glyph unicode="&#xa2;" d="M185 741q0 183 50 302.5t141 184t214 82.5v173h130v-165q77 -3 147.5 -19t121.5 -39l-48 -139q-55 21 -121.5 36.5t-122.5 15.5q-115 0 -191 -48t-113.5 -143.5t-37.5 -238.5q0 -142 37 -234.5t110.5 -138t183.5 -45.5q88 0 156 17t130 43v-145q-55 -27 -114.5 -43 t-139.5 -18v-199h-128v204q-125 18 -216 80.5t-140 179.5t-49 297z" />
<glyph unicode="&#xa3;" d="M68 0v141q61 14 108 48t73.5 94t26.5 151v224h-199v127h199v305q0 124 50.5 211t142.5 133.5t217 46.5q111 0 199 -23.5t158 -57.5l-60 -134q-61 29 -135.5 52.5t-157.5 23.5q-121 0 -184 -64t-63 -206v-287h416v-127h-416v-222q0 -84 -20 -139.5t-52.5 -89t-70.5 -55.5 h792v-152h-1024z" />
<glyph unicode="&#xa4;" d="M121 1095l92 90l138 -134q49 35 109 54.5t126 19.5q64 0 122 -19.5t108 -54.5l139 134l92 -90l-135 -140q33 -48 54.5 -107.5t21.5 -124.5q0 -64 -19.5 -124.5t-56.5 -109.5l133 -138l-90 -89l-139 134q-48 -34 -107 -53.5t-123 -19.5q-66 0 -127 19.5t-108 55.5 l-138 -135l-91 89l136 139q-34 49 -54.5 108.5t-20.5 123.5q0 63 20.5 122.5t54.5 108.5zM311 723q0 -77 36.5 -139.5t99 -99t138.5 -36.5q78 0 141 37t100 99.5t37 138.5q0 78 -37 141t-100 100.5t-140 37.5t-139.5 -37.5t-99 -100.5t-36.5 -141z" />
<glyph unicode="&#xa5;" d="M31 1462h177l376 -721l377 721h175l-420 -771h264v-123h-315v-174h315v-123h-315v-271h-162v271h-316v123h316v174h-316v123h260z" />
<glyph unicode="&#xa6;" horiz-adv-x="1125" d="M492 282h139v-778h-139v778zM492 780v777h139v-777h-139z" />
<glyph unicode="&#xa7;" horiz-adv-x="1052" d="M122 58v144q45 -21 103 -40.5t122 -31.5t128 -12q155 0 214.5 46t59.5 108q0 42 -22 73t-80.5 61.5t-167.5 70.5q-105 39 -181 81t-117 101.5t-41 149.5q0 101 51 164t118 94q-76 39 -119 94.5t-43 140.5q0 122 103.5 193t295.5 71q113 0 192 -19.5t154 -49.5l-51 -128 q-69 28 -139.5 47.5t-166.5 19.5q-125 0 -179 -34t-54 -96q0 -41 26 -72t86.5 -60t161.5 -66q104 -37 179 -80.5t115.5 -101.5t40.5 -142q0 -104 -47.5 -171t-109.5 -102q73 -37 113.5 -91.5t40.5 -134.5q0 -139 -115.5 -216.5t-324.5 -77.5q-113 0 -197.5 18t-148.5 49z M283 827q0 -53 29 -93t93.5 -74.5t170.5 -74.5l54 -19q52 29 94.5 76.5t42.5 117.5q0 54 -29.5 96t-100.5 79t-196 75q-62 -16 -110 -64t-48 -119z" />
<glyph unicode="&#xa8;" horiz-adv-x="1187" d="M310 1394q0 50 26 73t64 23q39 0 65.5 -23t26.5 -73q0 -49 -26.5 -73.5t-65.5 -24.5q-38 0 -64 24.5t-26 73.5zM694 1394q0 50 26 73t63 23q38 0 65 -23t27 -73q0 -49 -27 -73.5t-65 -24.5q-37 0 -63 24.5t-26 73.5z" />
<glyph unicode="&#xa9;" horiz-adv-x="1704" d="M100 731q0 163 56 300.5t157.5 238.5t239 157t299.5 56q157 0 293.5 -56.5t239.5 -158t161 -238.5t58 -299t-56 -299.5t-157.5 -238.5t-239 -157t-299.5 -56q-163 0 -300.5 56t-239 157t-157 238.5t-55.5 299.5zM209 731q0 -134 47 -251.5t133.5 -207t204 -140 t258.5 -50.5q133 0 249.5 48t204.5 135.5t138 206t50 259.5q0 134 -47.5 251t-133.5 207t-203.5 140.5t-257.5 50.5t-257.5 -48t-204 -135.5t-134 -206t-47.5 -259.5zM478 731q0 133 48.5 235.5t141 161t224.5 58.5q66 0 131 -16t122 -45l-56 -116q-50 26 -99 39.5t-96 13.5 q-127 0 -197 -88.5t-70 -242.5q0 -160 63.5 -246t200.5 -86q50 0 107.5 13t109.5 34v-122q-49 -22 -101 -36t-123 -14q-202 0 -304 124.5t-102 332.5z" />
<glyph unicode="&#xaa;" horiz-adv-x="723" d="M68 988q0 68 35 114t107 71t181 29l112 4v47q0 69 -42.5 97t-104.5 28q-55 0 -106.5 -14.5t-97.5 -38.5l-43 95q52 26 117 42.5t134 16.5q130 0 196 -55t66 -174v-450h-91l-23 87q-39 -43 -96 -71.5t-134 -28.5q-64 0 -111.5 22t-73 67t-25.5 112zM191 988 q0 -53 31 -77.5t84 -24.5q104 0 150.5 49.5t46.5 132.5v50l-98 -4q-124 -4 -169 -36t-45 -90z" />
<glyph unicode="&#xab;" horiz-adv-x="1015" d="M79 529v27l340 409l119 -68l-287 -353l287 -353l-119 -69zM477 529v27l345 409l117 -68l-286 -353l286 -353l-117 -69z" />
<glyph unicode="&#xac;" d="M103 654v136h957v-527h-134v391h-823z" />
<glyph unicode="&#xad;" horiz-adv-x="659" d="M82 476v148h496v-148h-496z" />
<glyph unicode="&#xae;" horiz-adv-x="1704" d="M100 731q0 163 56 300.5t157.5 238.5t239 157t299.5 56q157 0 293.5 -56.5t239.5 -158t161 -238.5t58 -299t-56 -299.5t-157.5 -238.5t-239 -157t-299.5 -56q-163 0 -300.5 56t-239 157t-157 238.5t-55.5 299.5zM209 731q0 -134 47 -251.5t133.5 -207t204 -140 t258.5 -50.5q133 0 249.5 48t204.5 135.5t138 206t50 259.5q0 134 -47.5 251t-133.5 207t-203.5 140.5t-257.5 50.5t-257.5 -48t-204 -135.5t-134 -206t-47.5 -259.5zM575 284v893h261q163 0 241 -65.5t78 -197.5q0 -97 -49.5 -153.5t-113.5 -81.5l237 -395h-164l-207 356 h-138v-356h-145zM720 758h111q83 0 130.5 41t47.5 111q0 77 -44 111t-136 34h-109v-297z" />
<glyph unicode="&#xaf;" horiz-adv-x="1024" d="M-6 1556v127h1036v-127h-1036z" />
<glyph unicode="&#xb0;" horiz-adv-x="877" d="M117 1170q0 93 39.5 163.5t111.5 110t170 39.5q95 0 167.5 -39.5t113.5 -110t41 -163.5q0 -92 -41 -162.5t-113.5 -109.5t-167.5 -39q-96 0 -168 39t-112.5 109.5t-40.5 162.5zM241 1170q0 -88 48.5 -142.5t150.5 -54.5q98 0 147 54.5t49 142.5q0 92 -50.5 146.5 t-145.5 54.5q-101 0 -150 -54.5t-49 -146.5z" />
<glyph unicode="&#xb1;" d="M103 0v135h963v-135h-963zM103 659v136h412v426h137v-426h412v-136h-412v-424h-137v424h-412z" />
<glyph unicode="&#xb2;" horiz-adv-x="712" d="M50 852v104l237 232q82 80 126 131t60.5 92t16.5 88q0 66 -39 101.5t-105 35.5q-61 0 -112.5 -23.5t-104.5 -64.5l-67 89q60 50 130 80t156 30q130 0 204 -64.5t74 -176.5q0 -68 -27.5 -125t-81 -115t-130.5 -131l-170 -164h410v-119h-577z" />
<glyph unicode="&#xb3;" horiz-adv-x="712" d="M37 893v121q68 -32 137 -50t131 -18q108 0 159.5 43.5t51.5 118.5q0 76 -59.5 110.5t-167.5 34.5h-119v106h119q104 0 152.5 41t48.5 108q0 65 -42.5 97t-106.5 32t-119.5 -21.5t-110.5 -56.5l-68 89q62 45 132 72t164 27q143 0 216 -63t73 -161q0 -84 -44.5 -137 t-106.5 -72v-6q81 -16 128.5 -68.5t47.5 -135.5q0 -119 -85.5 -193t-263.5 -74q-75 0 -140.5 13t-126.5 43z" />
<glyph unicode="&#xb4;" horiz-adv-x="568" d="M82 1241v24q32 38 70 91.5t74 110t60 102.5h201v-20q-20 -29 -54.5 -69.5t-76.5 -85t-84.5 -84.5t-78.5 -69h-111z" />
<glyph unicode="&#xb5;" horiz-adv-x="1266" d="M175 -492v1588h166v-708q0 -133 64 -201.5t193 -68.5q124 0 195 46.5t101.5 136t30.5 218.5v577h166v-1096h-135l-26 152h-9q-34 -54 -81 -92.5t-109.5 -59t-143.5 -20.5q-86 0 -146.5 27t-100.5 73h-8q3 -24 5 -59.5t3 -80t1 -97.5v-335h-166z" />
<glyph unicode="&#xb6;" horiz-adv-x="1341" d="M122 1053q0 189 55 299t154 157t232 47h554v-1816h-111v1709h-216v-1709h-112v837q-31 -9 -70 -13.5t-76 -4.5q-125 0 -217 48.5t-142.5 157t-50.5 288.5z" />
<glyph unicode="&#xb7;" horiz-adv-x="538" d="M150 714q0 70 34 99.5t83 29.5q51 0 86 -29.5t35 -99.5q0 -69 -35 -100.5t-86 -31.5q-49 0 -83 31.5t-34 100.5z" />
<glyph unicode="&#xb8;" horiz-adv-x="454" d="M28 -376q19 -4 49 -7t60 -3q75 0 115 22t40 74q0 55 -53.5 80t-136.5 34l89 176h111l-54 -112q50 -10 90.5 -31t64.5 -56t24 -87q0 -97 -75 -151.5t-220 -54.5q-31 0 -59 3.5t-45 7.5v105z" />
<glyph unicode="&#xb9;" horiz-adv-x="712" d="M76 1544l267 185h138v-877h-135v566q0 36 1 67.5t2.5 62t3.5 59.5q-21 -19 -47 -40t-55 -40l-109 -77z" />
<glyph unicode="&#xba;" horiz-adv-x="765" d="M67 1135q0 166 85 255.5t233 89.5q97 0 167.5 -40.5t109.5 -117.5t39 -187q0 -164 -86.5 -256t-233.5 -92q-139 0 -226.5 89.5t-87.5 258.5zM188 1135q0 -121 46 -183.5t148 -62.5t148.5 62.5t46.5 183.5q0 120 -46 181t-148 61q-101 0 -148 -60t-47 -182z" />
<glyph unicode="&#xbb;" horiz-adv-x="1015" d="M77 191l286 354l-286 352l117 68l342 -408v-27l-342 -408zM476 191l286 354l-286 352l116 68l345 -408v-27l-345 -408z" />
<glyph unicode="&#xbc;" horiz-adv-x="1516" d="M66 1278l267 184h137v-876h-134v566q0 36 1 67.5t2.5 62t3.5 59.5q-21 -19 -47 -40t-55 -41l-109 -76zM263 0l878 1462h144l-879 -1462h-143zM825 205v98l405 580h139v-564h128v-114h-128v-205h-142v205h-402zM960 319h267v207q0 44 1 99t4 104q-11 -25 -41.5 -72 t-53.5 -81z" />
<glyph unicode="&#xbd;" horiz-adv-x="1573" d="M44 1278l267 184h138v-876h-136v566q0 27 0.5 51.5t2 47.5t3 45.5t2.5 44.5q-22 -19 -47.5 -40t-54.5 -41l-109 -76zM208 0l879 1462h143l-879 -1462h-143zM911 0v104l237 232q82 80 126 131t61 92t17 88q0 66 -40 101.5t-105 35.5q-62 0 -113 -23.5t-104 -64.5l-66 89 q59 50 129.5 80t155.5 30q130 0 204 -64.5t74 -176.5q0 -68 -28 -125t-81 -115t-130 -131l-170 -164h410v-119h-577z" />
<glyph unicode="&#xbe;" horiz-adv-x="1594" d="M33 627v121q68 -33 137.5 -50.5t131.5 -17.5q108 0 159.5 43t51.5 119t-60 110.5t-168 34.5h-119v106h119q104 0 152.5 41t48.5 108q0 65 -42.5 97t-106.5 32t-119 -21.5t-111 -56.5l-68 88q62 46 132.5 73t164.5 27q142 0 215 -63.5t73 -161.5q0 -83 -44 -136t-106 -72 v-7q80 -16 128 -68t48 -135q0 -119 -86 -193.5t-264 -74.5q-74 0 -140 13.5t-127 43.5zM356 0l879 1462h143l-878 -1462h-144zM904 205v98l405 580h139v-564h128v-114h-128v-205h-142v205h-402zM1040 319h266v207q0 44 1.5 99t4.5 104q-13 -25 -43 -72t-53 -81z" />
<glyph unicode="&#xbf;" horiz-adv-x="884" d="M53 -35q0 93 30 158.5t85.5 120t129.5 115.5q67 56 101.5 98.5t47.5 87t13 106.5v33h133v-52q0 -79 -15 -137t-52.5 -108t-104.5 -106q-78 -65 -124 -110.5t-65.5 -91.5t-19.5 -111q0 -104 67.5 -159.5t188.5 -55.5q99 0 176 25.5t148 59.5l58 -134q-82 -43 -177.5 -70 t-214.5 -27q-193 0 -299 95.5t-106 262.5zM401 986q0 69 34.5 100.5t83.5 31.5q53 0 85.5 -31.5t32.5 -100.5q0 -70 -32.5 -99.5t-85.5 -29.5q-49 0 -83.5 29.5t-34.5 99.5z" />
<glyph unicode="&#xc0;" horiz-adv-x="1295" d="M0 0l572 1468h153l568 -1468h-176l-180 464h-586l-179 -464h-172zM379 1916v20h198q24 -46 59.5 -102.5t75 -110t72.5 -91.5v-24h-113q-36 29 -78.5 69t-84.5 84.5t-76 85t-53 69.5zM408 615h478l-171 461q-6 18 -19.5 59t-27.5 85t-23 71q-10 -41 -21.5 -81.5t-22.5 -75 t-19 -58.5z" />
<glyph unicode="&#xc1;" horiz-adv-x="1295" d="M0 0l572 1468h153l568 -1468h-176l-180 464h-586l-179 -464h-172zM408 615h478l-171 461q-6 18 -19.5 59t-27.5 85t-23 71q-10 -41 -21.5 -81.5t-22.5 -75t-19 -58.5zM530 1608v24q32 38 70 91.5t74 110t60 102.5h201v-20q-20 -29 -54.5 -69.5t-76.5 -85t-84.5 -84.5 t-78.5 -69h-111z" />
<glyph unicode="&#xc2;" horiz-adv-x="1295" d="M0 0l572 1468h153l568 -1468h-176l-180 464h-586l-179 -464h-172zM313 1608v22q38 40 86.5 94t93 110t70.5 101h169q25 -45 70 -101.5t95 -110.5t89 -93v-22h-118q-54 35 -111 86t-111 106q-54 -55 -109.5 -105.5t-109.5 -86.5h-114zM408 615h478l-171 461 q-6 18 -19.5 59t-27.5 85t-23 71q-10 -41 -21.5 -81.5t-22.5 -75t-19 -58.5z" />
<glyph unicode="&#xc3;" horiz-adv-x="1295" d="M0 0l572 1468h153l568 -1468h-176l-180 464h-586l-179 -464h-172zM269 1611q6 60 23 107t45 80t66.5 50.5t85.5 17.5q46 0 88 -18.5t80 -42t73.5 -42t68.5 -18.5q48 0 74.5 29.5t40.5 93.5h98q-13 -117 -69 -186.5t-151 -69.5q-44 0 -85 18.5t-79 42t-74.5 42t-71.5 18.5 q-49 0 -75 -29.5t-40 -92.5h-98zM408 615h478l-171 461q-6 18 -19.5 59t-27.5 85t-23 71q-10 -41 -21.5 -81.5t-22.5 -75t-19 -58.5z" />
<glyph unicode="&#xc4;" horiz-adv-x="1295" d="M0 0l572 1468h153l568 -1468h-176l-180 464h-586l-179 -464h-172zM362 1761q0 50 26 73t64 23q39 0 65.5 -23t26.5 -73q0 -49 -26.5 -73.5t-65.5 -24.5q-38 0 -64 24.5t-26 73.5zM408 615h478l-171 461q-6 18 -19.5 59t-27.5 85t-23 71q-10 -41 -21.5 -81.5t-22.5 -75 t-19 -58.5zM746 1761q0 50 26 73t63 23q38 0 65 -23t27 -73q0 -49 -27 -73.5t-65 -24.5q-37 0 -63 24.5t-26 73.5z" />
<glyph unicode="&#xc5;" horiz-adv-x="1295" d="M0 0l572 1468h153l568 -1468h-176l-180 464h-586l-179 -464h-172zM408 615h478l-171 461q-6 18 -19.5 59t-27.5 85t-23 71q-10 -41 -21.5 -81.5t-22.5 -75t-19 -58.5zM422 1588q0 100 61.5 157t159.5 57q95 0 160 -57t65 -155q0 -103 -64 -160.5t-161 -57.5t-159 57 t-62 159zM524 1588q0 -55 31 -87.5t88 -32.5q53 0 86.5 32.5t33.5 87.5t-34.5 87t-85.5 32q-50 0 -84.5 -32t-34.5 -87z" />
<glyph unicode="&#xc6;" horiz-adv-x="1778" d="M-2 0l687 1462h980v-150h-594v-473h555v-148h-555v-541h594v-150h-764v464h-505l-222 -464h-176zM462 615h439v695h-115z" />
<glyph unicode="&#xc7;" horiz-adv-x="1290" d="M125 733q0 166 46.5 303.5t136 237.5t220 154.5t299.5 54.5q111 0 214 -22t186 -63l-68 -144q-70 32 -153.5 55.5t-180.5 23.5q-121 0 -217.5 -41.5t-164 -120t-103.5 -189.5t-36 -250q0 -184 57.5 -319.5t172 -209.5t286.5 -74q98 0 184.5 16.5t168.5 41.5v-148 q-80 -30 -168 -44.5t-209 -14.5q-223 0 -372.5 92.5t-224 261.5t-74.5 399zM562 -376q19 -4 49 -7t60 -3q75 0 115 22t40 74q0 55 -53.5 80t-136.5 34l89 176h111l-54 -112q50 -10 90.5 -31t64.5 -56t24 -87q0 -97 -75 -151.5t-220 -54.5q-31 0 -59 3.5t-45 7.5v105z" />
<glyph unicode="&#xc8;" horiz-adv-x="1138" d="M200 0v1462h814v-150h-644v-473h607v-148h-607v-541h644v-150h-814zM359 1916v20h198q24 -46 59.5 -102.5t75 -110t72.5 -91.5v-24h-113q-36 29 -78.5 69t-84.5 84.5t-76 85t-53 69.5z" />
<glyph unicode="&#xc9;" horiz-adv-x="1138" d="M200 0v1462h814v-150h-644v-473h607v-148h-607v-541h644v-150h-814zM511 1608v24q32 38 70 91.5t74 110t60 102.5h201v-20q-20 -29 -54.5 -69.5t-76.5 -85t-84.5 -84.5t-78.5 -69h-111z" />
<glyph unicode="&#xca;" horiz-adv-x="1138" d="M200 0v1462h814v-150h-644v-473h607v-148h-607v-541h644v-150h-814zM293 1608v22q38 40 86.5 94t93 110t70.5 101h169q25 -45 70 -101.5t95 -110.5t89 -93v-22h-118q-54 35 -111 86t-111 106q-54 -55 -109.5 -105.5t-109.5 -86.5h-114z" />
<glyph unicode="&#xcb;" horiz-adv-x="1138" d="M200 0v1462h814v-150h-644v-473h607v-148h-607v-541h644v-150h-814zM343 1761q0 50 26 73t64 23q39 0 65.5 -23t26.5 -73q0 -49 -26.5 -73.5t-65.5 -24.5q-38 0 -64 24.5t-26 73.5zM727 1761q0 50 26 73t63 23q38 0 65 -23t27 -73q0 -49 -27 -73.5t-65 -24.5 q-37 0 -63 24.5t-26 73.5z" />
<glyph unicode="&#xcc;" horiz-adv-x="572" d="M-12 1916v20h198q24 -46 59.5 -102.5t75 -110t72.5 -91.5v-24h-113q-36 29 -78.5 69t-84.5 84.5t-76 85t-53 69.5zM200 0v1462h170v-1462h-170z" />
<glyph unicode="&#xcd;" horiz-adv-x="572" d="M180 1608v24q32 38 70 91.5t74 110t60 102.5h201v-20q-20 -29 -54.5 -69.5t-76.5 -85t-84.5 -84.5t-78.5 -69h-111zM200 0v1462h170v-1462h-170z" />
<glyph unicode="&#xce;" horiz-adv-x="572" d="M-50 1608v22q38 40 86.5 94t93 110t70.5 101h169q25 -45 70 -101.5t95 -110.5t89 -93v-22h-118q-54 35 -111 86t-111 106q-54 -55 -109.5 -105.5t-109.5 -86.5h-114zM200 0v1462h170v-1462h-170z" />
<glyph unicode="&#xcf;" horiz-adv-x="572" d="M6 1761q0 50 26 73t64 23q39 0 65.5 -23t26.5 -73q0 -49 -26.5 -73.5t-65.5 -24.5q-38 0 -64 24.5t-26 73.5zM200 0v1462h170v-1462h-170zM390 1761q0 50 26 73t63 23q38 0 65 -23t27 -73q0 -49 -27 -73.5t-65 -24.5q-37 0 -63 24.5t-26 73.5z" />
<glyph unicode="&#xd0;" horiz-adv-x="1486" d="M58 649v149h155v664h428q222 0 383.5 -81.5t249 -241t87.5 -394.5q0 -247 -90 -412.5t-261 -249t-415 -83.5h-382v649h-155zM382 146h195q303 0 454 149t151 444q0 197 -66 325t-192.5 190.5t-308.5 62.5h-233v-519h372v-149h-372v-503z" />
<glyph unicode="&#xd1;" horiz-adv-x="1542" d="M200 0v1462h195l794 -1224h7q-2 35 -5 99.5t-5.5 139t-2.5 138.5v847h160v-1462h-196l-797 1228h-8q3 -49 7 -111.5t6.5 -133t2.5 -143.5v-840h-158zM398 1611q6 60 23 107t45 80t66.5 50.5t85.5 17.5q46 0 88 -18.5t80 -42t73.5 -42t68.5 -18.5q48 0 74.5 29.5 t40.5 93.5h98q-13 -117 -69 -186.5t-151 -69.5q-44 0 -85 18.5t-79 42t-74.5 42t-71.5 18.5q-49 0 -75 -29.5t-40 -92.5h-98z" />
<glyph unicode="&#xd2;" horiz-adv-x="1593" d="M125 735q0 224 74 393t224.5 263t377.5 94q217 0 365.5 -93t225 -261.5t76.5 -397.5q0 -169 -43 -307.5t-127.5 -238t-209.5 -153.5t-290 -54q-170 0 -296.5 54t-210 154t-125 239t-41.5 308zM304 733q0 -186 53 -322t162.5 -210t278.5 -74q170 0 278.5 74t160.5 210 t52 322q0 283 -118.5 442.5t-369.5 159.5q-170 0 -280 -73t-163.5 -207.5t-53.5 -321.5zM532 1916v20h198q24 -46 59.5 -102.5t75 -110t72.5 -91.5v-24h-113q-36 29 -78.5 69t-84.5 84.5t-76 85t-53 69.5z" />
<glyph unicode="&#xd3;" horiz-adv-x="1593" d="M125 735q0 224 74 393t224.5 263t377.5 94q217 0 365.5 -93t225 -261.5t76.5 -397.5q0 -169 -43 -307.5t-127.5 -238t-209.5 -153.5t-290 -54q-170 0 -296.5 54t-210 154t-125 239t-41.5 308zM304 733q0 -186 53 -322t162.5 -210t278.5 -74q170 0 278.5 74t160.5 210 t52 322q0 283 -118.5 442.5t-369.5 159.5q-170 0 -280 -73t-163.5 -207.5t-53.5 -321.5zM682 1608v24q32 38 70 91.5t74 110t60 102.5h201v-20q-20 -29 -54.5 -69.5t-76.5 -85t-84.5 -84.5t-78.5 -69h-111z" />
<glyph unicode="&#xd4;" horiz-adv-x="1593" d="M125 735q0 224 74 393t224.5 263t377.5 94q217 0 365.5 -93t225 -261.5t76.5 -397.5q0 -169 -43 -307.5t-127.5 -238t-209.5 -153.5t-290 -54q-170 0 -296.5 54t-210 154t-125 239t-41.5 308zM304 733q0 -186 53 -322t162.5 -210t278.5 -74q170 0 278.5 74t160.5 210 t52 322q0 283 -118.5 442.5t-369.5 159.5q-170 0 -280 -73t-163.5 -207.5t-53.5 -321.5zM465 1608v22q38 40 86.5 94t93 110t70.5 101h169q25 -45 70 -101.5t95 -110.5t89 -93v-22h-118q-54 35 -111 86t-111 106q-54 -55 -109.5 -105.5t-109.5 -86.5h-114z" />
<glyph unicode="&#xd5;" horiz-adv-x="1593" d="M125 735q0 224 74 393t224.5 263t377.5 94q217 0 365.5 -93t225 -261.5t76.5 -397.5q0 -169 -43 -307.5t-127.5 -238t-209.5 -153.5t-290 -54q-170 0 -296.5 54t-210 154t-125 239t-41.5 308zM304 733q0 -186 53 -322t162.5 -210t278.5 -74q170 0 278.5 74t160.5 210 t52 322q0 283 -118.5 442.5t-369.5 159.5q-170 0 -280 -73t-163.5 -207.5t-53.5 -321.5zM420 1611q6 60 23 107t45 80t66.5 50.5t85.5 17.5q46 0 88 -18.5t80 -42t73.5 -42t68.5 -18.5q48 0 74.5 29.5t40.5 93.5h98q-13 -117 -69 -186.5t-151 -69.5q-44 0 -85 18.5t-79 42 t-74.5 42t-71.5 18.5q-49 0 -75 -29.5t-40 -92.5h-98z" />
<glyph unicode="&#xd6;" horiz-adv-x="1593" d="M125 735q0 224 74 393t224.5 263t377.5 94q217 0 365.5 -93t225 -261.5t76.5 -397.5q0 -169 -43 -307.5t-127.5 -238t-209.5 -153.5t-290 -54q-170 0 -296.5 54t-210 154t-125 239t-41.5 308zM304 733q0 -186 53 -322t162.5 -210t278.5 -74q170 0 278.5 74t160.5 210 t52 322q0 283 -118.5 442.5t-369.5 159.5q-170 0 -280 -73t-163.5 -207.5t-53.5 -321.5zM514 1761q0 50 26 73t64 23q39 0 65.5 -23t26.5 -73q0 -49 -26.5 -73.5t-65.5 -24.5q-38 0 -64 24.5t-26 73.5zM898 1761q0 50 26 73t63 23q38 0 65 -23t27 -73q0 -49 -27 -73.5 t-65 -24.5q-37 0 -63 24.5t-26 73.5z" />
<glyph unicode="&#xd7;" d="M133 1075l99 99l352 -356l356 356l94 -97l-354 -354l353 -354l-95 -97l-356 352l-349 -352l-99 97l353 354z" />
<glyph unicode="&#xd8;" horiz-adv-x="1593" d="M125 735q0 224 74 393t224.5 263t377.5 94q107 0 200 -25.5t168 -71.5l98 139l115 -79l-106 -148q93 -98 142.5 -241.5t49.5 -325.5q0 -169 -43 -307.5t-127.5 -238t-209.5 -153.5t-290 -54q-118 0 -214 25.5t-170 76.5l-102 -144l-116 76l110 156q-91 100 -136 243.5 t-45 321.5zM304 733q0 -130 26 -235.5t78 -182.5l670 942q-54 38 -123 58t-154 20q-170 0 -280 -73t-163.5 -207.5t-53.5 -321.5zM505 212q56 -40 129 -62.5t164 -22.5q170 0 278.5 74t160.5 210t52 322q0 134 -28 242.5t-83 184.5z" />
<glyph unicode="&#xd9;" horiz-adv-x="1493" d="M185 520v942h171v-947q0 -186 98.5 -287t294.5 -101q134 0 219.5 48.5t127 136t41.5 202.5v948h169v-946q0 -155 -62.5 -276t-188.5 -190.5t-316 -69.5q-271 0 -412.5 147t-141.5 393zM481 1916v20h198q24 -46 59.5 -102.5t75 -110t72.5 -91.5v-24h-113q-36 29 -78.5 69 t-84.5 84.5t-76 85t-53 69.5z" />
<glyph unicode="&#xda;" horiz-adv-x="1493" d="M185 520v942h171v-947q0 -186 98.5 -287t294.5 -101q134 0 219.5 48.5t127 136t41.5 202.5v948h169v-946q0 -155 -62.5 -276t-188.5 -190.5t-316 -69.5q-271 0 -412.5 147t-141.5 393zM632 1608v24q32 38 70 91.5t74 110t60 102.5h201v-20q-20 -29 -54.5 -69.5t-76.5 -85 t-84.5 -84.5t-78.5 -69h-111z" />
<glyph unicode="&#xdb;" horiz-adv-x="1493" d="M185 520v942h171v-947q0 -186 98.5 -287t294.5 -101q134 0 219.5 48.5t127 136t41.5 202.5v948h169v-946q0 -155 -62.5 -276t-188.5 -190.5t-316 -69.5q-271 0 -412.5 147t-141.5 393zM415 1608v22q38 40 86.5 94t93 110t70.5 101h169q25 -45 70 -101.5t95 -110.5t89 -93 v-22h-118q-54 35 -111 86t-111 106q-54 -55 -109.5 -105.5t-109.5 -86.5h-114z" />
<glyph unicode="&#xdc;" horiz-adv-x="1493" d="M185 520v942h171v-947q0 -186 98.5 -287t294.5 -101q134 0 219.5 48.5t127 136t41.5 202.5v948h169v-946q0 -155 -62.5 -276t-188.5 -190.5t-316 -69.5q-271 0 -412.5 147t-141.5 393zM465 1761q0 50 26 73t64 23q39 0 65.5 -23t26.5 -73q0 -49 -26.5 -73.5t-65.5 -24.5 q-38 0 -64 24.5t-26 73.5zM849 1761q0 50 26 73t63 23q38 0 65 -23t27 -73q0 -49 -27 -73.5t-65 -24.5q-37 0 -63 24.5t-26 73.5z" />
<glyph unicode="&#xdd;" horiz-adv-x="1145" d="M0 1462h186l387 -733l389 733h183l-487 -895v-567h-170v559zM458 1608v24q32 38 70 91.5t74 110t60 102.5h201v-20q-20 -29 -54.5 -69.5t-76.5 -85t-84.5 -84.5t-78.5 -69h-111z" />
<glyph unicode="&#xde;" horiz-adv-x="1232" d="M200 0v1462h170v-256h209q290 0 419 -110.5t129 -313.5q0 -94 -30 -177.5t-97.5 -147t-179 -100t-274.5 -36.5h-176v-321h-170zM370 466h158q144 0 237.5 30.5t139.5 98t46 178.5q0 147 -91.5 217.5t-294.5 70.5h-195v-595z" />
<glyph unicode="&#xdf;" horiz-adv-x="1275" d="M175 0v1191q0 137 58 219.5t159 119.5t230 37t225 -33.5t149.5 -100t53.5 -165.5q0 -71 -29 -122t-71.5 -90t-85 -72t-71.5 -65.5t-29 -72.5q0 -31 14.5 -55t54 -54.5t113.5 -79.5q72 -48 125 -97t81.5 -108.5t28.5 -142.5q0 -112 -47 -185t-131.5 -108.5t-197.5 -35.5 q-97 0 -169 17.5t-126 49.5v151q37 -21 83.5 -40t99.5 -31t107 -12q116 0 167.5 49.5t51.5 133.5q0 53 -18.5 92t-61 76.5t-113.5 83.5q-83 54 -132 98t-70 88.5t-21 100.5q0 65 28 109.5t70 78.5t83.5 66t69.5 71.5t28 95.5q0 88 -72.5 129t-187.5 41q-77 0 -141 -21.5 t-102 -73t-38 -142.5v-1191h-166z" />
<glyph unicode="&#xe0;" horiz-adv-x="1138" d="M94 301q0 164 130 252t396 96l189 8v67q0 142 -61 199t-172 57q-86 0 -164 -25t-148 -59l-51 126q74 38 170 65t202 27q196 0 291 -88t95 -281v-745h-121l-32 162h-8q-46 -60 -96 -100.5t-115.5 -61t-160.5 -20.5q-100 0 -177.5 35t-122 106t-44.5 180zM267 299 q0 -94 57 -139t151 -45q146 0 239 81t93 243v101l-167 -7q-205 -8 -289 -67t-84 -167zM302 1549v20h198q24 -46 59.5 -102.5t75 -110t72.5 -91.5v-24h-113q-36 29 -78.5 69t-84.5 84.5t-76 85t-53 69.5z" />
<glyph unicode="&#xe1;" horiz-adv-x="1138" d="M94 301q0 164 130 252t396 96l189 8v67q0 142 -61 199t-172 57q-86 0 -164 -25t-148 -59l-51 126q74 38 170 65t202 27q196 0 291 -88t95 -281v-745h-121l-32 162h-8q-46 -60 -96 -100.5t-115.5 -61t-160.5 -20.5q-100 0 -177.5 35t-122 106t-44.5 180zM267 299 q0 -94 57 -139t151 -45q146 0 239 81t93 243v101l-167 -7q-205 -8 -289 -67t-84 -167zM454 1241v24q32 38 70 91.5t74 110t60 102.5h201v-20q-20 -29 -54.5 -69.5t-76.5 -85t-84.5 -84.5t-78.5 -69h-111z" />
<glyph unicode="&#xe2;" horiz-adv-x="1138" d="M94 301q0 164 130 252t396 96l189 8v67q0 142 -61 199t-172 57q-86 0 -164 -25t-148 -59l-51 126q74 38 170 65t202 27q196 0 291 -88t95 -281v-745h-121l-32 162h-8q-46 -60 -96 -100.5t-115.5 -61t-160.5 -20.5q-100 0 -177.5 35t-122 106t-44.5 180zM236 1241v22 q38 40 86.5 94t93 110t70.5 101h169q25 -45 70 -101.5t95 -110.5t89 -93v-22h-118q-54 35 -111 86t-111 106q-54 -55 -109.5 -105.5t-109.5 -86.5h-114zM267 299q0 -94 57 -139t151 -45q146 0 239 81t93 243v101l-167 -7q-205 -8 -289 -67t-84 -167z" />
<glyph unicode="&#xe3;" horiz-adv-x="1138" d="M94 301q0 164 130 252t396 96l189 8v67q0 142 -61 199t-172 57q-86 0 -164 -25t-148 -59l-51 126q74 38 170 65t202 27q196 0 291 -88t95 -281v-745h-121l-32 162h-8q-46 -60 -96 -100.5t-115.5 -61t-160.5 -20.5q-100 0 -177.5 35t-122 106t-44.5 180zM191 1244 q6 60 23 107t45 80t66.5 50.5t85.5 17.5q46 0 88 -18.5t80 -42t73.5 -42t68.5 -18.5q48 0 74.5 29.5t40.5 93.5h98q-13 -117 -69 -186.5t-151 -69.5q-44 0 -85 18.5t-79 42t-74.5 42t-71.5 18.5q-49 0 -75 -29.5t-40 -92.5h-98zM267 299q0 -94 57 -139t151 -45q146 0 239 81 t93 243v101l-167 -7q-205 -8 -289 -67t-84 -167z" />
<glyph unicode="&#xe4;" horiz-adv-x="1138" d="M94 301q0 164 130 252t396 96l189 8v67q0 142 -61 199t-172 57q-86 0 -164 -25t-148 -59l-51 126q74 38 170 65t202 27q196 0 291 -88t95 -281v-745h-121l-32 162h-8q-46 -60 -96 -100.5t-115.5 -61t-160.5 -20.5q-100 0 -177.5 35t-122 106t-44.5 180zM267 299 q0 -94 57 -139t151 -45q146 0 239 81t93 243v101l-167 -7q-205 -8 -289 -67t-84 -167zM286 1394q0 50 26 73t64 23q39 0 65.5 -23t26.5 -73q0 -49 -26.5 -73.5t-65.5 -24.5q-38 0 -64 24.5t-26 73.5zM670 1394q0 50 26 73t63 23q38 0 65 -23t27 -73q0 -49 -27 -73.5 t-65 -24.5q-37 0 -63 24.5t-26 73.5z" />
<glyph unicode="&#xe5;" horiz-adv-x="1138" d="M94 301q0 164 130 252t396 96l189 8v67q0 142 -61 199t-172 57q-86 0 -164 -25t-148 -59l-51 126q74 38 170 65t202 27q196 0 291 -88t95 -281v-745h-121l-32 162h-8q-46 -60 -96 -100.5t-115.5 -61t-160.5 -20.5q-100 0 -177.5 35t-122 106t-44.5 180zM267 299 q0 -94 57 -139t151 -45q146 0 239 81t93 243v101l-167 -7q-205 -8 -289 -67t-84 -167zM348 1458q0 100 61.5 157t159.5 57q95 0 160 -57t65 -155q0 -103 -64 -160.5t-161 -57.5t-159 57t-62 159zM450 1458q0 -55 31 -87.5t88 -32.5q53 0 86.5 32.5t33.5 87.5t-34.5 87 t-85.5 32q-50 0 -84.5 -32t-34.5 -87z" />
<glyph unicode="&#xe6;" horiz-adv-x="1766" d="M94 301q0 109 55.5 184.5t167 117t278.5 46.5l186 8v71q0 139 -63 195.5t-171 56.5q-81 0 -159.5 -24.5t-148.5 -59.5l-52 126q74 39 173.5 65.5t199.5 26.5q129 0 211.5 -45t121.5 -146q53 91 140 142t202 51q133 0 228.5 -62t146.5 -173t50 -257v-105h-709 q4 -202 87 -299.5t239 -97.5q100 0 177 19t158 56v-146q-82 -37 -160.5 -54t-179.5 -17q-96 0 -175.5 27.5t-140 81t-100.5 131.5q-45 -73 -100.5 -127t-131.5 -83.5t-183 -29.5q-100 0 -178.5 35t-123.5 106t-45 180zM267 299q0 -94 54.5 -139t145.5 -45q90 0 160 36 t110 108t40 180v101l-157 -7q-193 -8 -273 -67t-80 -167zM955 650h529q1 99 -26 173.5t-83 115.5t-142 41q-121 0 -194 -84.5t-84 -245.5z" />
<glyph unicode="&#xe7;" horiz-adv-x="981" d="M114 542q0 199 66.5 325.5t183.5 187.5t266 61q82 0 158.5 -16.5t125.5 -41.5l-50 -139q-50 20 -115.5 36t-122.5 16q-114 0 -189.5 -49t-113 -144t-37.5 -234q0 -133 36.5 -227t109 -143.5t181.5 -49.5q87 0 157 18.5t127 43.5v-148q-55 -28 -122.5 -43t-160.5 -15 q-148 0 -261 61t-176 186t-63 315zM378 -376q19 -4 49 -7t60 -3q75 0 115 22t40 74q0 55 -53.5 80t-136.5 34l89 176h111l-54 -112q50 -10 90.5 -31t64.5 -56t24 -87q0 -97 -75 -151.5t-220 -54.5q-31 0 -59 3.5t-45 7.5v105z" />
<glyph unicode="&#xe8;" horiz-adv-x="1150" d="M114 540q0 177 59.5 306.5t168 199.5t255.5 70q140 0 240 -62t153 -173.5t53 -260.5v-103h-757q3 -193 96 -294t262 -101q104 0 184 19t166 56v-146q-83 -37 -164.5 -54t-192.5 -17q-158 0 -275.5 64.5t-182.5 189.5t-65 306zM289 650h580q-1 98 -30.5 172.5t-89.5 116 t-154 41.5q-133 0 -212 -87t-94 -243zM316 1549v20h198q24 -46 59.5 -102.5t75 -110t72.5 -91.5v-24h-113q-36 29 -78.5 69t-84.5 84.5t-76 85t-53 69.5z" />
<glyph unicode="&#xe9;" horiz-adv-x="1150" d="M114 540q0 177 59.5 306.5t168 199.5t255.5 70q140 0 240 -62t153 -173.5t53 -260.5v-103h-757q3 -193 96 -294t262 -101q104 0 184 19t166 56v-146q-83 -37 -164.5 -54t-192.5 -17q-158 0 -275.5 64.5t-182.5 189.5t-65 306zM289 650h580q-1 98 -30.5 172.5t-89.5 116 t-154 41.5q-133 0 -212 -87t-94 -243zM467 1241v24q32 38 70 91.5t74 110t60 102.5h201v-20q-20 -29 -54.5 -69.5t-76.5 -85t-84.5 -84.5t-78.5 -69h-111z" />
<glyph unicode="&#xea;" horiz-adv-x="1150" d="M114 540q0 177 59.5 306.5t168 199.5t255.5 70q140 0 240 -62t153 -173.5t53 -260.5v-103h-757q3 -193 96 -294t262 -101q104 0 184 19t166 56v-146q-83 -37 -164.5 -54t-192.5 -17q-158 0 -275.5 64.5t-182.5 189.5t-65 306zM250 1241v22q38 40 86.5 94t93 110t70.5 101 h169q25 -45 70 -101.5t95 -110.5t89 -93v-22h-118q-54 35 -111 86t-111 106q-54 -55 -109.5 -105.5t-109.5 -86.5h-114zM289 650h580q-1 98 -30.5 172.5t-89.5 116t-154 41.5q-133 0 -212 -87t-94 -243z" />
<glyph unicode="&#xeb;" horiz-adv-x="1150" d="M114 540q0 177 59.5 306.5t168 199.5t255.5 70q140 0 240 -62t153 -173.5t53 -260.5v-103h-757q3 -193 96 -294t262 -101q104 0 184 19t166 56v-146q-83 -37 -164.5 -54t-192.5 -17q-158 0 -275.5 64.5t-182.5 189.5t-65 306zM289 650h580q-1 98 -30.5 172.5t-89.5 116 t-154 41.5q-133 0 -212 -87t-94 -243zM300 1394q0 50 26 73t64 23q39 0 65.5 -23t26.5 -73q0 -49 -26.5 -73.5t-65.5 -24.5q-38 0 -64 24.5t-26 73.5zM684 1394q0 50 26 73t63 23q38 0 65 -23t27 -73q0 -49 -27 -73.5t-65 -24.5q-37 0 -63 24.5t-26 73.5z" />
<glyph unicode="&#xec;" horiz-adv-x="517" d="M-8 1549v20h198q24 -46 59.5 -102.5t75 -110t72.5 -91.5v-24h-113q-36 29 -78.5 69t-84.5 84.5t-76 85t-53 69.5zM175 0v1096h166v-1096h-166z" />
<glyph unicode="&#xed;" horiz-adv-x="517" d="M143 1241v24q32 38 70 91.5t74 110t60 102.5h201v-20q-20 -29 -54.5 -69.5t-76.5 -85t-84.5 -84.5t-78.5 -69h-111zM175 0v1096h166v-1096h-166z" />
<glyph unicode="&#xee;" horiz-adv-x="517" d="M-75 1241v22q38 40 86.5 94t93 110t70.5 101h169q25 -45 70 -101.5t95 -110.5t89 -93v-22h-118q-54 35 -111 86t-111 106q-54 -55 -109.5 -105.5t-109.5 -86.5h-114zM175 0v1096h166v-1096h-166z" />
<glyph unicode="&#xef;" horiz-adv-x="517" d="M-25 1394q0 50 26 73t64 23q39 0 65.5 -23t26.5 -73q0 -49 -26.5 -73.5t-65.5 -24.5q-38 0 -64 24.5t-26 73.5zM175 0v1096h166v-1096h-166zM359 1394q0 50 26 73t63 23q38 0 65 -23t27 -73q0 -49 -27 -73.5t-65 -24.5q-37 0 -63 24.5t-26 73.5z" />
<glyph unicode="&#xf0;" horiz-adv-x="1228" d="M113 475q0 153 59 263t166.5 169.5t252.5 59.5q75 0 136 -13.5t108.5 -40.5t79.5 -68l9 3q-32 121 -100.5 224t-157.5 184l-267 -154l-71 104l231 133q-43 30 -91 58.5t-97 53.5l68 114q68 -31 133 -68t123 -80l235 137l72 -102l-204 -119q95 -89 166.5 -205.5 t111 -258.5t39.5 -307q0 -190 -60 -320t-173 -196t-272 -66q-146 0 -258.5 60t-175.5 171.5t-63 263.5zM282 469q0 -104 35.5 -184t109 -124.5t187.5 -44.5q171 0 252 104t81 302q0 62 -19.5 117.5t-59.5 99t-102.5 68.5t-149.5 25q-115 0 -189 -42t-109.5 -123t-35.5 -198z " />
<glyph unicode="&#xf1;" horiz-adv-x="1256" d="M175 0v1096h134l25 -158h9q35 58 89 97.5t121 60t141 20.5q195 0 295 -95.5t100 -306.5v-714h-164v703q0 137 -62.5 205t-191.5 68q-182 0 -256 -103t-74 -299v-574h-166zM254 1244q6 60 23 107t45 80t66.5 50.5t85.5 17.5q46 0 88 -18.5t80 -42t73.5 -42t68.5 -18.5 q48 0 74.5 29.5t40.5 93.5h98q-13 -117 -69 -186.5t-151 -69.5q-44 0 -85 18.5t-79 42t-74.5 42t-71.5 18.5q-49 0 -75 -29.5t-40 -92.5h-98z" />
<glyph unicode="&#xf2;" horiz-adv-x="1232" d="M114 550q0 180 61 306.5t174.5 193t270.5 66.5q150 0 262.5 -67t175 -193.5t62.5 -305.5q0 -135 -35 -241t-101 -179t-159.5 -111.5t-211.5 -38.5q-110 0 -201.5 38.5t-158 111.5t-103 179t-36.5 241zM286 550q0 -132 35 -229t108 -150t188 -53q114 0 187.5 53t108.5 150 t35 229q0 131 -35 226.5t-108 147.5t-189 52q-171 0 -250.5 -113t-79.5 -313zM350 1549v20h198q24 -46 59.5 -102.5t75 -110t72.5 -91.5v-24h-113q-36 29 -78.5 69t-84.5 84.5t-76 85t-53 69.5z" />
<glyph unicode="&#xf3;" horiz-adv-x="1232" d="M114 550q0 180 61 306.5t174.5 193t270.5 66.5q150 0 262.5 -67t175 -193.5t62.5 -305.5q0 -135 -35 -241t-101 -179t-159.5 -111.5t-211.5 -38.5q-110 0 -201.5 38.5t-158 111.5t-103 179t-36.5 241zM286 550q0 -132 35 -229t108 -150t188 -53q114 0 187.5 53t108.5 150 t35 229q0 131 -35 226.5t-108 147.5t-189 52q-171 0 -250.5 -113t-79.5 -313zM502 1241v24q32 38 70 91.5t74 110t60 102.5h201v-20q-20 -29 -54.5 -69.5t-76.5 -85t-84.5 -84.5t-78.5 -69h-111z" />
<glyph unicode="&#xf4;" horiz-adv-x="1232" d="M114 550q0 180 61 306.5t174.5 193t270.5 66.5q150 0 262.5 -67t175 -193.5t62.5 -305.5q0 -135 -35 -241t-101 -179t-159.5 -111.5t-211.5 -38.5q-110 0 -201.5 38.5t-158 111.5t-103 179t-36.5 241zM284 1241v22q38 40 86.5 94t93 110t70.5 101h169q25 -45 70 -101.5 t95 -110.5t89 -93v-22h-118q-54 35 -111 86t-111 106q-54 -55 -109.5 -105.5t-109.5 -86.5h-114zM286 550q0 -132 35 -229t108 -150t188 -53q114 0 187.5 53t108.5 150t35 229q0 131 -35 226.5t-108 147.5t-189 52q-171 0 -250.5 -113t-79.5 -313z" />
<glyph unicode="&#xf5;" horiz-adv-x="1232" d="M114 550q0 180 61 306.5t174.5 193t270.5 66.5q150 0 262.5 -67t175 -193.5t62.5 -305.5q0 -135 -35 -241t-101 -179t-159.5 -111.5t-211.5 -38.5q-110 0 -201.5 38.5t-158 111.5t-103 179t-36.5 241zM240 1244q6 60 23 107t45 80t66.5 50.5t85.5 17.5q46 0 88 -18.5 t80 -42t73.5 -42t68.5 -18.5q48 0 74.5 29.5t40.5 93.5h98q-13 -117 -69 -186.5t-151 -69.5q-44 0 -85 18.5t-79 42t-74.5 42t-71.5 18.5q-49 0 -75 -29.5t-40 -92.5h-98zM286 550q0 -132 35 -229t108 -150t188 -53q114 0 187.5 53t108.5 150t35 229q0 131 -35 226.5 t-108 147.5t-189 52q-171 0 -250.5 -113t-79.5 -313z" />
<glyph unicode="&#xf6;" horiz-adv-x="1232" d="M114 550q0 180 61 306.5t174.5 193t270.5 66.5q150 0 262.5 -67t175 -193.5t62.5 -305.5q0 -135 -35 -241t-101 -179t-159.5 -111.5t-211.5 -38.5q-110 0 -201.5 38.5t-158 111.5t-103 179t-36.5 241zM286 550q0 -132 35 -229t108 -150t188 -53q114 0 187.5 53t108.5 150 t35 229q0 131 -35 226.5t-108 147.5t-189 52q-171 0 -250.5 -113t-79.5 -313zM334 1394q0 50 26 73t64 23q39 0 65.5 -23t26.5 -73q0 -49 -26.5 -73.5t-65.5 -24.5q-38 0 -64 24.5t-26 73.5zM718 1394q0 50 26 73t63 23q38 0 65 -23t27 -73q0 -49 -27 -73.5t-65 -24.5 q-37 0 -63 24.5t-26 73.5z" />
<glyph unicode="&#xf7;" d="M103 654v136h963v-136h-963zM476 371q0 65 31 91t77 26q44 0 75 -26t31 -91q0 -61 -31 -89.5t-75 -28.5q-46 0 -77 28.5t-31 89.5zM476 1073q0 64 31 90t77 26q44 0 75 -26t31 -90q0 -61 -31 -89.5t-75 -28.5q-46 0 -77 28.5t-31 89.5z" />
<glyph unicode="&#xf8;" horiz-adv-x="1232" d="M114 550q0 270 135.5 418t370.5 148q78 0 147 -20t125 -58l85 119l112 -73l-97 -132q60 -73 94 -174t34 -228q0 -180 -61.5 -307.5t-175 -195t-270.5 -67.5q-79 0 -146.5 18.5t-124.5 55.5l-88 -121l-109 75l97 132q-61 75 -94.5 177.5t-33.5 232.5zM286 550 q0 -82 12.5 -150.5t40.5 -120.5l468 640q-37 27 -85 42t-106 15q-171 0 -250.5 -113t-79.5 -313zM428 173q35 -27 83.5 -41t105.5 -14q114 0 187.5 53t108.5 150t35 229q0 79 -13 146t-39 118z" />
<glyph unicode="&#xf9;" horiz-adv-x="1256" d="M163 378v718h168v-706q0 -137 62 -204.5t189 -67.5q122 0 194.5 46t104.5 135.5t32 219.5v577h167v-1096h-136l-24 154h-9q-34 -57 -88 -96t-121.5 -58.5t-143.5 -19.5q-130 0 -218 42t-132.5 130t-44.5 226zM362 1549v20h198q24 -46 59.5 -102.5t75 -110t72.5 -91.5v-24 h-113q-36 29 -78.5 69t-84.5 84.5t-76 85t-53 69.5z" />
<glyph unicode="&#xfa;" horiz-adv-x="1256" d="M163 378v718h168v-706q0 -137 62 -204.5t189 -67.5q122 0 194.5 46t104.5 135.5t32 219.5v577h167v-1096h-136l-24 154h-9q-34 -57 -88 -96t-121.5 -58.5t-143.5 -19.5q-130 0 -218 42t-132.5 130t-44.5 226zM513 1241v24q32 38 70 91.5t74 110t60 102.5h201v-20 q-20 -29 -54.5 -69.5t-76.5 -85t-84.5 -84.5t-78.5 -69h-111z" />
<glyph unicode="&#xfb;" horiz-adv-x="1256" d="M163 378v718h168v-706q0 -137 62 -204.5t189 -67.5q122 0 194.5 46t104.5 135.5t32 219.5v577h167v-1096h-136l-24 154h-9q-34 -57 -88 -96t-121.5 -58.5t-143.5 -19.5q-130 0 -218 42t-132.5 130t-44.5 226zM295 1241v22q38 40 86.5 94t93 110t70.5 101h169 q25 -45 70 -101.5t95 -110.5t89 -93v-22h-118q-54 35 -111 86t-111 106q-54 -55 -109.5 -105.5t-109.5 -86.5h-114z" />
<glyph unicode="&#xfc;" horiz-adv-x="1256" d="M163 378v718h168v-706q0 -137 62 -204.5t189 -67.5q122 0 194.5 46t104.5 135.5t32 219.5v577h167v-1096h-136l-24 154h-9q-34 -57 -88 -96t-121.5 -58.5t-143.5 -19.5q-130 0 -218 42t-132.5 130t-44.5 226zM345 1394q0 50 26 73t64 23q39 0 65.5 -23t26.5 -73 q0 -49 -26.5 -73.5t-65.5 -24.5q-38 0 -64 24.5t-26 73.5zM729 1394q0 50 26 73t63 23q38 0 65 -23t27 -73q0 -49 -27 -73.5t-65 -24.5q-37 0 -63 24.5t-26 73.5z" />
<glyph unicode="&#xfd;" horiz-adv-x="1026" d="M2 1096h178l242 -636q21 -56 39 -107.5t32 -98.5t22 -91h7q14 50 40 131.5t56 166.5l229 635h179l-477 -1257q-38 -101 -88.5 -176t-122.5 -115.5t-174 -40.5q-47 0 -83 5.5t-62 12.5v133q22 -5 53.5 -9t65.5 -4q62 0 107.5 23.5t78.5 68.5t57 107l60 154zM397 1241v24 q32 38 70 91.5t74 110t60 102.5h201v-20q-20 -29 -54.5 -69.5t-76.5 -85t-84.5 -84.5t-78.5 -69h-111z" />
<glyph unicode="&#xfe;" horiz-adv-x="1253" d="M175 -490v2046h167v-461q0 -31 -2 -80t-4 -78h7q32 49 78.5 89.5t112.5 65t156 24.5q205 0 327 -143t122 -422q0 -187 -56 -314t-157 -192t-238 -65q-88 0 -154 23t-113 61.5t-79 85.5h-12q2 -18 5 -52.5t5 -70.5t2 -60v-457h-167zM342 549q0 -208 71 -319.5t250 -111.5 q103 0 170.5 50.5t101 147.5t33.5 237q0 212 -74.5 317.5t-230.5 105.5q-172 0 -245.5 -98.5t-75.5 -292.5v-36z" />
<glyph unicode="&#xff;" horiz-adv-x="1026" d="M2 1096h178l242 -636q21 -56 39 -107.5t32 -98.5t22 -91h7q14 50 40 131.5t56 166.5l229 635h179l-477 -1257q-38 -101 -88.5 -176t-122.5 -115.5t-174 -40.5q-47 0 -83 5.5t-62 12.5v133q22 -5 53.5 -9t65.5 -4q62 0 107.5 23.5t78.5 68.5t57 107l60 154zM229 1394 q0 50 26 73t64 23q39 0 65.5 -23t26.5 -73q0 -49 -26.5 -73.5t-65.5 -24.5q-38 0 -64 24.5t-26 73.5zM613 1394q0 50 26 73t63 23q38 0 65 -23t27 -73q0 -49 -27 -73.5t-65 -24.5q-37 0 -63 24.5t-26 73.5z" />
<glyph unicode="&#x152;" horiz-adv-x="1894" d="M125 735q0 226 73.5 394t221 261t369.5 93q52 0 100.5 -5t93.5 -16h788v-150h-604v-473h565v-148h-565v-541h604v-150h-779q-44 -8 -93 -13t-101 -5q-227 0 -376.5 94t-223 263.5t-73.5 395.5zM302 733q0 -186 53.5 -321.5t164.5 -209t281 -73.5q56 0 107 8.5t91 23.5 v1142q-41 16 -90 23t-105 7q-129 0 -223.5 -41t-156 -119t-92 -189t-30.5 -251z" />
<glyph unicode="&#x153;" horiz-adv-x="1942" d="M112 550q0 179 60 305t172 192.5t266 66.5q136 0 239 -62t161 -178q38 76 94.5 129.5t129.5 82t160 28.5q139 0 237 -61.5t150.5 -172.5t52.5 -260v-103h-738q4 -202 91.5 -298.5t251.5 -96.5q107 0 185.5 19t161.5 56v-146q-83 -37 -162 -54t-187 -17q-146 0 -253 61 t-169 180q-60 -118 -165.5 -179.5t-245.5 -61.5q-145 0 -256 67t-173.5 194.5t-62.5 308.5zM286 550q0 -140 33.5 -236.5t104 -146t182.5 -49.5q111 0 181 49t103.5 143.5t33.5 232.5q0 142 -34 238.5t-104.5 145.5t-182.5 49q-166 0 -241.5 -108.5t-75.5 -317.5zM1100 650 h558q0 99 -28 173t-86.5 114.5t-150.5 40.5q-128 0 -204 -83.5t-89 -244.5z" />
<glyph unicode="&#x178;" horiz-adv-x="1145" d="M0 1462h186l387 -733l389 733h183l-487 -895v-567h-170v559zM290 1761q0 50 26 73t64 23q39 0 65.5 -23t26.5 -73q0 -49 -26.5 -73.5t-65.5 -24.5q-38 0 -64 24.5t-26 73.5zM674 1761q0 50 26 73t63 23q38 0 65 -23t27 -73q0 -49 -27 -73.5t-65 -24.5q-37 0 -63 24.5 t-26 73.5z" />
<glyph unicode="&#x2c6;" horiz-adv-x="837" d="M82 1241v22q38 40 86.5 94t93 110t70.5 101h169q25 -45 70 -101.5t95 -110.5t89 -93v-22h-118q-54 35 -111 86t-111 106q-54 -55 -109.5 -105.5t-109.5 -86.5h-114z" />
<glyph unicode="&#x2dc;" horiz-adv-x="906" d="M82 1244q6 60 23 107t45 80t66.5 50.5t85.5 17.5q46 0 88 -18.5t80 -42t73.5 -42t68.5 -18.5q48 0 74.5 29.5t40.5 93.5h98q-13 -117 -69 -186.5t-151 -69.5q-44 0 -85 18.5t-79 42t-74.5 42t-71.5 18.5q-49 0 -75 -29.5t-40 -92.5h-98z" />
<glyph unicode="&#x2000;" horiz-adv-x="968" />
<glyph unicode="&#x2001;" horiz-adv-x="1936" />
<glyph unicode="&#x2002;" horiz-adv-x="968" />
<glyph unicode="&#x2003;" horiz-adv-x="1936" />
<glyph unicode="&#x2004;" horiz-adv-x="645" />
<glyph unicode="&#x2005;" horiz-adv-x="484" />
<glyph unicode="&#x2006;" horiz-adv-x="322" />
<glyph unicode="&#x2007;" horiz-adv-x="322" />
<glyph unicode="&#x2008;" horiz-adv-x="242" />
<glyph unicode="&#x2009;" horiz-adv-x="387" />
<glyph unicode="&#x200a;" horiz-adv-x="107" />
<glyph unicode="&#x2010;" horiz-adv-x="659" d="M82 476v148h496v-148h-496z" />
<glyph unicode="&#x2011;" horiz-adv-x="659" d="M82 476v148h496v-148h-496z" />
<glyph unicode="&#x2012;" horiz-adv-x="659" d="M82 476v148h496v-148h-496z" />
<glyph unicode="&#x2013;" horiz-adv-x="1024" d="M82 476v148h860v-148h-860z" />
<glyph unicode="&#x2014;" horiz-adv-x="2048" d="M82 476v148h1884v-148h-1884z" />
<glyph unicode="&#x2018;" horiz-adv-x="347" d="M27 983q18 73 46 156.5t61 167t66 155.5h122q-20 -77 -40.5 -166t-37.5 -176.5t-28 -158.5h-177z" />
<glyph unicode="&#x2019;" horiz-adv-x="347" d="M26 961q15 57 30.5 122t29.5 132t25.5 130t19.5 117h175l15 -22q-18 -73 -46 -156.5t-61 -166.5t-66 -156h-122z" />
<glyph unicode="&#x201a;" horiz-adv-x="501" d="M65 -264q15 57 30.5 122t29.5 132t25.5 130t19.5 117h175l15 -22q-18 -73 -46 -156.5t-61 -166.5t-66 -156h-122z" />
<glyph unicode="&#x201c;" horiz-adv-x="714" d="M27 983q18 73 45.5 156t60.5 166.5t67 156.5h121q-21 -77 -41.5 -166.5t-37.5 -176.5t-27 -158h-176zM391 983q18 73 46.5 156t62 166.5t67.5 156.5h122q-21 -77 -41.5 -166.5t-37.5 -176.5t-27 -158h-177z" />
<glyph unicode="&#x201d;" horiz-adv-x="714" d="M26 961q15 57 30.5 122t29 132t25 130t18.5 117h176l14 -22q-17 -74 -45.5 -157.5t-61.5 -166t-66 -155.5h-120zM390 961q21 76 42 165t38 177t27 159h176l15 -22q-18 -74 -46 -157.5t-61 -166t-66 -155.5h-125z" />
<glyph unicode="&#x201e;" horiz-adv-x="837" d="M65 -264q15 57 30.5 122t29 132t25 130t18.5 117h176l14 -22q-17 -74 -45.5 -157.5t-61.5 -166t-66 -155.5h-120zM429 -264q21 76 42 165t38 177t27 159h176l15 -22q-18 -74 -46 -157.5t-61 -166t-66 -155.5h-125z" />
<glyph unicode="&#x2022;" horiz-adv-x="770" d="M171 748q0 87 28 139.5t76.5 76.5t109.5 24t109.5 -24t76.5 -77t28 -139q0 -84 -28 -137.5t-76.5 -78.5t-109.5 -25t-109.5 25t-76.5 78t-28 138z" />
<glyph unicode="&#x2026;" horiz-adv-x="1593" d="M150 104q0 70 34 99.5t83 29.5q51 0 86 -29.5t35 -99.5q0 -69 -35 -100.5t-86 -31.5q-49 0 -83 31.5t-34 100.5zM679 104q0 70 34 99.5t83 29.5q51 0 86 -29.5t35 -99.5q0 -69 -35 -100.5t-86 -31.5q-49 0 -83 31.5t-34 100.5zM1205 104q0 70 34 99.5t83 29.5 q51 0 86 -29.5t35 -99.5q0 -69 -35 -100.5t-86 -31.5q-49 0 -83 31.5t-34 100.5z" />
<glyph unicode="&#x202f;" horiz-adv-x="387" />
<glyph unicode="&#x2039;" horiz-adv-x="615" d="M79 529v27l340 409l119 -68l-287 -353l287 -353l-119 -69z" />
<glyph unicode="&#x203a;" horiz-adv-x="615" d="M77 191l286 354l-286 352l117 68l342 -408v-27l-342 -408z" />
<glyph unicode="&#x205f;" horiz-adv-x="484" />
<glyph unicode="&#x20ac;" d="M52 508v124h152q-1 25 -1.5 43t-0.5 45q0 23 1 46.5t1 37.5h-152v124h165q25 169 97 293.5t189.5 192.5t278.5 68q102 0 189.5 -22.5t169.5 -69.5l-70 -136q-57 31 -133 56t-156 25q-78 0 -143 -25t-115 -76t-85 -127.5t-54 -178.5h504v-124h-517q-1 -20 -1.5 -40.5 t-0.5 -42.5q0 -21 0.5 -44t1.5 -45h462v-124h-447q23 -121 75.5 -206t136.5 -130t199 -45q79 0 158 19t143 47v-149q-62 -27 -138.5 -45.5t-173.5 -18.5q-163 0 -279.5 63t-188 181t-100.5 284h-167z" />
<glyph unicode="&#x2122;" horiz-adv-x="1564" d="M31 1358v104h541v-104h-211v-617h-121v617h-209zM658 741v721h179l198 -564l204 564h174v-721h-122v414q0 23 2 72t3 78h-7l-211 -564h-102l-201 564h-8q2 -35 3.5 -77.5t1.5 -62.5v-424h-114z" />
<glyph unicode="&#x25fc;" horiz-adv-x="1095" d="M0 0v1095h1095v-1095h-1095z" />
</font>
</defs>
</svg>
