<?xml version="1.0" standalone="no"?>
<!DOCTYPE svg PUBLIC "-//W3C//DTD SVG 1.1//EN" "http://www.w3.org/Graphics/SVG/1.1/DTD/svg11.dtd" >
<svg xmlns="http://www.w3.org/2000/svg" xmlns:xlink="http://www.w3.org/1999/xlink" version="1.1">
<metadata></metadata>
<defs>
<font id="jostbold" horiz-adv-x="1177" >
<font-face units-per-em="2048" ascent="1638" descent="-410" />
<missing-glyph horiz-adv-x="614" />
<glyph horiz-adv-x="614" />
<glyph horiz-adv-x="614" />
<glyph unicode="&#xd;" horiz-adv-x="614" />
<glyph unicode=" "  horiz-adv-x="614" />
<glyph unicode="&#x09;" horiz-adv-x="614" />
<glyph unicode="&#xa0;" horiz-adv-x="614" />
<glyph unicode="!" horiz-adv-x="704" d="M160 127q0 78 54 127t138 49t138.5 -49t54.5 -127t-54.5 -127t-138.5 -49t-138 49t-54 127zM160 1434h383l-66 -961h-250z" />
<glyph unicode="&#x22;" horiz-adv-x="1060" d="M125 780l90 654h328l-215 -654h-203zM557 780l90 654h328l-215 -654h-203z" />
<glyph unicode="#" horiz-adv-x="1366" d="M72 352v248h202l60 244h-180v248h239l84 342h268l-83 -342h225l84 342h268l-84 -342h139v-248h-198l-60 -244h176v-248h-237l-84 -352h-268l84 352h-226l-84 -352h-268l84 352h-141zM526 588h250l66 268h-250z" />
<glyph unicode="$" horiz-adv-x="1273" d="M68 342l243 172q76 -129 156 -193.5t192 -64.5q176 0 177 141q0 57 -40 95t-106.5 67t-150.5 62q-53 18 -120 52t-127.5 87t-100 128t-39.5 179q0 92 49 171t137 133t207 75l-8 229h254l-9 -231q160 -27 251 -111t147 -182l-260 -150q-47 90 -109.5 144.5t-142.5 54.5 q-84 0 -123 -38t-39 -93q0 -61 46 -98t121 -64.5t161 -60.5q98 -35 181 -91.5t134 -142.5t51 -211q0 -174 -112.5 -280.5t-307.5 -132.5l8 -217h-251l8 217q-109 18 -203 70.5t-165 126t-109 157.5z" />
<glyph unicode="%" horiz-adv-x="1882" d="M47 1094q0 104 50 190t138.5 137.5t198.5 51.5q109 0 197 -51.5t139 -137.5t51 -190t-51 -189.5t-139 -136.5t-197 -51q-111 0 -199 51t-138 136.5t-50 189.5zM231 0l1100 1434h320l-1100 -1434h-320zM301 1094q0 -55 37 -95.5t96 -40.5q57 0 94 40t37 96q0 57 -36.5 97 t-94.5 40q-59 0 -96 -40t-37 -97zM1061 340q0 104 51 190t138 137.5t198 51.5t198 -51.5t138 -137.5t51 -190t-51 -190.5t-138 -137.5t-198 -51t-198 51t-138 137.5t-51 190.5zM1317 340q0 -55 36 -95t95 -40t96 40t37 95t-37 96t-96 41t-95 -41t-36 -96z" />
<glyph unicode="&#x26;" horiz-adv-x="1540" d="M82 383q0 117 53 194.5t133 129t160 86.5q-66 70 -118 146.5t-52 174.5q0 88 53.5 170t151.5 133t235 51q135 0 227.5 -50t139.5 -130t47 -166t-34 -147.5t-99.5 -114.5t-159.5 -117l250 -270q47 49 91 106.5t85 118.5l207 -159q-43 -63 -95 -129t-114 -127l262 -283 h-354l-107 119q-100 -66 -215.5 -106t-246.5 -40q-137 0 -251 49.5t-181.5 141.5t-67.5 219zM406 412q0 -74 57 -126.5t160 -52.5q63 0 125.5 19.5t121.5 56.5l-282 307q-74 -35 -128 -79.5t-54 -124.5zM557 1094q0 -45 32 -91.5t83 -101.5q160 96 159 193q0 49 -35.5 89 t-99.5 40q-70 0 -104.5 -40t-34.5 -89z" />
<glyph unicode="'" horiz-adv-x="628" d="M125 780l90 654h328l-215 -654h-203z" />
<glyph unicode="(" horiz-adv-x="698" d="M139 594q0 262 62.5 518t185.5 485h283q-109 -229 -167.5 -485t-58.5 -518q0 -260 58.5 -516t167.5 -488h-283q-123 231 -185.5 487.5t-62.5 516.5z" />
<glyph unicode=")" horiz-adv-x="698" d="M29 -410q109 231 167 487.5t58 516.5q0 262 -58.5 518t-166.5 485h282q123 -229 185.5 -485t62.5 -518q0 -260 -62.5 -516.5t-185.5 -487.5h-282z" />
<glyph unicode="*" horiz-adv-x="1212" d="M104 967l89 268l319 -154l-47 353h283l-48 -353l320 154l88 -268l-350 -66l248 -256l-232 -166l-168 314l-168 -314l-231 166l248 256z" />
<glyph unicode="+" horiz-adv-x="1380" d="M133 401v299h397v406h320v-406h397v-299h-397v-405h-320v405h-397z" />
<glyph unicode="," horiz-adv-x="663" d="M66 -305l180 530l311 -65l-258 -512z" />
<glyph unicode="-" horiz-adv-x="454" d="M10 352v269h434v-269h-434z" />
<glyph unicode="." horiz-adv-x="659" d="M137 139q0 78 54.5 133.5t138.5 55.5t138 -55.5t54 -133.5t-54 -133t-138 -55t-138.5 55t-54.5 133z" />
<glyph unicode="/" horiz-adv-x="1245" d="M31 -307l887 1741h296l-874 -1741h-309z" />
<glyph unicode="0" horiz-adv-x="1355" d="M82 717q0 233 75.5 399t210 255t310.5 89q182 0 316 -89t207 -255t73 -399t-73 -399t-207 -255.5t-316 -89.5q-176 0 -310.5 89.5t-210 255.5t-75.5 399zM416 717q0 -203 71.5 -325t190.5 -122t190.5 122t71.5 325t-71.5 324.5t-190.5 121.5t-190.5 -121.5t-71.5 -324.5z " />
<glyph unicode="1" horiz-adv-x="1042" d="M139 1020v301l688 139v-1460h-333v1108z" />
<glyph unicode="2" horiz-adv-x="1343" d="M41 0l639 662q86 92 135 164.5t49 158.5q0 68 -49 124t-147 56q-100 0 -158.5 -72.5t-58.5 -189.5h-340q0 154 64.5 281t190.5 202.5t312 75.5q133 0 234.5 -40t171 -106.5t104.5 -147.5t35 -160q0 -117 -57.5 -214.5t-149.5 -177.5l-334 -299h573v-317h-1214z" />
<glyph unicode="3" horiz-adv-x="1271" d="M98 455h340q0 -106 67.5 -157.5t156.5 -51.5q90 0 148 43t58 135q0 90 -73.5 146.5t-231.5 56.5v223q119 0 191.5 57.5t72.5 134.5q0 61 -39.5 101.5t-121.5 40.5t-135.5 -48.5t-53.5 -121.5h-317q0 127 62.5 228t176 159.5t267.5 58.5q162 0 274.5 -53t170.5 -143 t58 -201t-66.5 -188.5t-178.5 -120.5q133 -45 209.5 -134.5t76.5 -228.5q0 -125 -66.5 -220t-192.5 -149.5t-302 -54.5q-172 0 -296 68.5t-189.5 180.5t-65.5 239z" />
<glyph unicode="4" horiz-adv-x="1429" d="M29 254l831 1180h258v-885h225v-295h-225v-254h-360v254h-729zM487 504h310v428z" />
<glyph unicode="5" horiz-adv-x="1320" d="M86 160l135 284q86 -74 184.5 -114.5t178.5 -40.5q131 0 203.5 51t72.5 156q0 70 -40 114.5t-103.5 65t-132.5 20.5q-84 0 -189.5 -17t-214.5 -73l201 828h827v-299h-573l-82 -256q57 27 119.5 38t130.5 11q113 0 213 -55.5t161.5 -161t61.5 -252.5q0 -127 -51 -219.5 t-135 -150.5t-186.5 -87t-204.5 -29q-199 0 -337.5 55.5t-238.5 131.5z" />
<glyph unicode="6" horiz-adv-x="1370" d="M102 504q0 115 48.5 213t117.5 184l414 526h438l-426 -477q29 10 60.5 14.5t70.5 4.5q106 0 209 -56.5t168.5 -161t65.5 -247.5q0 -176 -79 -296t-211 -180.5t-292 -60.5q-162 0 -294 60.5t-211 180.5t-79 296zM444 504q0 -111 69 -176.5t173 -65.5q102 0 171 65.5 t69 176.5q0 109 -69 176.5t-171 67.5q-104 0 -173 -67.5t-69 -176.5z" />
<glyph unicode="7" horiz-adv-x="1234" d="M61 1110v324h1170l-692 -1434h-375l559 1110h-662z" />
<glyph unicode="8" horiz-adv-x="1284" d="M106 389q0 143 79 234.5t190 136.5q-94 45 -155.5 127t-61.5 200q0 121 66.5 206t176 129t240.5 44q133 0 242.5 -44t176 -129t66.5 -206q0 -119 -61 -200.5t-156 -126.5q111 -45 190 -136.5t79 -234.5q0 -131 -76 -225t-198 -145.5t-263 -51.5q-139 0 -262 51.5 t-198 145.5t-75 225zM451 442q0 -94 56 -144t134 -50q80 0 136.5 50t56.5 144q0 78 -56.5 132.5t-136.5 54.5q-78 0 -134 -54.5t-56 -132.5zM483 1055q0 -74 45 -119t113 -45q70 0 115 45t45 119q0 72 -44 118t-116 46q-70 0 -114 -46t-44 -118z" />
<glyph unicode="9" horiz-adv-x="1370" d="M102 930q0 176 79 296t211 180t294 60q160 0 292 -60t211 -180t79 -296q0 -115 -48.5 -213.5t-117.5 -184.5l-414 -526h-438l426 477q-27 -10 -59.5 -14t-71.5 -4q-106 0 -207.5 56.5t-168.5 160.5t-67 248zM444 930q0 -109 69 -176.5t173 -67.5q102 0 171 67.5t69 176.5 q0 111 -69 176t-171 65q-104 0 -173 -65.5t-69 -175.5z" />
<glyph unicode=":" horiz-adv-x="659" d="M137 139q0 78 54.5 133.5t138.5 55.5t138 -55.5t54 -133.5t-54 -133t-138 -55t-138.5 55t-54.5 133zM137 905q0 78 54.5 133.5t138.5 55.5t138 -55.5t54 -133.5t-54 -134t-138 -56t-138.5 56t-54.5 134z" />
<glyph unicode=";" horiz-adv-x="804" d="M111 -305l180 530l309 -65l-256 -512zM244 893q0 76 54 132t138 56t138.5 -56t54.5 -132q0 -78 -54.5 -134.5t-138.5 -56.5t-138 56.5t-54 134.5z" />
<glyph unicode="&#x3c;" horiz-adv-x="1310" d="M133 436v207l1045 438v-303l-605 -229l605 -246v-305z" />
<glyph unicode="=" horiz-adv-x="1282" d="M115 172v268h1054v-268h-1054zM115 594v268h1054v-268h-1054z" />
<glyph unicode="&#x3e;" horiz-adv-x="1310" d="M133 -2v305l604 229l-604 246v303l1045 -438v-207z" />
<glyph unicode="?" horiz-adv-x="1284" d="M98 1206q109 127 239 197t314 70q133 0 253 -53.5t195 -154t75 -241.5q0 -125 -65 -217t-165 -148.5t-209 -74.5l-10 -172h-250l-41 364h66q123 0 202.5 40t118.5 97.5t39 110.5q0 90 -60.5 139t-168.5 49q-94 0 -180 -46t-144 -132zM408 121q0 68 54 119t140 51 q84 0 138.5 -51.5t54.5 -118.5q0 -70 -54.5 -120t-138.5 -50q-86 0 -140 50t-54 120z" />
<glyph unicode="@" horiz-adv-x="1576" d="M39 655q0 172 60.5 322.5t169 263.5t257 175.5t324.5 62.5q164 0 292 -57.5t216 -156t134 -219t46 -247.5q0 -182 -58.5 -293t-148.5 -161t-186 -50q-84 0 -147.5 48t-79.5 124q-43 -74 -108 -113t-138 -39q-123 0 -197 86t-74 240q0 141 50.5 240.5t127 151.5t156.5 52 q61 0 110.5 -30.5t82.5 -81.5l10 92h238l-54 -434q-4 -29 -4 -56q0 -37 11.5 -59t41.5 -22q25 0 58 25.5t57.5 91t24.5 188.5q0 129 -51.5 237.5t-153.5 174t-256 65.5q-180 0 -311 -80t-202 -220t-71 -321q0 -231 127 -367t379 -136q109 0 199 22.5t180 67.5l76 -185 q-92 -51 -208 -80.5t-271 -29.5q-231 0 -389 92t-239 252.5t-81 363.5zM647 655q0 -139 92 -139q53 0 102.5 61.5t49.5 167.5q0 72 -26.5 106t-69.5 34q-61 0 -104.5 -68t-43.5 -162z" />
<glyph unicode="A" horiz-adv-x="1505" d="M-2 0l754 1524l755 -1524h-393l-135 276h-457l-133 -276h-391zM592 541h319l-159 366z" />
<glyph unicode="B" horiz-adv-x="1359" d="M152 0v1434h526q147 0 263 -40t181.5 -122t65.5 -203q0 -104 -56.5 -180t-152.5 -119q125 -43 208 -132.5t83 -234.5q0 -213 -151.5 -308t-405.5 -95h-561zM498 268h176q100 0 168.5 40t68.5 145q0 92 -68.5 131t-168.5 39h-176v-355zM498 864h143q88 0 138 40t50 114 t-50 110.5t-138 36.5h-143v-301z" />
<glyph unicode="C" horiz-adv-x="1435" d="M70 717q0 223 100 392t277.5 263t408.5 94q156 0 258.5 -38.5t190.5 -106.5v-373q-72 76 -174.5 132.5t-253.5 56.5q-117 0 -214.5 -50.5t-157 -144.5t-59.5 -225t59.5 -225.5t157 -144.5t214.5 -50q152 0 254 56.5t174 131.5v-372q-88 -68 -190.5 -107t-258.5 -39 q-231 0 -408.5 94.5t-277.5 263.5t-100 392z" />
<glyph unicode="D" horiz-adv-x="1501" d="M152 0v1434h512q236 0 407.5 -87t266 -248t94.5 -382t-94.5 -382t-266 -248t-407.5 -87h-512zM508 307h143q111 0 207 38t155.5 128t59.5 244t-59.5 244t-155.5 127.5t-207 37.5h-143v-819z" />
<glyph unicode="E" horiz-adv-x="1234" d="M152 0v1434h952v-285h-621v-256h580v-279h-580v-329h621v-285h-952z" />
<glyph unicode="F" horiz-adv-x="1132" d="M152 0v1434h870v-297h-539v-283h518v-279h-518v-575h-331z" />
<glyph unicode="G" horiz-adv-x="1667" d="M70 717q0 170 59 308t168 236.5t253 151.5t316 53q227 0 386 -95t261 -245l-307 -159q-49 86 -131 142t-209 56q-119 0 -218 -53t-157.5 -153.5t-58.5 -241.5t56.5 -244.5t153.5 -160t224 -56.5q158 0 249 75t128 187h-381v266h725q1 -26 1 -52q0 -141 -37 -268 q-44 -151 -138 -265.5t-235.5 -179t-323.5 -64.5q-229 0 -405.5 96t-277.5 267t-101 399z" />
<glyph unicode="H" horiz-adv-x="1609" d="M152 0v1434h346v-523h616v523h346v-1434h-346v600h-616v-600h-346z" />
<glyph unicode="I" horiz-adv-x="655" d="M152 0v1434h352v-1434h-352z" />
<glyph unicode="J" horiz-adv-x="675" d="M-336 -373l189 242q31 -27 75.5 -46.5t89.5 -19.5t89.5 36t44.5 128v1467h372v-1545q0 -137 -64.5 -220t-172 -120.5t-234.5 -37.5q-121 0 -224 37.5t-165 78.5z" />
<glyph unicode="K" horiz-adv-x="1431" d="M152 0v1434h358v-566l487 566h406l-582 -672l613 -762h-420l-504 627v-627h-358z" />
<glyph unicode="L" horiz-adv-x="1081" d="M152 0v1434h346v-1137h575v-297h-921z" />
<glyph unicode="M" horiz-adv-x="1824" d="M70 0l231 1505l610 -874l613 874l231 -1505h-364l-86 731l-394 -598l-391 598l-86 -731h-364z" />
<glyph unicode="N" horiz-adv-x="1626" d="M152 0v1505l989 -878v807h334v-1506l-992 879v-807h-331z" />
<glyph unicode="O" horiz-adv-x="1681" d="M70 717q0 166 58 303t162.5 237.5t246 154.5t305.5 54q166 0 306 -54t244.5 -154.5t162 -237.5t57.5 -303t-56.5 -305.5t-160 -241.5t-244.5 -158.5t-309 -56.5q-170 0 -311.5 56.5t-245 158.5t-159.5 241.5t-56 305.5zM436 717q0 -127 50.5 -224.5t141.5 -152.5t214 -55 q121 0 212 55t141 152.5t50 224.5t-49 224t-140 152.5t-214 55.5t-214 -55.5t-141.5 -152.5t-50.5 -224z" />
<glyph unicode="P" horiz-adv-x="1275" d="M152 0v1434h497q272 0 414.5 -126t142.5 -343t-142 -342t-415 -125h-151v-498h-346zM498 782h151q104 0 163.5 47.5t59.5 135.5q0 90 -59.5 137t-163.5 47h-151v-367z" />
<glyph unicode="Q" horiz-adv-x="1767" d="M70 717q0 166 59 303t165.5 237.5t248 154.5t305.5 54q166 0 305 -54t242.5 -154.5t160 -237.5t56.5 -303q0 -133 -36 -249t-101 -210l305 -283h-371l-115 109q-92 -63 -204.5 -96t-241.5 -33q-170 0 -311.5 56.5t-247 158.5t-162.5 241.5t-57 305.5zM436 717 q0 -139 58.5 -241.5t158 -159t219.5 -56.5q106 0 193 39l-334 315h359l151 -139q43 90 43 203q0 127 -52 234.5t-149.5 172t-234.5 64.5q-123 0 -215 -55.5t-144.5 -152.5t-52.5 -224z" />
<glyph unicode="R" horiz-adv-x="1325" d="M152 0v1434h522q274 0 415.5 -130t141.5 -339q0 -147 -73 -258t-214 -166l373 -541h-406l-307 498h-106v-498h-346zM498 766h151q104 0 163.5 49t59.5 137q0 90 -59.5 139.5t-163.5 49.5h-151v-375z" />
<glyph unicode="S" horiz-adv-x="1280" d="M68 330l241 174q66 -119 154 -186.5t199 -67.5q76 0 125 38t49 103q0 53 -29 88t-92.5 65.5t-167.5 69.5q-51 18 -116.5 52t-126 85.5t-99.5 127t-39 180.5q0 127 66.5 218t180 140t253.5 49q143 0 248.5 -47t175 -118.5t106.5 -145.5l-264 -147q-47 76 -112.5 123 t-149.5 47q-74 0 -113 -32t-39 -79q0 -76 84 -122t234 -97q100 -37 183 -94.5t132 -142.5t49 -203q0 -145 -75.5 -247t-196.5 -154t-256 -52q-141 0 -260 50t-208 135t-136 190z" />
<glyph unicode="T" horiz-adv-x="1148" d="M8 1124v310h1135v-310h-395v-1124h-347v1124h-393z" />
<glyph unicode="U" horiz-adv-x="1435" d="M141 471v963h346v-938q0 -109 57.5 -176.5t172.5 -67.5q117 0 174 67.5t57 176.5v938h346v-963q0 -180 -76.5 -298t-207.5 -175t-293 -57q-160 0 -291 57t-208 175t-77 298z" />
<glyph unicode="V" horiz-adv-x="1505" d="M-2 1434h403l351 -856l350 856h405l-755 -1524z" />
<glyph unicode="W" horiz-adv-x="2181" d="M8 1434h410l282 -818l390 889l393 -889l278 818h412l-621 -1518l-462 864l-461 -864z" />
<glyph unicode="X" horiz-adv-x="1404" d="M8 0l492 735l-441 699h428l222 -416l229 416h428l-451 -699l482 -735h-428l-262 477l-271 -477h-428z" />
<glyph unicode="Y" horiz-adv-x="1351" d="M-2 1434h397l281 -539l280 539h398l-502 -850v-584h-352v582z" />
<glyph unicode="Z" horiz-adv-x="1269" d="M18 0l668 1124h-569v310h1124l-678 -1137h604v-297h-1149z" />
<glyph unicode="[" horiz-adv-x="741" d="M186 -451v2048h514v-268h-206v-1511h206v-269h-514z" />
<glyph unicode="\" horiz-adv-x="1118" d="M31 1434h301l755 -1434h-301z" />
<glyph unicode="]" horiz-adv-x="741" d="M41 -182h207v1511h-207v268h514v-2048h-514v269z" />
<glyph unicode="^" horiz-adv-x="1044" d="M82 918l348 536h184l349 -536h-279l-162 272l-162 -272h-278z" />
<glyph unicode="_" horiz-adv-x="1087" d="M0 -117h1087v-198h-1087v198z" />
<glyph unicode="`" horiz-adv-x="768" d="M109 1339l237 107l307 -328l-176 -86z" />
<glyph unicode="a" horiz-adv-x="1103" d="M49 279q0 135 96.5 213.5t272.5 78.5q88 0 158.5 -17t119.5 -44v84q0 139 -178 139q-63 0 -123.5 -14t-107 -34t-64.5 -32l-104 207q80 39 192.5 74t245.5 35q125 0 223.5 -36t155.5 -104.5t57 -164.5v-664h-297v131q-43 -74 -128 -112.5t-183 -38.5q-92 0 -168 33.5 t-122 100t-46 165.5zM360 295q0 -55 39 -85t97 -30q76 0 135 46t65 139q-82 36 -177 36h-5q-82 0 -118 -27.5t-36 -78.5z" />
<glyph unicode="b" horiz-adv-x="1263" d="M119 0v1597h309v-804q115 170 322 170q115 0 217 -56.5t166.5 -166t64.5 -269.5t-64.5 -269.5t-167 -165.5t-216.5 -56q-207 0 -322 170v-150h-309zM428 471q0 -76 33 -130t83 -83t103 -29q92 0 158.5 65.5t66.5 176.5t-66.5 176.5t-158.5 65.5q-53 0 -103 -29t-83 -83 t-33 -130z" />
<glyph unicode="c" horiz-adv-x="1011" d="M61 471q0 150 71 260.5t194 171t280 60.5q106 0 180 -24t123 -58v-303q-43 68 -122.5 103.5t-155.5 35.5q-104 0 -177 -71t-73 -175q0 -115 72.5 -180.5t177.5 -65.5q86 0 160.5 37t117.5 105v-301q-49 -41 -122.5 -63.5t-180.5 -22.5q-158 0 -280.5 60t-193.5 171 t-71 260z" />
<glyph unicode="d" horiz-adv-x="1263" d="M66 471q0 160 63.5 269.5t165.5 166t219 56.5q207 0 322 -170v804h309v-1597h-309v150q-115 -170 -322 -170q-117 0 -219 56t-165.5 165.5t-63.5 269.5zM391 471q0 -111 66.5 -176.5t158.5 -65.5q53 0 103.5 29t83.5 83t33 130t-33 130t-83 83t-104 29 q-92 0 -158.5 -65.5t-66.5 -176.5z" />
<glyph unicode="e" horiz-adv-x="1173" d="M66 471q0 227 141 359.5t389 132.5q244 0 376 -125t132 -353q0 -23 -1 -44t-3 -35h-719q14 -98 69.5 -150.5t145.5 -52.5q164 0 233 123l277 -68q-150 -278 -506 -278q-164 0 -284.5 60t-185 171t-64.5 260zM387 578h385q-6 82 -55 130t-127 48q-168 0 -203 -178z" />
<glyph unicode="f" horiz-adv-x="704" d="M37 686v256h119v348q0 158 89 249t265 91q104 0 165.5 -35.5t94.5 -66.5l-125 -228q-37 51 -94 52q-47 0 -72.5 -33t-25.5 -107v-270h227v-256h-227v-686h-297v686h-119z" />
<glyph unicode="g" horiz-adv-x="1249" d="M66 483q0 160 63.5 266.5t165.5 160t219 53.5q209 0 322 -162v141h297v-922q0 -182 -71 -294.5t-188.5 -163.5t-261.5 -51q-176 0 -288.5 53t-170 148t-67.5 220h299q8 -88 66.5 -131t148.5 -43q98 0 167 65.5t69 196.5v148q-113 -164 -322 -164q-117 0 -219 54.5 t-165.5 161t-63.5 263.5zM391 483q0 -111 66.5 -170t158.5 -59q53 0 103.5 25.5t83.5 77t33 126.5q0 78 -33 129.5t-83 76t-104 24.5q-92 0 -158.5 -59.5t-66.5 -170.5z" />
<glyph unicode="h" horiz-adv-x="1165" d="M121 0v1597h311v-784q39 74 110.5 119t176.5 45q174 0 248.5 -92t74.5 -267v-618h-309v573q0 84 -30.5 129.5t-106.5 45.5t-120 -46.5t-44 -128.5v-573h-311z" />
<glyph unicode="i" horiz-adv-x="565" d="M102 1296q0 74 53.5 120t127.5 46q76 0 128 -46t52 -120t-52.5 -121t-127.5 -47q-74 0 -127.5 47t-53.5 121zM133 0v942h299v-942h-299z" />
<glyph unicode="j" horiz-adv-x="557" d="M-193 -385l125 227q18 -25 42 -39t53 -14q98 0 98 141v1012h299v-1089q0 -154 -89 -248t-267 -94q-102 0 -164 34.5t-97 69.5zM92 1296q0 74 52.5 120t127.5 46q74 0 126.5 -46t52.5 -120t-52.5 -121t-126.5 -47q-76 0 -128 47t-52 121z" />
<glyph unicode="k" horiz-adv-x="1181" d="M119 0v1597h297v-987l342 332h370l-403 -389l444 -553h-364l-389 479v-479h-297z" />
<glyph unicode="l" horiz-adv-x="552" d="M121 0v1597h311v-1597h-311z" />
<glyph unicode="m" horiz-adv-x="1679" d="M121 0v942h299v-139q39 76 107.5 119t164.5 43q111 0 176.5 -40t94.5 -116q51 74 126.5 115t172.5 41q164 0 230.5 -94.5t66.5 -264.5v-606h-312v573q0 174 -119 175q-63 0 -101 -44.5t-38 -130.5v-573h-311v573q0 174 -119 175q-63 0 -101 -44.5t-38 -130.5v-573h-299z " />
<glyph unicode="n" d="M121 0v942h311v-141q41 78 111.5 121t175.5 43q176 0 256 -94.5t80 -264.5v-606h-322v573q0 84 -31.5 129.5t-105.5 45.5q-76 0 -120 -45.5t-44 -129.5v-573h-311z" />
<glyph unicode="o" horiz-adv-x="1208" d="M66 471q0 150 70.5 260.5t191.5 172t276 61.5q154 0 275.5 -61.5t192.5 -172t71 -260.5t-71 -260.5t-192.5 -170.5t-275.5 -60q-156 0 -276.5 60t-191 170.5t-70.5 260.5zM383 471q0 -109 65.5 -172t155.5 -63t154.5 63t64.5 172t-64.5 173.5t-154.5 64.5t-155.5 -64.5 t-65.5 -173.5z" />
<glyph unicode="p" horiz-adv-x="1263" d="M119 -451v1393h309v-151q51 88 132 136t190 48q115 0 217 -57.5t166.5 -169t64.5 -277.5t-64.5 -277.5t-167 -169t-216.5 -57.5q-109 0 -190 48t-132 137v-603h-309zM428 471q0 -76 33 -127t83 -76.5t103 -25.5q92 0 158.5 59t66.5 170t-66.5 170t-158.5 59 q-53 0 -103 -25.5t-83 -76.5t-33 -127z" />
<glyph unicode="q" horiz-adv-x="1263" d="M66 471q0 166 63.5 277.5t165.5 169t219 57.5q106 0 188 -48t134 -136v151h309v-1393h-309v603q-51 -88 -133 -136.5t-189 -48.5q-117 0 -219 57.5t-165.5 169t-63.5 277.5zM391 471q0 -111 66.5 -170t158.5 -59q53 0 103.5 25.5t83.5 76.5t33 127t-33 127t-83 76.5 t-104 25.5q-92 0 -158.5 -59t-66.5 -170z" />
<glyph unicode="r" horiz-adv-x="841" d="M121 0v942h305v-119q43 66 106.5 104t129.5 38q51 0 98 -21.5t71 -56.5l-133 -264q-25 25 -53.5 39t-66.5 14q-70 0 -111 -54.5t-41 -156.5v-465h-305z" />
<glyph unicode="s" horiz-adv-x="933" d="M43 137l129 205q106 -90 184 -122t127 -32q45 0 68.5 20.5t23.5 53.5q0 45 -44 72.5t-156 64.5q-68 23 -128.5 58t-99 92t-38.5 147q0 129 99 198t253 69q121 0 221 -40t182 -100l-110 -200q-57 55 -134 91t-141 36q-86 0 -86 -60q0 -47 56.5 -70.5t160.5 -62.5 q74 -27 136.5 -61.5t100.5 -88t38 -141.5q0 -152 -93.5 -228.5t-261.5 -76.5q-156 0 -274.5 51t-212.5 125z" />
<glyph unicode="t" horiz-adv-x="651" d="M10 686v256h166v328h297v-328h168v-256h-168v-686h-297v686h-166z" />
<glyph unicode="u" d="M121 336v606h323v-573q0 -82 31 -128t107 -46q74 0 118.5 45t44.5 129v573h310v-942h-310v141q-43 -78 -112.5 -121t-173.5 -43q-176 0 -257 95.5t-81 263.5z" />
<glyph unicode="v" horiz-adv-x="1079" d="M-6 942h330l217 -522l215 522h329l-544 -1053z" />
<glyph unicode="w" horiz-adv-x="1558" d="M-14 942h323l197 -483l270 555l277 -555l196 483h324l-486 -1001l-311 561l-305 -561z" />
<glyph unicode="x" horiz-adv-x="1089" d="M0 0l387 483l-367 459h357l172 -248l176 248h344l-360 -459l381 -483h-345l-196 274l-193 -274h-356z" />
<glyph unicode="y" horiz-adv-x="1067" d="M-18 942h340l223 -557l223 557h317l-614 -1393h-311l229 527z" />
<glyph unicode="z" horiz-adv-x="1069" d="M31 0l495 662h-409v280h921l-471 -661h406v-281h-942z" />
<glyph unicode="{" horiz-adv-x="815" d="M78 481v226q63 14 93 61t30 164v379q0 102 47 164.5t120.5 92t157.5 29.5h187v-245h-72q-45 0 -71.5 -31t-26.5 -72v-245q0 -76 -8.5 -159t-44 -151.5t-117.5 -99.5q82 -31 117.5 -99.5t44 -151.5t8.5 -159v-245q0 -41 26.5 -72t71.5 -31h72v-246h-187q-84 0 -157.5 30 t-120.5 93.5t-47 163.5v379q0 117 -30 164t-93 61z" />
<glyph unicode="|" horiz-adv-x="720" d="M205 -440v2048h311v-2048h-311z" />
<glyph unicode="}" horiz-adv-x="815" d="M109 -164h71q47 0 73 31t26 72v245q0 76 8 159t44 151.5t120 99.5q-84 31 -120 99.5t-44 151.5t-8 159v245q0 41 -26 72t-73 31h-71v245h186q84 0 158.5 -29.5t121 -92t46.5 -164.5v-379q0 -117 29.5 -164t94.5 -61v-226q-66 -14 -95 -61t-29 -164v-379 q0 -100 -46.5 -163.5t-121 -93.5t-158.5 -30h-186v246z" />
<glyph unicode="~" d="M70 395q0 51 13 99.5t50 93.5q43 53 102.5 87t161.5 34q70 0 126.5 -26t129.5 -75q47 -33 83 -51t63 -18q35 0 51 23.5t16 55.5q0 33 -14 68l248 -10q4 -12 6 -26.5t2 -31.5q0 -49 -11.5 -100t-47.5 -96q-41 -51 -93.5 -80t-136.5 -29q-61 0 -119.5 27t-134.5 76 q-49 33 -90 51t-80 18q-49 0 -68.5 -29.5t-19.5 -62.5q0 -20 4 -32.5t8 -24.5l-243 10q-6 20 -6 49z" />
<glyph unicode="&#xa1;" horiz-adv-x="704" d="M160 -469l67 958h250l66 -958h-383zM160 838q0 78 54 127t138 49t138.5 -49t54.5 -127t-54.5 -127t-138.5 -49t-138 49t-54 127z" />
<glyph unicode="&#xa2;" horiz-adv-x="1187" d="M102 471q0 182 104.5 306t272.5 165l-14 242h264l-12 -226q147 -12 231 -77v-308q-41 59 -110.5 101.5t-165.5 42.5q-66 0 -124.5 -32t-93 -86t-34.5 -128q0 -119 75.5 -182.5t176.5 -63.5q96 0 165.5 42t110.5 102v-308q-82 -66 -231 -77l12 -213h-264l14 229 q-168 41 -272.5 166t-104.5 305z" />
<glyph unicode="&#xa3;" horiz-adv-x="1251" d="M106 0q141 147 208 278.5t73 274.5h-250v205h185q-31 41 -66 84t-58.5 96t-23.5 129q0 123 67.5 209t181.5 132t247 46q156 0 265 -61.5t168.5 -153.5t65.5 -180l-280 -103q-4 55 -23.5 106.5t-63.5 84.5t-120 33q-72 0 -128 -39t-56 -127q0 -53 20.5 -95t50 -80 t56.5 -81h288v-205h-227q0 -74 -34 -142.5t-87 -125.5h539v-285h-998z" />
<glyph unicode="&#xa4;" horiz-adv-x="1181" d="M47 199l137 135q-39 59 -59.5 130t-20.5 150q0 80 20.5 151t59.5 130l-137 135l129 127l135 -135q57 41 129 62.5t152 21.5q78 0 149.5 -21.5t130.5 -62.5l136 135l125 -127l-136 -135q39 -59 60.5 -130t21.5 -151t-21.5 -150.5t-60.5 -129.5l136 -135l-125 -127 l-136 135q-59 -41 -130.5 -62.5t-149.5 -21.5q-80 0 -151.5 21.5t-129.5 62.5l-135 -135zM385 614q0 -94 58.5 -152.5t148.5 -58.5t148.5 58.5t58.5 152.5t-58.5 152.5t-148.5 58.5t-148.5 -58.5t-58.5 -152.5z" />
<glyph unicode="&#xa5;" horiz-adv-x="1370" d="M6 1434h397l281 -539l281 539h395l-404 -686h314v-205h-408v-103h408v-204h-408v-236h-354v236h-416v204h416v103h-416v205h318z" />
<glyph unicode="&#xa6;" horiz-adv-x="720" d="M205 10v543h311v-543h-311zM205 881v542h311v-542h-311z" />
<glyph unicode="&#xa7;" horiz-adv-x="1179" d="M113 156l149 198q76 -76 162 -110.5t145 -34.5q113 0 113 72q0 47 -58.5 70.5t-142.5 45.5q-78 23 -148.5 60t-115.5 93t-45 134q0 88 53.5 150.5t136.5 99.5q-63 37 -111 96.5t-48 153.5q0 100 56 165.5t144.5 99.5t178.5 34q84 0 160.5 -21.5t136 -57.5t88.5 -77 l-148 -203q-41 47 -105.5 75t-111.5 28q-104 0 -104 -62q0 -39 61.5 -58.5t145.5 -43.5q117 -33 197.5 -104.5t80.5 -184.5q0 -88 -45 -149.5t-117 -98.5q72 -41 121 -103.5t49 -156.5q0 -109 -59.5 -177.5t-152.5 -101t-195 -32.5q-168 0 -285 57.5t-186 143.5zM465 756 q0 -47 26.5 -76t69.5 -47.5t88 -32.5q25 18 39 45t14 60q0 66 -53 100.5t-119 58.5q-31 -18 -48 -44.5t-17 -63.5z" />
<glyph unicode="&#xa8;" horiz-adv-x="1046" d="M94 1294q0 74 52.5 121t127.5 47q74 0 127.5 -47t53.5 -121t-53.5 -121t-127.5 -47q-76 0 -128 47t-52 121zM592 1294q0 74 53 121t127 47q76 0 128 -47t52 -121t-52 -121t-128 -47q-74 0 -127 47t-53 121z" />
<glyph unicode="&#xa9;" horiz-adv-x="1638" d="M82 717q0 160 56.5 295t155.5 234.5t234.5 153.5t290.5 54q158 0 292 -54t233.5 -153.5t155.5 -234.5t56 -295t-56 -295t-155.5 -234.5t-233.5 -153.5t-292 -54q-156 0 -291 54t-234 153.5t-155.5 234.5t-56.5 295zM195 717q0 -182 81.5 -325.5t224 -226.5t318.5 -83 q178 0 319.5 83t223.5 226.5t82 325.5t-82 325.5t-223.5 226.5t-319.5 83q-176 0 -318.5 -83t-224 -226.5t-81.5 -325.5zM365 717q0 133 60 234.5t166.5 158.5t246.5 57q92 0 154.5 -23.5t113.5 -64.5v-223q-41 45 -103.5 79t-152.5 34q-109 0 -183.5 -66.5t-74.5 -185.5 t74.5 -185.5t183.5 -66.5q90 0 152.5 33.5t103.5 79.5v-224q-51 -41 -113.5 -64.5t-154.5 -23.5q-139 0 -246 57.5t-167 159t-60 234.5z" />
<glyph unicode="&#xaa;" horiz-adv-x="552" d="M37 1081q0 70 58.5 112t144.5 42q35 0 68.5 -8t56.5 -19v43q0 31 -23 50.5t-61 19.5q-49 0 -91.5 -15.5t-58.5 -25.5l-53 111q41 18 96 35.5t121 17.5q94 0 155.5 -40t61.5 -112v-350h-147v68q-20 -37 -62.5 -57.5t-95.5 -20.5q-74 0 -122 39t-48 110zM193 1085 q0 -51 67 -51q39 0 72 20.5t33 78.5q-39 18 -91 18q-37 0 -59 -18.5t-22 -47.5z" />
<glyph unicode="&#xab;" horiz-adv-x="1107" d="M57 522l363 520l192 -131l-309 -381l309 -397l-192 -131zM473 522l365 520l190 -131l-307 -381l307 -397l-190 -131z" />
<glyph unicode="&#xac;" horiz-adv-x="1331" d="M133 557v268h1065v-467h-217v199h-848z" />
<glyph unicode="&#xad;" horiz-adv-x="430" d="M10 410v153h410v-153h-410z" />
<glyph unicode="&#xae;" horiz-adv-x="1638" d="M82 717q0 160 56.5 295t155.5 234.5t234.5 153.5t290.5 54q158 0 292 -54t233.5 -153.5t155.5 -234.5t56 -295t-56 -295t-155.5 -234.5t-233.5 -153.5t-292 -54q-156 0 -291 54t-234 153.5t-155.5 234.5t-56.5 295zM195 717q0 -182 81.5 -325.5t224 -226.5t318.5 -83 q178 0 319.5 83t223.5 226.5t82 325.5t-82 325.5t-223.5 226.5t-319.5 83q-176 0 -318.5 -83t-224 -226.5t-81.5 -325.5zM518 307v860h316q164 0 248.5 -76.5t84.5 -191.5q0 -92 -46 -159.5t-138 -98.5l223 -334h-243l-162 311h-74v-311h-209zM727 778h90q63 0 99 26.5 t36 82.5q0 53 -36 79.5t-99 26.5l-90 -2v-213z" />
<glyph unicode="&#xaf;" horiz-adv-x="1089" d="M164 1171v269h762v-269h-762z" />
<glyph unicode="&#xb0;" horiz-adv-x="608" d="M35 1223q0 111 75.5 181.5t192.5 70.5q115 0 192.5 -71t77.5 -181q0 -111 -77.5 -181.5t-192.5 -70.5q-117 0 -192.5 70.5t-75.5 181.5zM186 1223q0 -55 33 -87t84 -32q49 0 83 31.5t34 87.5q0 55 -34 87.5t-83 32.5q-51 0 -84 -32.5t-33 -87.5z" />
<glyph unicode="&#xb1;" horiz-adv-x="1298" d="M133 12v267h1032v-267h-1032zM133 682v279h359v309h315v-309h358v-279h-358v-311h-315v311h-359z" />
<glyph unicode="&#xb2;" horiz-adv-x="835" d="M51 578l383 397q53 55 82 98t29 94q0 43 -28 77t-87 34t-96 -44t-37 -114h-205q0 90 40 167t117 123t187 46q106 0 178 -42t109 -105.5t37 -130.5q0 -68 -35 -126.5t-90 -105.5l-199 -178h344v-190h-729z" />
<glyph unicode="&#xb3;" horiz-adv-x="747" d="M37 846h205q0 -63 40 -94t93 -31t89 25.5t36 80.5t-45 89t-140 34v133q72 0 116 35t44 82q0 37 -24.5 60.5t-73.5 23.5t-81 -27.5t-32 -74.5h-190q0 115 83 191.5t220 76.5q145 0 224 -69.5t79 -168.5q0 -68 -40 -114.5t-110 -73.5q82 -27 128.5 -80t46.5 -135 q0 -113 -89 -184.5t-247 -71.5q-104 0 -179 42t-114 108.5t-39 142.5z" />
<glyph unicode="&#xb4;" horiz-adv-x="768" d="M109 1118l307 328l237 -107l-368 -307z" />
<glyph unicode="&#xb5;" d="M121 -655v1597h323v-522q0 -84 31 -129t107 -45q74 0 118.5 46t44.5 128v522h310v-942h-310v109q-31 -51 -80 -84t-110 -33q-35 0 -66.5 8t-68.5 31v-686h-299z" />
<glyph unicode="&#xb6;" horiz-adv-x="1374" d="M123 993q0 143 63.5 240.5t170 149t233.5 51.5h661v-1885h-270v1694h-121v-1694h-270v1004q-127 0 -233.5 51t-170 149.5t-63.5 239.5z" />
<glyph unicode="&#xb7;" horiz-adv-x="659" d="M137 549q0 78 54.5 133t138.5 55t138 -55t54 -133t-54 -133.5t-138 -55.5t-138.5 55.5t-54.5 133.5z" />
<glyph unicode="&#xb8;" horiz-adv-x="806" d="M123 -446l94 141q39 -29 84 -41t76 -12q53 0 82.5 17t29.5 54q0 41 -38.5 54.5t-85.5 13.5q-16 0 -65.5 -6t-102.5 -29l180 399l225 -8l-178 -248q18 4 36.5 5.5t39.5 1.5q41 0 84 -21.5t72.5 -66t29.5 -111.5q0 -74 -40 -124t-101.5 -74.5t-126.5 -24.5q-86 0 -154.5 17 t-140.5 63z" />
<glyph unicode="&#xb9;" horiz-adv-x="987" d="M272 1171v183l414 84v-877h-199v666z" />
<glyph unicode="&#xba;" horiz-adv-x="569" d="M39 1188q0 111 75.5 178.5t192.5 67.5q115 0 193 -68t78 -178q0 -111 -78 -178.5t-193 -67.5q-117 0 -192.5 67.5t-75.5 178.5zM197 1188q0 -55 31.5 -86t78.5 -31q45 0 78 31t33 86t-33 87t-78 32q-47 0 -78.5 -32t-31.5 -87z" />
<glyph unicode="&#xbb;" horiz-adv-x="1107" d="M80 133l307 381l-307 397l190 131l365 -520l-365 -520zM496 133l309 381l-309 397l192 131l365 -520l-365 -520z" />
<glyph unicode="&#xbc;" horiz-adv-x="1683" d="M49 1171v183l414 84v-877h-201v666zM225 0l1065 1434h199l-1065 -1434h-199zM834 154l499 706h154v-530h135v-176h-135v-154h-215v154h-438zM1108 303h186v256z" />
<glyph unicode="&#xbd;" horiz-adv-x="1830" d="M49 1171v183l414 84v-877h-201v666zM225 0l1065 1434h199l-1065 -1434h-199zM1034 4l385 397q51 55 81 98.5t30 94.5q0 43 -27.5 77t-87.5 34q-61 0 -98 -44.5t-37 -113.5h-203q0 90 39 167t116 123t189 46q106 0 178 -42t108 -105.5t36 -131.5t-34 -126t-89 -105 l-201 -178h344v-191h-729z" />
<glyph unicode="&#xbe;" horiz-adv-x="1800" d="M53 846h205q0 -63 40 -94t93 -31q55 0 90 25.5t35 80.5t-45 89t-139 34v133q72 0 116 35t44 82q0 37 -25 60.5t-74 23.5t-80.5 -27.5t-31.5 -74.5h-191q0 115 83 191.5t220 76.5q145 0 224 -69.5t79 -168.5q0 -68 -40 -114.5t-109 -73.5q82 -27 128 -80t46 -135 q0 -113 -89 -184.5t-247 -71.5q-104 0 -179 42t-114 108.5t-39 142.5zM356 0l1065 1434h197l-1065 -1434h-197zM950 154l502 706h154v-530h135v-176h-135v-154h-215v154h-441zM1225 303h188v256z" />
<glyph unicode="&#xbf;" horiz-adv-x="1284" d="M111 410q0 125 63.5 217t164.5 148t210 75l10 172h250l41 -365h-66q-123 0 -203.5 -39.5t-119.5 -97t-39 -110.5q0 -90 61.5 -138.5t169.5 -48.5q94 0 180.5 45t143.5 131l209 -172q-109 -127 -240 -196.5t-313 -69.5q-135 0 -254 53.5t-193.5 153.5t-74.5 242zM489 1313 q0 70 54.5 120t138.5 50t138 -50t54 -120q0 -68 -54 -119t-138 -51t-138.5 51t-54.5 119z" />
<glyph unicode="&#xc0;" horiz-adv-x="1505" d="M-2 0l754 1524l755 -1524h-393l-135 276h-457l-133 -276h-391zM422 1954l237 108l308 -327l-176 -88zM592 541h319l-159 366z" />
<glyph unicode="&#xc1;" horiz-adv-x="1505" d="M-2 0l754 1524l755 -1524h-393l-135 276h-457l-133 -276h-391zM532 1735l308 327l235 -108l-368 -307zM592 541h319l-159 366z" />
<glyph unicode="&#xc2;" horiz-adv-x="1505" d="M-2 0l754 1524l755 -1524h-393l-135 276h-457l-133 -276h-391zM348 1761l404 287l405 -287l-217 -145l-188 176l-187 -176zM592 541h319l-159 366z" />
<glyph unicode="&#xc3;" horiz-adv-x="1505" d="M-2 0l754 1524l755 -1524h-393l-135 276h-457l-133 -276h-391zM350 1765q16 76 82 135.5t164 59.5q51 0 85 -16.5t61.5 -38t58 -37t73.5 -15.5q39 0 72 30t64 79l143 -152q-16 -39 -56 -78.5t-96.5 -68.5t-121.5 -29q-55 0 -101.5 28t-90.5 54.5t-93 26.5 q-39 0 -59.5 -19.5t-28.5 -44t-8 -41.5zM592 541h319l-159 366z" />
<glyph unicode="&#xc4;" horiz-adv-x="1505" d="M-2 0l754 1524l755 -1524h-393l-135 276h-457l-133 -276h-391zM272 1712q0 74 52.5 121t128.5 47q74 0 127 -47t53 -121t-53.5 -120t-126.5 -46q-76 0 -128.5 46t-52.5 120zM592 541h319l-159 366zM860 1700q0 74 52.5 121t127.5 47q74 0 127.5 -47t53.5 -121t-53.5 -121 t-127.5 -47q-76 0 -128 47t-52 121z" />
<glyph unicode="&#xc5;" horiz-adv-x="1505" d="M-2 0l696 1409q-86 14 -142 76.5t-56 152.5q0 106 74.5 172t181.5 66q106 0 181 -65.5t75 -172.5q0 -90 -56.5 -151.5t-142.5 -77.5l698 -1409h-393l-135 276h-457l-133 -276h-391zM592 541h319l-159 366zM657 1638q0 -45 28 -70.5t67 -25.5q37 0 65.5 25.5t28.5 70.5 q0 47 -29 74t-65 27q-39 0 -67 -27t-28 -74z" />
<glyph unicode="&#xc6;" horiz-adv-x="2220" d="M29 0l868 1434h1180v-285h-582v-256h541v-279h-541v-329h582v-285h-953v309h-483l-176 -309h-436zM819 627h305v538z" />
<glyph unicode="&#xc7;" horiz-adv-x="1435" d="M70 717q0 223 100 392t277.5 263t408.5 94q156 0 258.5 -38.5t190.5 -106.5v-373q-72 76 -174.5 132.5t-253.5 56.5q-117 0 -214.5 -50.5t-157 -144.5t-59.5 -225t59.5 -225.5t157 -144.5t214.5 -50q152 0 254 56.5t174 131.5v-372q-86 -66 -185.5 -105t-249.5 -41 l-88 -125q16 4 35 5t39 1q41 0 85 -21.5t73.5 -65.5t29.5 -111q0 -74 -40.5 -124t-102 -74.5t-125.5 -24.5q-86 0 -154.5 17t-140.5 62l92 142q39 -29 85.5 -40t76.5 -11q51 0 81 17t30 54q0 39 -38 52.5t-85 13.5q-16 0 -66.5 -6.5t-103.5 -26.5l129 281 q-184 35 -321.5 134t-214 252.5t-76.5 348.5z" />
<glyph unicode="&#xc8;" horiz-adv-x="1234" d="M152 0v1434h952v-285h-621v-256h580v-279h-580v-329h621v-285h-952zM297 1909l235 108l308 -327l-174 -88z" />
<glyph unicode="&#xc9;" horiz-adv-x="1234" d="M152 0v1434h952v-285h-621v-256h580v-279h-580v-329h621v-285h-952zM408 1690l307 327l237 -108l-368 -307z" />
<glyph unicode="&#xca;" horiz-adv-x="1234" d="M152 0v1434h952v-285h-621v-256h580v-279h-580v-329h621v-285h-952zM231 1735l404 286l403 -286l-217 -146l-186 176l-186 -176z" />
<glyph unicode="&#xcb;" horiz-adv-x="1234" d="M152 0v1434h952v-285h-621v-256h580v-279h-580v-329h621v-285h-952zM207 1774q0 74 52 119.5t128 45.5q74 0 127 -46t53 -119q0 -76 -53 -122t-127 -46q-76 0 -128 46t-52 122zM705 1774q0 74 53 119.5t127 45.5q76 0 128 -46t52 -119q0 -76 -52 -122t-128 -46 q-74 0 -127 46t-53 122z" />
<glyph unicode="&#xcc;" horiz-adv-x="655" d="M-16 1909l237 108l307 -327l-176 -88zM152 0v1434h352v-1434h-352z" />
<glyph unicode="&#xcd;" horiz-adv-x="655" d="M96 1690l307 327l236 -108l-369 -307zM152 0v1434h352v-1434h-352z" />
<glyph unicode="&#xce;" horiz-adv-x="655" d="M-78 1735l406 286l403 -286l-217 -146l-186 176l-189 -176zM152 0v1434h352v-1434h-352z" />
<glyph unicode="&#xcf;" horiz-adv-x="655" d="M-100 1757q0 74 52 121t126 47q76 0 128 -47t52 -121t-52 -121t-128 -47q-74 0 -126 47t-52 121zM152 0v1434h352v-1434h-352zM397 1757q0 74 52.5 121t128.5 47q74 0 127 -47t53 -121t-53.5 -121t-126.5 -47q-76 0 -128.5 47t-52.5 121z" />
<glyph unicode="&#xd0;" horiz-adv-x="1501" d="M12 621v202h140v611h512q236 0 407.5 -87t266 -248t94.5 -382t-94.5 -382t-266.5 -248t-407 -87h-512v621h-140zM508 307h143q111 0 207 38t155.5 128t59.5 244t-59.5 244t-155.5 127.5t-207 37.5h-143v-303h219v-202h-219v-314z" />
<glyph unicode="&#xd1;" horiz-adv-x="1626" d="M152 0v1505l989 -878v807h334v-1506l-992 879v-807h-331zM352 1706q14 76 80 134t164 58q51 0 85 -15t61.5 -36.5t58 -38t73.5 -16.5q39 0 72 29.5t64 79.5l145 -152q-16 -37 -57 -78t-97.5 -68.5t-119.5 -27.5q-57 0 -102.5 27.5t-89.5 54t-95 26.5q-39 0 -59.5 -19 t-28.5 -44t-8 -41z" />
<glyph unicode="&#xd2;" horiz-adv-x="1681" d="M70 717q0 166 58 303t162.5 237.5t246 154.5t305.5 54q166 0 306 -54t244.5 -154.5t162 -237.5t57.5 -303t-56.5 -305.5t-160 -241.5t-244.5 -158.5t-309 -56.5q-170 0 -311.5 56.5t-245 158.5t-159.5 241.5t-56 305.5zM436 717q0 -127 50.5 -224.5t141.5 -152.5t214 -55 q121 0 212 55t141 152.5t50 224.5t-49 224t-140 152.5t-214 55.5t-214 -55.5t-141.5 -152.5t-50.5 -224zM539 1909l235 108l307 -327l-174 -88z" />
<glyph unicode="&#xd3;" horiz-adv-x="1681" d="M70 717q0 166 58 303t162.5 237.5t246 154.5t305.5 54q166 0 306 -54t244.5 -154.5t162 -237.5t57.5 -303t-56.5 -305.5t-160 -241.5t-244.5 -158.5t-309 -56.5q-170 0 -311.5 56.5t-245 158.5t-159.5 241.5t-56 305.5zM436 717q0 -127 50.5 -224.5t141.5 -152.5t214 -55 q121 0 212 55t141 152.5t50 224.5t-49 224t-140 152.5t-214 55.5t-214 -55.5t-141.5 -152.5t-50.5 -224zM633 1690l307 327l236 -108l-369 -307z" />
<glyph unicode="&#xd4;" horiz-adv-x="1681" d="M70 717q0 166 58 303t162.5 237.5t246 154.5t305.5 54q166 0 306 -54t244.5 -154.5t162 -237.5t57.5 -303t-56.5 -305.5t-160 -241.5t-244.5 -158.5t-309 -56.5q-170 0 -311.5 56.5t-245 158.5t-159.5 241.5t-56 305.5zM436 717q0 -127 50.5 -224.5t141.5 -152.5t214 -55 q121 0 212 55t141 152.5t50 224.5t-49 224t-140 152.5t-214 55.5t-214 -55.5t-141.5 -152.5t-50.5 -224zM457 1735l403 286l404 -286l-217 -146l-187 176l-186 -176z" />
<glyph unicode="&#xd5;" horiz-adv-x="1681" d="M70 717q0 166 58 303t162.5 237.5t246 154.5t305.5 54q166 0 306 -54t244.5 -154.5t162 -237.5t57.5 -303t-56.5 -305.5t-160 -241.5t-244.5 -158.5t-309 -56.5q-170 0 -311.5 56.5t-245 158.5t-159.5 241.5t-56 305.5zM436 717q0 -127 50.5 -224.5t141.5 -152.5t214 -55 q121 0 212 55t141 152.5t50 224.5t-49 224t-140 152.5t-214 55.5t-214 -55.5t-141.5 -152.5t-50.5 -224zM453 1718q14 74 79.5 133.5t163.5 59.5q51 0 86 -16.5t62.5 -37t57.5 -37t75 -16.5q39 0 70.5 30t62.5 79l145 -152q-16 -37 -57 -78t-97.5 -68.5t-119.5 -27.5 q-57 0 -102 26.5t-89.5 54.5t-95.5 28q-39 0 -59.5 -19.5t-28.5 -45t-8 -40.5z" />
<glyph unicode="&#xd6;" horiz-adv-x="1681" d="M70 717q0 166 58 303t162.5 237.5t246 154.5t305.5 54q166 0 306 -54t244.5 -154.5t162 -237.5t57.5 -303t-56.5 -305.5t-160 -241.5t-244.5 -158.5t-309 -56.5q-170 0 -311.5 56.5t-245 158.5t-159.5 241.5t-56 305.5zM412 1757q0 74 52 121t128 47q74 0 127 -47 t53 -121t-53 -121t-127 -47q-76 0 -128 47t-52 121zM436 717q0 -127 50.5 -224.5t141.5 -152.5t214 -55q121 0 212 55t141 152.5t50 224.5t-49 224t-140 152.5t-214 55.5t-214 -55.5t-141.5 -152.5t-50.5 -224zM909 1757q0 74 53.5 121t127.5 47q76 0 128 -47t52 -121 t-52.5 -121t-127.5 -47q-74 0 -127.5 47t-53.5 121z" />
<glyph unicode="&#xd7;" horiz-adv-x="1220" d="M94 199l334 323l-334 324l193 192l323 -333l324 333l192 -192l-333 -324l333 -323l-192 -193l-324 334l-323 -334z" />
<glyph unicode="&#xd8;" horiz-adv-x="1617" d="M70 717q0 166 57 303t161.5 237.5t245 154.5t308.5 54q119 0 225.5 -28.5t196.5 -81.5l163 192l148 -106l-168 -197q96 -98 150.5 -233t54.5 -295q0 -166 -57.5 -305.5t-162 -241.5t-244.5 -158.5t-306 -56.5q-123 0 -232.5 30.5t-201.5 90.5l-162 -191l-146 107l168 196 q-94 100 -146 235.5t-52 293.5zM436 717q0 -147 66 -254l542 637q-88 49 -202 49q-123 0 -214 -54.5t-141.5 -151.5t-50.5 -226zM631 336q92 -51 211 -51q121 0 212 54t141 151.5t50 226.5q0 152 -67 260z" />
<glyph unicode="&#xd9;" horiz-adv-x="1435" d="M141 471v963h346v-938q0 -109 57.5 -176.5t172.5 -67.5q117 0 174 67.5t57 176.5v938h346v-963q0 -180 -76.5 -298t-207.5 -175t-293 -57q-160 0 -291 57t-208 175t-77 298zM387 1896l238 109l307 -328l-176 -88z" />
<glyph unicode="&#xda;" horiz-adv-x="1435" d="M141 471v963h346v-938q0 -109 57.5 -176.5t172.5 -67.5q117 0 174 67.5t57 176.5v938h346v-963q0 -180 -76.5 -298t-207.5 -175t-293 -57q-160 0 -291 57t-208 175t-77 298zM504 1677l307 328l236 -109l-369 -307z" />
<glyph unicode="&#xdb;" horiz-adv-x="1435" d="M141 471v963h346v-938q0 -109 57.5 -176.5t172.5 -67.5q117 0 174 67.5t57 176.5v938h346v-963q0 -180 -76.5 -298t-207.5 -175t-293 -57q-160 0 -291 57t-208 175t-77 298zM313 1735l404 286l405 -286l-217 -146l-188 176l-187 -176z" />
<glyph unicode="&#xdc;" horiz-adv-x="1435" d="M141 471v963h346v-938q0 -109 57.5 -176.5t172.5 -67.5q117 0 174 67.5t57 176.5v938h346v-963q0 -180 -76.5 -298t-207.5 -175t-293 -57q-160 0 -291 57t-208 175t-77 298zM250 1757q0 74 52 121t128 47q74 0 127 -47t53 -121t-53 -121t-127 -47q-76 0 -128 47t-52 121z M825 1757q0 74 52.5 121t128.5 47q74 0 127 -47t53 -121t-53.5 -121t-126.5 -47q-76 0 -128.5 47t-52.5 121z" />
<glyph unicode="&#xdd;" horiz-adv-x="1351" d="M-2 1434h397l281 -539l280 539h398l-502 -850v-584h-352v582zM463 1677l307 328l236 -109l-369 -307z" />
<glyph unicode="&#xde;" horiz-adv-x="1253" d="M164 0v1434h301v-248h170q274 0 416.5 -123t142.5 -340t-142.5 -339t-416.5 -122h-170v-262h-301zM465 532h170q119 0 184.5 44.5t65.5 146.5q0 104 -65.5 147t-184.5 43h-170v-381z" />
<glyph unicode="&#xdf;" horiz-adv-x="1234" d="M94 1133q0 240 136.5 369.5t383.5 129.5q137 0 249 -44t178.5 -129t66.5 -208q0 -94 -27.5 -157.5t-62.5 -107.5t-62.5 -82t-27.5 -83q0 -39 31.5 -66.5t76.5 -55t91.5 -64.5t77 -94.5t30.5 -145.5q0 -117 -67.5 -212t-175 -151.5t-228.5 -56.5q-82 0 -160 24t-129 58 l64 236q41 -31 95 -49.5t103 -18.5q80 0 128 48.5t48 119.5q0 59 -31.5 99t-77.5 71t-92 61.5t-78 69.5t-32 97q0 57 27.5 101t64.5 87t64.5 94t27.5 119q0 84 -51 124t-131 40q-94 0 -147.5 -54.5t-53.5 -173.5l3 -1132h-310z" />
<glyph unicode="&#xe0;" horiz-adv-x="1114" d="M49 262q0 145 113.5 227t294.5 82q72 0 137 -16t113 -39v86q0 59 -45.5 95t-120.5 36q-102 0 -184 -31t-117 -51l-105 209q80 39 191.5 74t238.5 35t226.5 -36t156 -104.5t56.5 -164.5v-664h-297v133q-41 -74 -125 -113.5t-191 -39.5q-156 0 -249 74.5t-93 207.5z M213 1399l236 108l307 -327l-174 -88zM360 281q0 -51 37 -75t99 -24q82 0 143 40t68 145q-76 37 -179 36q-80 0 -124 -32.5t-44 -89.5z" />
<glyph unicode="&#xe1;" horiz-adv-x="1114" d="M49 262q0 145 113.5 227t294.5 82q72 0 137 -16t113 -39v86q0 59 -45.5 95t-120.5 36q-102 0 -184 -31t-117 -51l-105 209q80 39 191.5 74t238.5 35t226.5 -36t156 -104.5t56.5 -164.5v-664h-297v133q-41 -74 -125 -113.5t-191 -39.5q-156 0 -249 74.5t-93 207.5z M360 281q0 -51 37 -75t99 -24q82 0 143 40t68 145q-76 37 -179 36q-80 0 -124 -32.5t-44 -89.5zM375 1180l307 327l236 -108l-369 -307z" />
<glyph unicode="&#xe2;" horiz-adv-x="1114" d="M49 262q0 145 113.5 227t294.5 82q72 0 137 -16t113 -39v86q0 59 -45.5 95t-120.5 36q-102 0 -184 -31t-117 -51l-105 209q80 39 191.5 74t238.5 35t226.5 -36t156 -104.5t56.5 -164.5v-664h-297v133q-41 -74 -125 -113.5t-191 -39.5q-156 0 -249 74.5t-93 207.5z M162 1237l403 287l404 -287l-217 -145l-187 176l-186 -176zM360 281q0 -51 37 -75t99 -24q82 0 143 40t68 145q-76 37 -179 36q-80 0 -124 -32.5t-44 -89.5z" />
<glyph unicode="&#xe3;" horiz-adv-x="1114" d="M49 262q0 145 113.5 227t294.5 82q72 0 137 -16t113 -39v86q0 59 -45.5 95t-120.5 36q-102 0 -184 -31t-117 -51l-105 209q80 39 191.5 74t238.5 35t226.5 -36t156 -104.5t56.5 -164.5v-664h-297v133q-41 -74 -125 -113.5t-191 -39.5q-156 0 -249 74.5t-93 207.5z M164 1227q14 74 80.5 133t163.5 59q51 0 85.5 -16.5t62.5 -36.5t58.5 -36.5t73.5 -16.5q39 0 71 29.5t62 78.5l146 -151q-16 -37 -57.5 -78t-97.5 -68.5t-120 -27.5q-55 0 -101 26.5t-90 54t-95 27.5q-39 0 -59.5 -19.5t-28 -45t-7.5 -39.5zM360 281q0 -51 37 -75t99 -24 q82 0 143 40t68 145q-76 37 -179 36q-80 0 -124 -32.5t-44 -89.5z" />
<glyph unicode="&#xe4;" horiz-adv-x="1114" d="M49 262q0 145 113.5 227t294.5 82q72 0 137 -16t113 -39v86q0 59 -45.5 95t-120.5 36q-102 0 -184 -31t-117 -51l-105 209q80 39 191.5 74t238.5 35t226.5 -36t156 -104.5t56.5 -164.5v-664h-297v133q-41 -74 -125 -113.5t-191 -39.5q-156 0 -249 74.5t-93 207.5z M135 1260q0 74 53.5 120.5t126.5 46.5q76 0 128.5 -47t52.5 -120q0 -74 -52.5 -121t-128.5 -47q-74 0 -127 47t-53 121zM360 281q0 -51 37 -75t99 -24q82 0 143 40t68 145q-76 37 -179 36q-80 0 -124 -32.5t-44 -89.5zM635 1260q0 74 52 120.5t128 46.5q74 0 127 -47 t53 -120q0 -74 -53 -121t-127 -47q-76 0 -128 47t-52 121z" />
<glyph unicode="&#xe5;" horiz-adv-x="1114" d="M49 262q0 145 113.5 227t294.5 82q72 0 137 -16t113 -39v86q0 59 -45.5 95t-120.5 36q-102 0 -184 -31t-117 -51l-105 209q80 39 191.5 74t238.5 35t226.5 -36t156 -104.5t56.5 -164.5v-664h-297v133q-41 -74 -125 -113.5t-191 -39.5q-156 0 -249 74.5t-93 207.5z M309 1329q0 104 74 170t180 66t182 -65.5t76 -170.5q0 -106 -75.5 -171.5t-182.5 -65.5q-106 0 -180 65.5t-74 171.5zM360 281q0 -51 37 -75t99 -24q82 0 143 40t68 145q-76 37 -179 36q-80 0 -124 -32.5t-44 -89.5zM469 1329q0 -47 28.5 -72.5t65.5 -25.5q39 0 67.5 25.5 t28.5 72.5q0 45 -28.5 71.5t-67.5 26.5q-37 0 -65.5 -26.5t-28.5 -71.5z" />
<glyph unicode="&#xe6;" horiz-adv-x="1835" d="M49 262q0 139 112.5 224t295.5 85q61 0 119.5 -11t130.5 -38v58q0 154 -166 153q-70 0 -156 -23.5t-145 -58.5l-105 209q227 109 430 109q281 0 324 -203q137 197 414 197q217 0 338.5 -127t121.5 -351q0 -53 -4 -79h-717q27 -203 213 -203q78 0 139.5 31.5t96.5 91.5 l276 -68q-80 -141 -203.5 -209.5t-301.5 -68.5q-297 0 -404 202q-41 -96 -147.5 -149t-266.5 -53q-186 0 -290.5 74.5t-104.5 207.5zM360 281q1 -99 136 -99q182 0 215 160l-2 23q-86 39 -181 38q-168 0 -168 -122zM1047 578h387q-8 86 -56.5 132t-128.5 46 q-166 0 -202 -178z" />
<glyph unicode="&#xe7;" horiz-adv-x="1011" d="M61 471q0 150 71 260.5t194 171t280 60.5q106 0 180 -24t123 -58v-303q-43 68 -122.5 103.5t-155.5 35.5q-104 0 -177 -71t-73 -175q0 -115 72.5 -180.5t177.5 -65.5q86 0 160.5 37t117.5 105v-301q-49 -39 -120.5 -62.5t-174.5 -23.5l-79 -113q16 4 35.5 6t39.5 2 q39 0 83 -22.5t74 -66.5t30 -112q0 -74 -40 -123t-101.5 -74.5t-127.5 -25.5q-86 0 -154.5 17.5t-140.5 64.5l95 139q39 -29 84 -40t75 -11q53 0 82 17.5t29 54.5q0 41 -38 53t-85 12q-16 0 -65.5 -5t-102.5 -27l123 276q-166 43 -267.5 167t-101.5 302z" />
<glyph unicode="&#xe8;" horiz-adv-x="1173" d="M66 471q0 27 2 51.5t6 48.5q29 174 160 283t362 109q248 0 378 -127t130 -351v-33.5t-4 -45.5h-717q14 -109 73.5 -156t139.5 -47q84 0 142.5 31.5t90.5 91.5l277 -68q-70 -127 -186.5 -202.5t-319.5 -75.5q-172 0 -292 63t-181 175t-61 253zM258 1401l238 108l307 -327 l-176 -88zM387 578h385q-10 84 -54 131t-128 47q-82 0 -136.5 -46t-66.5 -132z" />
<glyph unicode="&#xe9;" horiz-adv-x="1173" d="M66 471q0 27 2 51.5t6 48.5q29 174 160 283t362 109q248 0 378 -127t130 -351v-33.5t-4 -45.5h-717q14 -109 73.5 -156t139.5 -47q84 0 142.5 31.5t90.5 91.5l277 -68q-70 -127 -186.5 -202.5t-319.5 -75.5q-172 0 -292 63t-181 175t-61 253zM387 578h385q-10 84 -54 131 t-128 47q-82 0 -136.5 -46t-66.5 -132zM406 1182l307 327l235 -108l-368 -307z" />
<glyph unicode="&#xea;" horiz-adv-x="1173" d="M66 471q0 27 2 51.5t6 48.5q29 174 160 283t362 109q248 0 378 -127t130 -351v-33.5t-4 -45.5h-717q14 -109 73.5 -156t139.5 -47q84 0 142.5 31.5t90.5 91.5l277 -68q-70 -127 -186.5 -202.5t-319.5 -75.5q-172 0 -292 63t-181 175t-61 253zM193 1233l403 287l403 -287 l-217 -146l-186 175l-186 -175zM387 578h385q-10 84 -54 131t-128 47q-82 0 -136.5 -46t-66.5 -132z" />
<glyph unicode="&#xeb;" horiz-adv-x="1173" d="M66 471q0 27 2 51.5t6 48.5q29 174 160 283t362 109q248 0 378 -127t130 -351v-33.5t-4 -45.5h-717q14 -109 73.5 -156t139.5 -47q84 0 142.5 31.5t90.5 91.5l277 -68q-70 -127 -186.5 -202.5t-319.5 -75.5q-172 0 -292 63t-181 175t-61 253zM166 1253q0 74 53 121 t127 47q76 0 128 -47t52 -121t-52 -120t-128 -46q-74 0 -127 46t-53 120zM387 578h385q-10 84 -54 131t-128 47q-82 0 -136.5 -46t-66.5 -132zM666 1253q0 74 52 121t128 47q74 0 127 -47t53 -121t-53 -120t-127 -46q-76 0 -128 46t-52 120z" />
<glyph unicode="&#xec;" horiz-adv-x="565" d="M-86 1409l236 109l307 -328l-174 -88zM133 0v942h299v-942h-299z" />
<glyph unicode="&#xed;" horiz-adv-x="565" d="M90 1190l307 328l238 -109l-369 -307zM133 0v942h299v-942h-299z" />
<glyph unicode="&#xee;" horiz-adv-x="565" d="M-123 1239l404 287l405 -287l-217 -145l-188 176l-187 -176zM133 0v942h299v-942h-299z" />
<glyph unicode="&#xef;" horiz-adv-x="565" d="M-147 1278q0 74 53 120t127 46q76 0 128 -46t52 -120t-52 -121t-128 -47q-74 0 -127 47t-53 121zM133 0v942h299v-942h-299zM352 1278q0 74 52.5 120t127.5 46q74 0 127.5 -46t53.5 -120t-53.5 -121t-127.5 -47q-76 0 -128 47t-52 121z" />
<glyph unicode="&#xf0;" horiz-adv-x="1282" d="M102 504q0 137 54.5 242.5t152 164t226.5 58.5q135 0 253 -72q-84 121 -188 229l-278 -88l-35 113l217 70q-100 92 -219 182l229 153q143 -129 254 -249l231 73l35 -112l-180 -60q328 -391 328 -704q0 -156 -71 -277t-194.5 -190.5t-281.5 -69.5q-156 0 -275.5 68.5 t-188.5 189.5t-69 279zM422 471q0 -102 60.5 -168.5t158.5 -66.5q96 0 157.5 66.5t61.5 168.5t-62.5 170t-156.5 68q-96 0 -157.5 -68t-61.5 -170z" />
<glyph unicode="&#xf1;" d="M121 0v942h311v-133q43 70 114.5 113t172.5 43q174 0 255 -92.5t81 -266.5v-606h-322v573q0 84 -30.5 129.5t-106.5 45.5t-120 -46.5t-44 -128.5v-573h-311zM188 1221q14 76 80 135t164 59q51 0 85 -16.5t61.5 -38t58.5 -36.5t74 -15q39 0 71.5 29.5t63.5 78.5l145 -151 q-16 -39 -57 -80t-97.5 -68.5t-121.5 -27.5q-55 0 -101.5 27.5t-89.5 54t-94 26.5q-39 0 -59.5 -19.5t-28.5 -44t-8 -40.5z" />
<glyph unicode="&#xf2;" horiz-adv-x="1208" d="M66 471q0 150 70.5 260.5t191.5 172t276 61.5q154 0 275.5 -61.5t192.5 -172t71 -260.5t-71 -260.5t-192.5 -170.5t-275.5 -60q-156 0 -276.5 60t-191 170.5t-70.5 260.5zM276 1409l236 109l307 -328l-174 -88zM383 471q0 -109 65.5 -172t155.5 -63t154.5 63t64.5 172 t-64.5 173.5t-154.5 64.5t-155.5 -64.5t-65.5 -173.5z" />
<glyph unicode="&#xf3;" horiz-adv-x="1208" d="M66 471q0 150 70.5 260.5t191.5 172t276 61.5q154 0 275.5 -61.5t192.5 -172t71 -260.5t-71 -260.5t-192.5 -170.5t-275.5 -60q-156 0 -276.5 60t-191 170.5t-70.5 260.5zM383 471q0 -109 65.5 -172t155.5 -63t154.5 63t64.5 172t-64.5 173.5t-154.5 64.5t-155.5 -64.5 t-65.5 -173.5zM387 1190l307 328l238 -109l-369 -307z" />
<glyph unicode="&#xf4;" horiz-adv-x="1208" d="M66 471q0 150 70.5 260.5t191.5 172t276 61.5q154 0 275.5 -61.5t192.5 -172t71 -260.5t-71 -260.5t-192.5 -170.5t-275.5 -60q-156 0 -276.5 60t-191 170.5t-70.5 260.5zM199 1247l405 287l404 -287l-217 -145l-187 176l-188 -176zM383 471q0 -109 65.5 -172t155.5 -63 t154.5 63t64.5 172t-64.5 173.5t-154.5 64.5t-155.5 -64.5t-65.5 -173.5z" />
<glyph unicode="&#xf5;" horiz-adv-x="1208" d="M66 471q0 150 70.5 260.5t191.5 172t276 61.5q154 0 275.5 -61.5t192.5 -172t71 -260.5t-71 -260.5t-192.5 -170.5t-275.5 -60q-156 0 -276.5 60t-191 170.5t-70.5 260.5zM203 1221q14 76 79.5 135t163.5 59q51 0 86 -16.5t63 -38t57.5 -36.5t74.5 -15q39 0 70.5 29.5 t62.5 78.5l146 -151q-16 -39 -57.5 -80t-97.5 -68.5t-120 -27.5q-57 0 -102 27.5t-89 54t-96 26.5q-39 0 -59 -19.5t-28.5 -44t-8.5 -40.5zM383 471q0 -109 65.5 -172t155.5 -63t154.5 63t64.5 172t-64.5 173.5t-154.5 64.5t-155.5 -64.5t-65.5 -173.5z" />
<glyph unicode="&#xf6;" horiz-adv-x="1208" d="M66 471q0 150 70.5 260.5t191.5 172t276 61.5q154 0 275.5 -61.5t192.5 -172t71 -260.5t-71 -260.5t-192.5 -170.5t-275.5 -60q-156 0 -276.5 60t-191 170.5t-70.5 260.5zM174 1278q0 74 53.5 120t126.5 46q74 0 127.5 -46t53.5 -120t-53.5 -121t-127.5 -47t-127 47 t-53 121zM383 471q0 -109 65.5 -172t155.5 -63t154.5 63t64.5 172t-64.5 173.5t-154.5 64.5t-155.5 -64.5t-65.5 -173.5zM674 1278q0 74 52 120t128 46q74 0 126 -46t52 -120t-52 -121t-126 -47q-76 0 -128 47t-52 121z" />
<glyph unicode="&#xf7;" horiz-adv-x="1310" d="M53 530v279h1202v-279h-1202zM461 201q0 78 54 133t138 55t138.5 -55t54.5 -133t-54.5 -133.5t-138.5 -55.5t-138 55.5t-54 133.5zM461 1133q0 76 54 132t138 56t138.5 -56.5t54.5 -131.5q0 -78 -54.5 -134.5t-138.5 -56.5t-138 56.5t-54 134.5z" />
<glyph unicode="&#xf8;" horiz-adv-x="1118" d="M66 471q0 156 71.5 265.5t193.5 168t273 58.5q131 0 242 -45l88 118l117 -65l-88 -119q84 -63 132 -159.5t48 -221.5q0 -156 -72 -265.5t-194.5 -167.5t-272.5 -58q-139 0 -254 49l-98 -131l-117 65l98 135q-78 63 -122.5 157.5t-44.5 215.5zM358 471q0 -86 43 -149 l285 385q-39 14 -82 14q-100 0 -173 -70.5t-73 -179.5zM506 240q47 -16 98 -17q100 0 172 64.5t72 183.5q0 90 -51 158z" />
<glyph unicode="&#xf9;" d="M121 336v606h323v-573q0 -84 31 -129t107 -45q74 0 118.5 46t44.5 128v573h310v-942h-310v133q-43 -70 -114.5 -113t-171.5 -43q-176 0 -257 92.5t-81 266.5zM291 1409l237 109l308 -328l-177 -88z" />
<glyph unicode="&#xfa;" d="M121 336v606h323v-573q0 -84 31 -129t107 -45q74 0 118.5 46t44.5 128v573h310v-942h-310v133q-43 -70 -114.5 -113t-171.5 -43q-176 0 -257 92.5t-81 266.5zM342 1190l307 328l236 -109l-369 -307z" />
<glyph unicode="&#xfb;" d="M121 336v606h323v-573q0 -84 31 -129t107 -45q74 0 118.5 46t44.5 128v573h310v-942h-310v133q-43 -70 -114.5 -113t-171.5 -43q-176 0 -257 92.5t-81 266.5zM184 1247l404 287l403 -287l-217 -145l-186 176l-187 -176z" />
<glyph unicode="&#xfc;" d="M121 336v606h323v-573q0 -84 31 -129t107 -45q74 0 118.5 46t44.5 128v573h310v-942h-310v133q-43 -70 -114.5 -113t-171.5 -43q-176 0 -257 92.5t-81 266.5zM160 1270q0 74 52 121t128 47q74 0 127 -47.5t53 -120.5q0 -74 -53 -121t-127 -47q-76 0 -128 47t-52 121z M659 1270q0 74 52.5 121t126.5 47q76 0 129 -47.5t53 -120.5q0 -74 -53.5 -121t-128.5 -47q-74 0 -126.5 47t-52.5 121z" />
<glyph unicode="&#xfd;" horiz-adv-x="1067" d="M-18 942h340l223 -557l223 557h317l-614 -1393h-311l229 527zM319 1190l308 328l235 -109l-368 -307z" />
<glyph unicode="&#xfe;" horiz-adv-x="1263" d="M119 -451v2048h309v-804q115 170 322 170q115 0 217 -56.5t166.5 -166t64.5 -269.5t-64.5 -269.5t-167 -165.5t-216.5 -56q-207 0 -322 170v-601h-309zM428 471q0 -76 33 -130t83 -83t103 -29q92 0 158.5 65.5t66.5 176.5t-66.5 176.5t-158.5 65.5q-53 0 -103 -29 t-83 -83t-33 -130z" />
<glyph unicode="&#xff;" horiz-adv-x="1067" d="M-18 942h340l223 -557l223 557h317l-614 -1393h-311l229 527zM104 1253q0 74 52.5 121t128.5 47q74 0 127 -47t53 -121t-53.5 -120t-126.5 -46q-76 0 -128.5 46t-52.5 120zM602 1253q0 74 53.5 121t126.5 47q76 0 128.5 -47t52.5 -121t-52.5 -120t-128.5 -46 q-74 0 -127 46t-53 120z" />
<glyph unicode="&#x152;" horiz-adv-x="2017" d="M70 717q0 215 95 375.5t260 251t374 90.5h1145v-285h-619v-256h578v-279h-578v-329h621v-285h-1147q-207 0 -373 90t-261 251t-95 376zM428 717q0 -203 110.5 -308.5t323.5 -105.5h129v827h-129q-213 0 -323.5 -105t-110.5 -308z" />
<glyph unicode="&#x153;" horiz-adv-x="1843" d="M72 471q0 154 63.5 263.5t170 169t233.5 59.5q141 0 240.5 -73t142.5 -204q53 127 164.5 202t261.5 75q113 0 209 -59.5t155.5 -167t59.5 -257.5q0 -12 -1.5 -36.5t-3.5 -36.5h-710q12 -102 68.5 -155.5t142.5 -53.5q84 0 137 35.5t94 93.5l275 -68 q-61 -119 -184.5 -198.5t-274.5 -79.5q-139 0 -241.5 73.5t-151.5 198.5q-45 -129 -143.5 -200.5t-239.5 -71.5q-127 0 -233.5 59t-170 169.5t-63.5 262.5zM377 471q0 -115 64.5 -175t156.5 -60q88 0 145.5 60t57.5 175t-57.5 175.5t-145.5 60.5q-92 0 -156.5 -60.5 t-64.5 -175.5zM1059 575h381q-10 84 -55 132.5t-121 48.5t-134.5 -44t-70.5 -137z" />
<glyph unicode="&#x178;" horiz-adv-x="1351" d="M-2 1434h397l281 -539l280 539h398l-502 -850v-584h-352v582zM209 1780q0 74 52 120t126 46q76 0 129 -46.5t53 -119.5q0 -76 -53 -122t-129 -46q-74 0 -126 46t-52 122zM784 1780q0 74 52.5 120t126.5 46q76 0 128 -46.5t52 -119.5q0 -76 -52.5 -122t-127.5 -46 q-74 0 -126.5 46t-52.5 122z" />
<glyph unicode="&#x2c6;" horiz-adv-x="983" d="M88 1260l404 286l403 -286l-217 -146l-186 174l-187 -174z" />
<glyph unicode="&#x2dc;" horiz-adv-x="1085" d="M154 1305q16 76 81.5 135t163.5 59q51 0 85 -16.5t61.5 -37t58.5 -36.5t74 -16q39 0 70.5 29.5t62.5 78.5l145 -151q-16 -39 -56 -79t-96 -68.5t-122 -28.5q-55 0 -101 27.5t-90.5 55t-93.5 27.5q-39 0 -60.5 -20.5t-28.5 -45t-7 -38.5z" />
<glyph unicode="&#x2000;" horiz-adv-x="1031" />
<glyph unicode="&#x2001;" horiz-adv-x="2062" />
<glyph unicode="&#x2002;" horiz-adv-x="1031" />
<glyph unicode="&#x2003;" horiz-adv-x="2062" />
<glyph unicode="&#x2004;" horiz-adv-x="687" />
<glyph unicode="&#x2005;" horiz-adv-x="515" />
<glyph unicode="&#x2006;" horiz-adv-x="343" />
<glyph unicode="&#x2007;" horiz-adv-x="343" />
<glyph unicode="&#x2008;" horiz-adv-x="257" />
<glyph unicode="&#x2009;" horiz-adv-x="412" />
<glyph unicode="&#x200a;" horiz-adv-x="114" />
<glyph unicode="&#x2010;" horiz-adv-x="454" d="M10 352v269h434v-269h-434z" />
<glyph unicode="&#x2011;" horiz-adv-x="454" d="M10 352v269h434v-269h-434z" />
<glyph unicode="&#x2012;" horiz-adv-x="454" d="M10 352v269h434v-269h-434z" />
<glyph unicode="&#x2013;" horiz-adv-x="1605" d="M143 352v269h1305v-269h-1305z" />
<glyph unicode="&#x2014;" horiz-adv-x="1925" d="M143 352v269h1633v-269h-1633z" />
<glyph unicode="&#x2018;" horiz-adv-x="677" d="M143 911l211 523h221l-110 -523h-322z" />
<glyph unicode="&#x2019;" horiz-adv-x="677" d="M102 911l111 523h322l-211 -523h-222z" />
<glyph unicode="&#x201a;" horiz-adv-x="677" d="M123 -358l110 522h322l-211 -522h-221z" />
<glyph unicode="&#x201c;" horiz-adv-x="1150" d="M143 911l211 523h221l-110 -523h-322zM616 911l211 523h222l-111 -523h-322z" />
<glyph unicode="&#x201d;" horiz-adv-x="1150" d="M102 911l111 523h322l-211 -523h-222zM575 911l111 523h322l-211 -523h-222z" />
<glyph unicode="&#x201e;" horiz-adv-x="1150" d="M102 -358l111 522h322l-211 -522h-222zM575 -358l111 522h322l-211 -522h-222z" />
<glyph unicode="&#x2022;" horiz-adv-x="614" d="M137 907q0 78 54.5 133.5t138.5 55.5t138 -55.5t54 -133.5t-54 -133t-138 -55t-138.5 55t-54.5 133z" />
<glyph unicode="&#x2026;" horiz-adv-x="1894" d="M137 139q0 78 54.5 133.5t138.5 55.5t138 -55.5t54 -133.5t-54 -133t-138 -55t-138.5 55t-54.5 133zM752 139q0 78 54 133.5t138 55.5t138.5 -55.5t54.5 -133.5t-54.5 -133t-138.5 -55t-138 55t-54 133zM1366 139q0 78 54.5 133.5t138.5 55.5t138 -55.5t54 -133.5 t-54.5 -133t-137.5 -55q-84 0 -138.5 55t-54.5 133z" />
<glyph unicode="&#x202f;" horiz-adv-x="412" />
<glyph unicode="&#x2039;" horiz-adv-x="716" d="M57 522l363 520l192 -131l-309 -381l309 -397l-192 -131z" />
<glyph unicode="&#x203a;" horiz-adv-x="716" d="M104 133l310 381l-310 397l193 131l362 -520l-362 -520z" />
<glyph unicode="&#x205f;" horiz-adv-x="515" />
<glyph unicode="&#x20ac;" horiz-adv-x="1341" d="M82 512v172h125v33q0 33 2 65h-98v172h122q37 154 121 270.5t209 183.5t285 67q82 0 159.5 -22.5t147.5 -61.5v-330q-131 127 -307 127q-106 0 -185 -59.5t-120 -174.5h573v-172h-606q-2 -33 -2 -65v-33h567v-172h-543q37 -131 120 -198.5t196 -67.5q176 0 307 127v-328 q-70 -41 -147.5 -62.5t-159.5 -21.5q-166 0 -293 70.5t-211 194.5t-117 286h-145z" />
<glyph unicode="&#x2122;" horiz-adv-x="1527" d="M61 1278v156h568v-156h-199v-561h-172v561h-197zM631 717l117 753l305 -438l305 438l117 -753h-183l-43 356l-196 -291l-197 291l-43 -356h-182z" />
<glyph unicode="&#x25fc;" horiz-adv-x="942" d="M0 0v942h942v-942h-942z" />
</font>
</defs>
</svg>
