<?xml version="1.0" standalone="no"?>
<!DOCTYPE svg PUBLIC "-//W3C//DTD SVG 1.1//EN" "http://www.w3.org/Graphics/SVG/1.1/DTD/svg11.dtd" >
<svg xmlns="http://www.w3.org/2000/svg" xmlns:xlink="http://www.w3.org/1999/xlink" version="1.1">
<metadata></metadata>
<defs>
<font id="jostsemi" horiz-adv-x="1456" >
<font-face units-per-em="2048" ascent="1638" descent="-410" />
<missing-glyph horiz-adv-x="614" />
<glyph horiz-adv-x="614" />
<glyph horiz-adv-x="614" />
<glyph unicode="&#xd;" horiz-adv-x="614" />
<glyph unicode=" "  horiz-adv-x="614" />
<glyph unicode="&#x09;" horiz-adv-x="614" />
<glyph unicode="&#xa0;" horiz-adv-x="614" />
<glyph unicode="!" horiz-adv-x="675" d="M170 113q0 68 48 111.5t120 43.5t120 -44t48 -111q0 -68 -48 -112t-120 -44t-120 44t-48 112zM174 1434h328l-60 -981h-209z" />
<glyph unicode="&#x22;" horiz-adv-x="1026" d="M137 793l94 641h287l-207 -641h-174zM551 793l92 641h287l-205 -641h-174z" />
<glyph unicode="#" horiz-adv-x="1327" d="M72 371v211h204l70 280h-192v211h243l86 361h234l-88 -361h241l88 361h232l-86 -361h151v-211h-202l-70 -280h191v-211h-242l-90 -371h-232l90 371h-241l-90 -371h-234l90 371h-153zM498 573h260l71 297h-258z" />
<glyph unicode="$" horiz-adv-x="1247" d="M82 352l215 146q70 -133 152.5 -205t203.5 -72q100 0 148.5 44t48.5 126q0 68 -43 112t-112.5 75.5t-153.5 64.5q-53 18 -119 51t-125 84t-97 125t-38 176q0 90 48 167t133 130.5t198 69.5l-6 229h221l-4 -229q152 -27 243.5 -113t141.5 -182l-224 -133 q-45 88 -109.5 148.5t-156.5 60.5q-96 0 -140 -42t-44 -110q0 -66 46 -106.5t121 -70.5t163 -62q90 -33 173 -87.5t137 -139.5t54 -212q0 -172 -107.5 -279.5t-299.5 -131.5l6 -215h-221l6 217q-156 29 -279 129t-180 235z" />
<glyph unicode="%" horiz-adv-x="1775" d="M53 1104q0 100 48.5 183t131 131t189.5 48q106 0 189 -48t130 -131t47 -183t-47 -182t-130 -131.5t-189 -49.5t-189 49.5t-131.5 131.5t-48.5 182zM231 0l1045 1434h268l-1044 -1434h-269zM274 1104q0 -61 40 -107.5t108 -46.5q66 0 105.5 46t39.5 108q0 63 -40 109.5 t-105 46.5q-68 0 -108 -46.5t-40 -109.5zM985 330q0 100 48 183t131 131t190 48q106 0 189 -48t130 -131t47 -183t-47 -182t-130 -131.5t-189 -49.5t-189.5 49.5t-131.5 131.5t-48 182zM1206 330q0 -61 40 -107.5t108 -46.5q66 0 105.5 46t39.5 108q0 63 -40 108t-105 45 q-68 0 -108 -45t-40 -108z" />
<glyph unicode="&#x26;" horiz-adv-x="1490" d="M82 381q0 119 54 197.5t135 131t161 87.5q-43 45 -84 94t-68.5 106.5t-27.5 122.5q0 92 51 171t143.5 126t219.5 47q125 0 212 -48t133 -126t46 -164q0 -119 -74 -199.5t-213 -172.5l283 -310q51 53 98 113.5t90 124.5l182 -133q-49 -70 -103 -138.5t-118 -131.5 l252 -279h-305l-117 131q-100 -70 -215 -113t-248 -43q-131 0 -242.5 49.5t-178 139.5t-66.5 217zM360 403q0 -88 66 -144t176 -56q72 0 142.5 24.5t136.5 69.5l-310 344q-84 -41 -147.5 -93.5t-63.5 -144.5zM512 1108q0 -51 37 -101.5t92 -109.5q170 104 170 209 q0 59 -39 101t-108 42q-74 0 -113 -42t-39 -99z" />
<glyph unicode="'" horiz-adv-x="614" d="M137 793l94 641h287l-207 -641h-174z" />
<glyph unicode="(" horiz-adv-x="677" d="M154 594q0 262 60 518t183 485h242q-106 -229 -161.5 -485t-55.5 -518q0 -260 55 -516t162 -488h-242q-123 231 -183 487.5t-60 516.5z" />
<glyph unicode=")" horiz-adv-x="677" d="M39 -410q109 231 164 487.5t55 516.5q0 262 -55.5 518t-163.5 485h242q123 -229 183 -485t60 -518q0 -260 -60 -516.5t-183 -487.5h-242z" />
<glyph unicode="*" horiz-adv-x="1212" d="M135 1004l74 229l315 -143l-39 344h242l-39 -344l316 143l73 -229l-340 -70l236 -254l-197 -141l-170 301l-170 -301l-196 141l235 254z" />
<glyph unicode="+" horiz-adv-x="1343" d="M133 414v256h402v411h274v-411h401v-256h-401v-412h-274v412h-402z" />
<glyph unicode="," horiz-adv-x="653" d="M84 -305l180 530l264 -65l-247 -512z" />
<glyph unicode="-" horiz-adv-x="448" d="M10 371v231h428v-231h-428z" />
<glyph unicode="." horiz-adv-x="645" d="M156 121q0 68 47 117t121 49q72 0 120 -49.5t48 -116.5q0 -68 -48.5 -116t-119.5 -48q-74 0 -121 48t-47 116z" />
<glyph unicode="/" horiz-adv-x="1185" d="M31 -307l868 1741h256l-860 -1741h-264z" />
<glyph unicode="0" horiz-adv-x="1316" d="M82 717q0 227 72.5 394t202.5 257t300 90q176 0 305.5 -90t201 -257t71.5 -394t-71.5 -394t-200.5 -257.5t-306 -90.5q-170 0 -300 90.5t-202.5 257.5t-72.5 394zM367 717q0 -145 35.5 -255t101 -170.5t153.5 -60.5q90 0 156 60.5t101.5 170t35.5 255.5 q0 145 -35.5 254.5t-101 170t-156.5 60.5q-88 0 -153.5 -60.5t-101 -170t-35.5 -254.5z" />
<glyph unicode="1" horiz-adv-x="1005" d="M145 1061v264l629 133v-1458h-285v1151z" />
<glyph unicode="2" horiz-adv-x="1288" d="M41 0l651 680q82 88 128 161.5t46 157.5q0 78 -56 141.5t-165 63.5q-113 0 -178.5 -78.5t-65.5 -210.5h-286q0 154 61.5 277t181 195.5t293.5 72.5q129 0 225.5 -40t161 -105.5t97 -143t32.5 -153.5q0 -115 -55 -216.5t-145 -180.5l-373 -353h600v-268h-1153z" />
<glyph unicode="3" horiz-adv-x="1222" d="M104 432h291q0 -104 71 -161.5t171 -57.5t162.5 52t62.5 153q0 102 -81 161.5t-232 59.5v201q125 0 198.5 62.5t73.5 146.5q0 76 -45 123t-135 47q-86 0 -144.5 -52.5t-58.5 -132.5h-272q0 121 60.5 217.5t167 151.5t247.5 55q150 0 255 -53t160.5 -142t55.5 -196 q0 -111 -66.5 -190.5t-179.5 -124.5q131 -43 209 -132.5t78 -232.5q0 -123 -64.5 -217t-182 -146.5t-277.5 -52.5q-164 0 -281 63.5t-180.5 169t-63.5 228.5z" />
<glyph unicode="4" horiz-adv-x="1355" d="M33 264l821 1170h199v-920h225v-250h-225v-264h-301v264h-719zM438 483h338v484z" />
<glyph unicode="5" horiz-adv-x="1269" d="M80 197l137 227q74 -78 172 -129t191 -51q137 0 213.5 63.5t76.5 181.5q0 78 -39.5 131.5t-106.5 81t-144 27.5q-90 0 -186.5 -20.5t-205.5 -81.5l197 807h780v-254h-563l-86 -295q55 27 114.5 39t123.5 12q117 0 215 -57.5t158.5 -164t60.5 -251.5q0 -127 -47 -218 t-127 -151.5t-178.5 -89.5t-202.5 -29q-199 0 -331 65.5t-222 156.5z" />
<glyph unicode="6" horiz-adv-x="1310" d="M102 494q0 106 41 197t103 169l434 570h371l-418 -492q31 12 64.5 16t74.5 4q111 0 210 -57t162.5 -161.5t63.5 -245.5q0 -168 -73.5 -285t-199.5 -177.5t-280 -60.5t-278.5 60.5t-199.5 177.5t-75 285zM389 494q0 -121 77 -196t189 -75q115 0 191 75t76 196t-76 196.5 t-191 75.5q-113 0 -189.5 -75.5t-76.5 -196.5z" />
<glyph unicode="7" horiz-adv-x="1185" d="M61 1159v275h1119l-691 -1434h-315l576 1159h-689z" />
<glyph unicode="8" horiz-adv-x="1232" d="M109 389q0 143 76.5 234.5t187.5 138.5q-94 43 -153.5 125t-59.5 200q0 115 61.5 199t164.5 130t230 46q125 0 229.5 -46t166 -130t61.5 -199q0 -119 -60.5 -200.5t-152.5 -124.5q109 -47 186.5 -138.5t77.5 -234.5q0 -125 -69.5 -219t-185 -146.5t-253.5 -52.5 q-137 0 -252.5 52.5t-185 146.5t-69.5 219zM397 432q0 -106 65.5 -162.5t153.5 -56.5t154 56.5t66 162.5q0 59 -31 108.5t-81 78t-108 28.5q-59 0 -108 -28.5t-80 -78t-31 -108.5zM434 1059q0 -82 53.5 -133.5t128.5 -51.5q76 0 128.5 51.5t52.5 133.5t-50.5 133t-130.5 51 t-131 -51t-51 -133z" />
<glyph unicode="9" horiz-adv-x="1310" d="M102 940q0 168 75 284.5t200 177t278 60.5q154 0 280 -60.5t199.5 -177t73.5 -284.5q0 -106 -41 -197.5t-100 -169.5l-436 -569h-371l418 492q-29 -12 -62.5 -16.5t-76.5 -4.5q-109 0 -209.5 57.5t-164 162t-63.5 245.5zM389 940q0 -121 77 -196.5t189 -75.5 q115 0 191 75.5t76 196.5t-76 195.5t-191 74.5q-113 0 -189.5 -74.5t-76.5 -195.5z" />
<glyph unicode=":" horiz-adv-x="645" d="M156 121q0 68 47 117t121 49q72 0 120 -49.5t48 -116.5q0 -68 -48.5 -116t-119.5 -48q-74 0 -121 48t-47 116zM156 891q0 68 47 117t121 49q72 0 120 -49.5t48 -116.5q0 -68 -48.5 -117t-119.5 -49q-74 0 -121 49t-47 117z" />
<glyph unicode=";" horiz-adv-x="763" d="M115 -305l180 530l264 -65l-248 -512zM248 883q0 68 47 116t121 48q72 0 120 -48.5t48 -115.5q0 -68 -48.5 -117t-119.5 -49q-74 0 -121 49t-47 117z" />
<glyph unicode="&#x3c;" horiz-adv-x="1310" d="M133 451v172l1045 440v-260l-658 -258l658 -277v-260z" />
<glyph unicode="=" horiz-adv-x="1275" d="M121 207v233h1034v-233h-1034zM121 594v233h1034v-233h-1034z" />
<glyph unicode="&#x3e;" horiz-adv-x="1310" d="M133 8v260l658 260l-658 275v260l1045 -440v-172z" />
<glyph unicode="?" horiz-adv-x="1239" d="M104 1208q98 121 218 189.5t305 68.5q131 0 244.5 -54t183 -153.5t69.5 -234.5q0 -123 -62.5 -216t-162.5 -149.5t-211 -70.5l-12 -197h-211l-41 365h63q123 0 205 42t124 104.5t42 121.5q0 102 -67.5 158.5t-184.5 56.5q-96 0 -178 -46t-137 -130zM406 109q0 61 48 106 t119 45q72 0 120 -45t48 -106t-48 -106.5t-120 -45.5t-119.5 45.5t-47.5 106.5z" />
<glyph unicode="@" horiz-adv-x="1576" d="M49 655q0 172 59.5 320.5t166 259.5t253 174.5t322.5 63.5q164 0 291 -57.5t213 -155t130 -217t44 -244.5q0 -182 -58.5 -292t-147.5 -159t-179 -49q-80 0 -139.5 48t-73.5 122q-47 -74 -113.5 -112t-144.5 -38q-121 0 -198 86.5t-77 237.5q0 143 53.5 241.5t134.5 149.5 t163 51q68 0 117.5 -34.5t82.5 -89.5l13 104h213l-64 -447q-4 -29 -4 -55q0 -37 12 -61.5t49 -24.5q27 0 65 29t66.5 98.5t28.5 194.5q0 131 -53 243.5t-158.5 180t-265.5 67.5q-184 0 -318.5 -83t-208 -226t-73.5 -326q0 -238 133 -377t383 -139q106 0 200.5 22.5 t186.5 74.5l76 -164q-92 -53 -206 -84t-275 -31q-227 0 -383 90t-236 247.5t-80 360.5zM614 655q0 -74 30 -113.5t87 -39.5q41 0 82 27.5t68.5 83t27.5 137.5q0 76 -33.5 114.5t-87.5 38.5q-68 0 -121 -71t-53 -177z" />
<glyph unicode="A" d="M2 0l727 1518l727 -1518h-332l-149 326h-494l-149 -326h-330zM551 557h356l-178 412z" />
<glyph unicode="B" horiz-adv-x="1292" d="M156 0v1434h477q141 0 250.5 -40t171 -121t61.5 -202q0 -106 -57.5 -181t-157.5 -116q129 -39 213 -129t84 -237q0 -141 -66.5 -231.5t-187.5 -133.5t-280 -43h-508zM449 233h188q111 0 185.5 49.5t74.5 161.5q0 106 -74.5 154.5t-185.5 48.5h-188v-414zM449 860h157 q94 0 151.5 45t57.5 127t-56.5 125t-152.5 43h-157v-340z" />
<glyph unicode="C" horiz-adv-x="1425" d="M74 717q0 166 56 302t159.5 235.5t244 153.5t304.5 54q158 0 261 -39t191 -108v-330q-72 82 -179 139.5t-259 57.5q-123 0 -228.5 -56.5t-169 -161t-63.5 -247.5t63.5 -247.5t169 -161t228.5 -56.5q152 0 259.5 57.5t178.5 139.5v-330q-88 -70 -191.5 -109t-260.5 -39 q-164 0 -304.5 54.5t-244 154t-159.5 235.5t-56 302z" />
<glyph unicode="D" horiz-adv-x="1466" d="M156 0v1434h487q225 0 394 -88.5t263.5 -249t94.5 -379.5t-94.5 -380t-263.5 -249t-394 -88h-487zM455 266h178q127 0 231.5 47t167 146.5t62.5 257.5t-62.5 257t-167 146t-231.5 47h-178v-901z" />
<glyph unicode="E" horiz-adv-x="1200" d="M156 0v1434h911v-248h-629v-303h588v-244h-588v-391h629v-248h-911z" />
<glyph unicode="F" horiz-adv-x="1097" d="M156 0v1434h829v-256h-547v-322h527v-244h-527v-612h-282z" />
<glyph unicode="G" horiz-adv-x="1642" d="M74 717q0 168 57 304t162.5 235.5t247 152.5t307.5 53q219 0 375.5 -90t255.5 -237l-250 -146q-53 94 -147.5 152.5t-233.5 58.5q-129 0 -235.5 -58.5t-169 -167t-62.5 -257.5q0 -150 60.5 -260.5t167 -172t239.5 -61.5q176 0 277.5 90t136.5 219h-410v234h707 q1 -19 1 -38q0 -143 -40 -272q-45 -145 -137.5 -256.5t-228.5 -175t-314 -63.5q-166 0 -306.5 55.5t-244 155.5t-159.5 238.5t-56 306.5z" />
<glyph unicode="H" horiz-adv-x="1564" d="M156 0v1434h293v-539h669v539h293v-1434h-293v631h-669v-631h-293z" />
<glyph unicode="I" horiz-adv-x="606" d="M156 0v1434h297v-1434h-297z" />
<glyph unicode="J" horiz-adv-x="618" d="M-301 -367l158 211q27 -31 70.5 -50t92.5 -19q45 0 90.5 37.5t45.5 134.5v1487h307v-1549q0 -129 -56.5 -208.5t-151.5 -116.5t-214 -37q-109 0 -201 37t-141 73z" />
<glyph unicode="K" horiz-adv-x="1347" d="M156 0v1434h301v-582l510 582h348l-594 -672l625 -762h-357l-532 649v-649h-301z" />
<glyph unicode="L" horiz-adv-x="1032" d="M156 0v1434h293v-1178h571v-256h-864z" />
<glyph unicode="M" horiz-adv-x="1773" d="M74 0l213 1505l600 -925l600 925l213 -1505h-305l-92 805l-416 -672l-416 672l-92 -805h-305z" />
<glyph unicode="N" horiz-adv-x="1613" d="M156 0v1505l1020 -958v887h282v-1506l-1020 959v-887h-282z" />
<glyph unicode="O" horiz-adv-x="1660" d="M74 717q0 164 57 300t159.5 236.5t241 154.5t299.5 54q162 0 300.5 -54t241 -154.5t159.5 -236.5t57 -300t-56 -301t-158.5 -239.5t-241 -159t-302.5 -56.5q-166 0 -304 56.5t-240.5 159t-157.5 239.5t-55 301zM383 717q0 -137 56.5 -243.5t157.5 -168t234 -61.5 q131 0 232.5 61.5t158 168t56.5 243.5t-55.5 243.5t-155.5 168t-236 61.5q-133 0 -234 -61.5t-157.5 -168t-56.5 -243.5z" />
<glyph unicode="P" horiz-adv-x="1226" d="M156 0v1434h462q254 0 395.5 -123t141.5 -334t-141.5 -334t-395.5 -123h-169v-520h-293zM449 768h169q115 0 183.5 53t68.5 156q0 102 -68.5 155.5t-183.5 53.5h-169v-418z" />
<glyph unicode="Q" horiz-adv-x="1722" d="M74 717q0 164 57 300t161.5 236.5t243 154.5t300.5 54q164 0 301 -54t238.5 -154.5t157.5 -236.5t56 -300q0 -133 -38 -251t-107 -212l285 -272h-326l-119 114q-92 -63 -205.5 -99t-242.5 -36q-166 0 -305.5 56.5t-242 159t-158.5 239.5t-56 301zM383 717 q0 -145 62.5 -256t169 -172.5t237.5 -61.5t235 58l-342 329h318l180 -172q61 109 62 248q0 137 -57.5 251t-163 181.5t-248.5 67.5q-133 0 -234.5 -61.5t-160 -168t-58.5 -243.5z" />
<glyph unicode="R" horiz-adv-x="1269" d="M156 0v1434h481q252 0 393 -126t141 -331q0 -152 -78.5 -262.5t-224.5 -159.5l389 -555h-346l-336 520h-126v-520h-293zM449 754h169q115 0 183.5 56t68.5 159q0 102 -68.5 158.5t-183.5 56.5h-169v-430z" />
<glyph unicode="S" horiz-adv-x="1230" d="M72 334l209 147q68 -121 156.5 -192.5t203.5 -71.5q88 0 143.5 45t55.5 123q0 66 -34 108t-100.5 73.5t-162.5 68.5q-53 18 -119 50t-125 82t-98 124t-39 174q0 123 62.5 212t170 137t240.5 48q135 0 235.5 -46t167 -116.5t103.5 -146.5l-230 -127q-45 78 -111.5 132 t-164.5 54q-86 0 -129 -39.5t-43 -93.5q0 -80 80 -133t241 -108q92 -33 175 -88.5t135.5 -140.5t52.5 -208q0 -139 -71.5 -237t-186.5 -150.5t-244 -52.5q-131 0 -244.5 51t-197.5 135t-131 187z" />
<glyph unicode="T" horiz-adv-x="1087" d="M12 1169v265h1065v-265h-387v-1169h-293v1169h-385z" />
<glyph unicode="U" horiz-adv-x="1386" d="M145 471v963h293v-945q0 -123 64.5 -197.5t191.5 -74.5t191.5 75t64.5 197v945h293v-963q0 -168 -71.5 -283.5t-195.5 -175t-282 -59.5t-281.5 59.5t-195.5 175t-72 283.5z" />
<glyph unicode="V" d="M2 1434h338l389 -934l387 934h340l-727 -1518z" />
<glyph unicode="W" horiz-adv-x="2131" d="M12 1434h344l312 -891l399 962l403 -962l308 891h344l-604 -1514l-451 942l-453 -942z" />
<glyph unicode="X" horiz-adv-x="1320" d="M12 0l484 739l-433 695h359l246 -451l252 451h358l-440 -695l471 -739h-359l-284 514l-295 -514h-359z" />
<glyph unicode="Y" horiz-adv-x="1288" d="M2 1434h334l307 -578l309 578h334l-493 -840v-594h-297v592z" />
<glyph unicode="Z" horiz-adv-x="1220" d="M23 0l694 1169h-615v265h1088l-703 -1178h639v-256h-1103z" />
<glyph unicode="[" horiz-adv-x="702" d="M193 -451v2048h469v-233h-207v-1581h207v-234h-469z" />
<glyph unicode="\" horiz-adv-x="1097" d="M31 1434h262l774 -1434h-260z" />
<glyph unicode="]" horiz-adv-x="702" d="M41 -217h207v1581h-207v233h469v-2048h-469v234z" />
<glyph unicode="^" horiz-adv-x="1044" d="M98 924l348 530h152l348 -530h-241l-183 290l-182 -290h-242z" />
<glyph unicode="_" horiz-adv-x="1067" d="M0 -131h1067v-170h-1067v170z" />
<glyph unicode="`" horiz-adv-x="768" d="M123 1343l211 99l307 -328l-149 -78z" />
<glyph unicode="a" horiz-adv-x="1067" d="M53 279q0 137 96.5 216.5t272.5 79.5q90 0 159.5 -19t114.5 -44v100q0 78 -51 113t-137 35q-66 0 -125 -15.5t-103.5 -35t-62.5 -33.5l-98 180q74 37 180.5 74t237.5 37q121 0 214 -35t147 -102.5t54 -161.5v-668h-256v129q-43 -74 -130 -111.5t-181 -37.5 q-90 0 -166 34.5t-121 101t-45 163.5zM319 293q0 -63 44.5 -97t111.5 -34q90 0 155.5 56t65.5 159q-90 43 -200 43q-92 0 -134.5 -34t-42.5 -93z" />
<glyph unicode="b" horiz-adv-x="1232" d="M125 0v1597h266v-809q111 174 322 175q119 0 222 -57.5t166.5 -167t63.5 -267.5t-63.5 -267.5t-167 -166.5t-221.5 -57q-211 0 -322 174v-154h-266zM391 471q0 -86 36 -147.5t92 -93t116 -31.5q104 0 180 72.5t76 199.5t-76 199.5t-180 72.5q-59 0 -115.5 -31.5 t-92.5 -93t-36 -147.5z" />
<glyph unicode="c" horiz-adv-x="1001" d="M61 471q0 147 69 258t187.5 172.5t270.5 61.5q104 0 183 -27t128 -68v-272q-39 68 -122 108.5t-171 40.5q-78 0 -139 -35.5t-98 -98t-37 -140.5q0 -125 80 -199.5t194 -74.5q94 0 174 41t119 110v-272q-49 -45 -128 -70.5t-183 -25.5q-152 0 -270.5 61t-187.5 172 t-69 258z" />
<glyph unicode="d" horiz-adv-x="1232" d="M68 471q0 158 63.5 267.5t166.5 167t222 57.5q211 0 322 -175v809h266v-1597h-266v154q-111 -174 -322 -174q-119 0 -222 57t-166.5 166.5t-63.5 267.5zM342 471q0 -127 76 -199.5t180 -72.5q59 0 115.5 31.5t92.5 93t36 147.5t-36 147.5t-92.5 93t-115.5 31.5 q-104 0 -180 -72.5t-76 -199.5z" />
<glyph unicode="e" horiz-adv-x="1136" d="M68 471q0 150 62.5 260.5t177 171t270.5 60.5q233 0 361 -126t128 -354q0 -47 -4 -71h-725q12 -111 74.5 -170.5t165.5 -59.5q174 0 253 135l232 -71q-150 -266 -488 -266q-156 0 -269 60t-175.5 171t-62.5 260zM342 575h440q-8 92 -63.5 146.5t-145.5 54.5 q-193 0 -231 -201z" />
<glyph unicode="f" horiz-adv-x="667" d="M51 719v223h111v348q0 162 83 249t244 87q94 0 150.5 -32.5t85.5 -63.5l-113 -199q-20 31 -44.5 42t-51.5 11q-47 0 -72.5 -35.5t-25.5 -117.5v-289h223v-223h-223v-719h-256v719h-111z" />
<glyph unicode="g" horiz-adv-x="1224" d="M68 479q0 158 63.5 265.5t166.5 163t222 55.5q211 0 322 -168v147h256v-922q0 -176 -68.5 -287.5t-183.5 -163.5t-250 -52q-248 0 -373 115.5t-137 301.5h260q4 -92 69.5 -145t172.5 -53q100 0 177 69.5t77 214.5v146q-111 -168 -322 -168q-119 0 -222 55.5t-166.5 163 t-63.5 262.5zM342 479q0 -127 76 -194.5t180 -67.5q59 0 115.5 29.5t92.5 88t36 144.5q0 88 -36 146.5t-92.5 88t-115.5 29.5q-104 0 -180 -68.5t-76 -195.5z" />
<glyph unicode="h" horiz-adv-x="1136" d="M131 0v1597h266v-790q41 76 113 121t172 45q166 0 245 -92.5t79 -268.5v-612h-267v573q0 94 -35.5 143.5t-119.5 49.5t-135.5 -52t-51.5 -141v-573h-266z" />
<glyph unicode="i" horiz-adv-x="555" d="M119 1307q0 66 46 107.5t114 41.5q66 0 111.5 -42t45.5 -107q0 -66 -46 -108t-111 -42q-68 0 -114 42t-46 108zM147 0v942h259v-942h-259z" />
<glyph unicode="j" horiz-adv-x="542" d="M-172 -381l115 199q37 -51 96 -51q98 0 98 153v1022h256v-1083q0 -154 -84 -245t-246 -91q-90 0 -145 29.5t-90 66.5zM102 1307q0 66 46.5 107.5t113.5 41.5q66 0 112 -42t46 -107q0 -66 -46 -108t-112 -42q-68 0 -114 42t-46 108z" />
<glyph unicode="k" horiz-adv-x="1093" d="M125 0v1597h256v-987l346 332h317l-405 -389l446 -553h-315l-389 479v-479h-256z" />
<glyph unicode="l" horiz-adv-x="528" d="M131 0v1597h266v-1597h-266z" />
<glyph unicode="m" horiz-adv-x="1654" d="M131 0v942h256v-139q41 78 108.5 119t161.5 41q209 0 271 -162q104 162 297 162q158 0 228.5 -94.5t70.5 -266.5v-602h-267v573q0 193 -139 193q-74 0 -119 -49t-45 -144v-573h-264v573q0 193 -139 193q-74 0 -119 -49t-45 -144v-573h-256z" />
<glyph unicode="n" horiz-adv-x="1144" d="M131 0v942h266v-143q43 80 114 122t171 42q166 0 249 -95.5t83 -265.5v-602h-275v573q0 94 -36.5 143.5t-118.5 49.5q-84 0 -135.5 -51t-51.5 -142v-573h-266z" />
<glyph unicode="o" horiz-adv-x="1179" d="M68 471q0 147 68.5 258t186 172.5t267.5 61.5t267.5 -61.5t186 -172.5t68.5 -258t-68.5 -258t-186.5 -172t-267 -61q-150 0 -267.5 61t-186 172t-68.5 258zM338 471q0 -121 73.5 -194.5t178.5 -73.5q104 0 178 73.5t74 194.5t-74 194.5t-178 73.5t-178 -73.5t-74 -194.5z " />
<glyph unicode="p" horiz-adv-x="1232" d="M125 -451v1393h266v-154q49 86 131 134.5t191 48.5q119 0 222 -57.5t166.5 -169t63.5 -273.5t-63.5 -273.5t-167 -169t-221.5 -57.5q-109 0 -191 48.5t-131 134.5v-605h-266zM391 471q0 -86 36 -145.5t92 -89t116 -29.5q104 0 180 68.5t76 195.5t-76 195.5t-180 68.5 q-59 0 -115.5 -29.5t-92.5 -89t-36 -145.5z" />
<glyph unicode="q" horiz-adv-x="1232" d="M68 471q0 162 63.5 273.5t166.5 169t222 57.5q109 0 191 -48.5t131 -134.5v154h266v-1393h-266v605q-49 -86 -131 -134.5t-191 -48.5q-119 0 -222 57.5t-166.5 169t-63.5 273.5zM342 471q0 -127 76 -195.5t180 -68.5q59 0 115.5 29.5t92.5 89t36 145.5t-36 145.5 t-92.5 89t-115.5 29.5q-104 0 -180 -68.5t-76 -195.5z" />
<glyph unicode="r" horiz-adv-x="798" d="M131 0v942h260v-115q43 63 102.5 100.5t122.5 37.5q51 0 97.5 -19.5t74.5 -54.5l-120 -225q-27 25 -54.5 38t-68.5 13q-76 0 -115 -58.5t-39 -158.5v-500h-260z" />
<glyph unicode="s" horiz-adv-x="899" d="M49 160l129 166q88 -84 161 -120t134 -36q53 0 82 24.5t29 63.5q0 55 -52.5 86t-154.5 66q-66 23 -127.5 57.5t-101 90.5t-39.5 144q0 84 45 142.5t121.5 88.5t170.5 30q119 0 217.5 -44.5t165.5 -109.5l-116 -164q-51 53 -122 89t-138 36q-45 0 -71 -17.5t-26 -52.5 q0 -49 57.5 -76.5t151.5 -64.5q76 -29 140.5 -63.5t103.5 -89t39 -140.5q0 -141 -92 -220t-254 -79q-150 0 -262.5 57.5t-190.5 135.5z" />
<glyph unicode="t" horiz-adv-x="602" d="M10 719v223h162v328h256v-328h164v-223h-164v-719h-256v719h-162z" />
<glyph unicode="u" horiz-adv-x="1144" d="M131 340v602h275v-573q0 -92 36.5 -142.5t118.5 -50.5q86 0 137.5 51.5t51.5 141.5v573h264v-942h-264v143q-45 -80 -115 -121.5t-170 -41.5q-168 0 -251 96t-83 264z" />
<glyph unicode="v" horiz-adv-x="1024" d="M-4 942h285l231 -567l231 567h285l-516 -1040z" />
<glyph unicode="w" horiz-adv-x="1507" d="M-8 942h282l207 -522l267 594l276 -598l209 526h280l-460 -1005l-303 600l-295 -600z" />
<glyph unicode="x" horiz-adv-x="1017" d="M0 0l373 485l-353 457h304l188 -272l193 272h292l-348 -457l369 -485h-293l-213 299l-209 -299h-303z" />
<glyph unicode="y" horiz-adv-x="1015" d="M-12 942h295l235 -586l234 586h276l-614 -1393h-273l238 545z" />
<glyph unicode="z" horiz-adv-x="1030" d="M31 0l522 700h-442v242h888l-505 -700h446v-242h-909z" />
<glyph unicode="{" horiz-adv-x="759" d="M84 498v192q59 16 88 62.5t29 162.5v396q0 102 43 164.5t109.5 92t138.5 29.5h165v-213h-71q-45 0 -72 -31.5t-27 -70.5v-278q0 -76 -8 -159t-40.5 -151.5t-110.5 -99.5q78 -31 110.5 -99.5t40.5 -151.5t8 -159v-278q0 -39 27 -71t72 -32h71v-213h-165q-72 0 -138.5 30 t-109.5 93.5t-43 163.5v395q0 117 -29 163t-88 63z" />
<glyph unicode="|" horiz-adv-x="671" d="M205 -440v2048h262v-2048h-262z" />
<glyph unicode="}" horiz-adv-x="759" d="M113 -197h71q47 0 73 32t26 71v278q0 76 8 159t41 151.5t110 99.5q-78 31 -110.5 99.5t-40.5 151.5t-8 159v278q0 39 -26 70.5t-73 31.5h-71v213h168q70 0 136 -29.5t109 -92t43 -164.5v-396q0 -117 29 -162.5t88 -62.5v-192q-59 -16 -88 -62.5t-29 -163.5v-395 q0 -100 -43 -163.5t-109.5 -93.5t-135.5 -30h-168v213z" />
<glyph unicode="~" horiz-adv-x="1177" d="M90 401q0 47 12.5 91.5t47.5 89.5q41 53 99 83.5t148 30.5q66 0 125.5 -25.5t128.5 -74.5q47 -33 84 -50.5t64 -17.5q37 0 55 23.5t18 62.5q0 33 -14 66l221 -10q4 -12 6 -27.5t2 -30.5q0 -45 -10 -93t-43 -89q-41 -51 -92 -77.5t-127 -26.5q-57 0 -116.5 25.5 t-131.5 74.5q-98 70 -172 70q-51 0 -72.5 -30t-21.5 -69q0 -18 3 -30.5t7 -24.5l-215 10q-6 23 -6 49z" />
<glyph unicode="&#xa1;" horiz-adv-x="675" d="M170 842q0 68 48 111.5t120 43.5t120 -43.5t48 -111.5t-48 -113t-120 -45t-120 45t-48 113zM174 -479l59 979h209l60 -979h-328z" />
<glyph unicode="&#xa2;" horiz-adv-x="1187" d="M123 471q0 184 107.5 311t279.5 166l-10 236h223l-10 -223q160 -16 245 -93v-274q-39 61 -115.5 106t-176.5 45q-74 0 -136.5 -34.5t-99.5 -97t-37 -142.5q0 -127 81 -200.5t192 -73.5q100 0 177 45t115 106v-274q-41 -37 -104 -60.5t-141 -31.5l10 -211h-223l8 223 q-172 39 -278.5 166t-106.5 311z" />
<glyph unicode="&#xa3;" horiz-adv-x="1230" d="M113 0q152 158 222.5 286t70.5 277v6h-269v189h189q-45 59 -88 127.5t-43 179.5q0 123 63.5 210t171 133t236.5 46q113 0 198.5 -38t145 -98.5t91.5 -130t36 -134.5l-238 -90q-4 63 -26.5 119.5t-70.5 93t-126 36.5q-80 0 -141.5 -43t-61.5 -139q0 -59 19.5 -104t49 -85 t56.5 -83h303v-189h-239q2 -10 2 -20q0 -86 -40 -164t-102 -137h568v-248h-977z" />
<glyph unicode="&#xa4;" horiz-adv-x="1183" d="M57 199l131 131q-39 59 -61.5 130.5t-22.5 153.5t23 154t61 131l-131 131l119 121l131 -133q59 43 132 65.5t153 22.5q82 0 153.5 -22.5t131.5 -63.5l131 131l118 -121l-131 -131q41 -59 62.5 -131t21.5 -154t-21.5 -153.5t-62.5 -130.5l131 -131l-118 -121l-131 131 q-59 -41 -131 -63.5t-154 -22.5q-80 0 -152.5 22.5t-132.5 65.5l-131 -133zM350 614q0 -111 68.5 -180t173.5 -69q106 0 175 69.5t69 179.5q0 111 -69 180.5t-175 69.5q-104 0 -173 -69.5t-69 -180.5z" />
<glyph unicode="&#xa5;" horiz-adv-x="1312" d="M12 1434h336l307 -578l310 578h333l-405 -686h319v-189h-405v-119h405v-188h-405v-252h-299v252h-416v188h416v119h-416v189h326z" />
<glyph unicode="&#xa6;" horiz-adv-x="671" d="M205 10v527h262v-527h-262zM205 897v526h262v-526h-262z" />
<glyph unicode="&#xa7;" horiz-adv-x="1073" d="M98 184l144 164q57 -80 138 -121t148 -41q129 0 129 84q0 57 -60 86t-144 56q-72 23 -140.5 59.5t-111.5 93t-43 135.5q0 86 51 148.5t137 95.5q-68 37 -119 94.5t-51 153.5q0 92 53.5 154.5t135 94.5t170.5 32q80 0 154.5 -21.5t132 -59.5t81.5 -83l-141 -166 q-39 51 -101.5 78.5t-111.5 27.5q-55 0 -86 -18.5t-31 -52.5q0 -45 65.5 -71t147.5 -52q111 -35 192 -105.5t81 -179.5q0 -94 -46.5 -155.5t-119.5 -94.5q72 -41 122 -102.5t50 -151.5q0 -106 -54.5 -172.5t-143.5 -99.5t-189 -33q-158 0 -271.5 64.5t-167.5 158.5zM408 756 q0 -51 28.5 -82t71.5 -50.5t88 -35.5q33 23 54.5 56.5t21.5 72.5q0 66 -54.5 101.5t-121.5 62.5q-39 -20 -63.5 -50t-24.5 -75z" />
<glyph unicode="&#xa8;" horiz-adv-x="1019" d="M115 1313q0 66 47 107.5t112 41.5q66 0 113 -42t47 -107q0 -66 -47 -109t-113 -43t-112.5 43t-46.5 109zM586 1313q0 66 47 107.5t112 41.5q66 0 113 -42t47 -107q0 -66 -47 -109t-113 -43t-112.5 43t-46.5 109z" />
<glyph unicode="&#xa9;" horiz-adv-x="1638" d="M82 717q0 160 56.5 295t155.5 234.5t234.5 153.5t290.5 54q158 0 292 -54t233.5 -153.5t155.5 -234.5t56 -295t-56 -295t-155.5 -234.5t-233.5 -153.5t-292 -54q-156 0 -291 54t-234 153.5t-155.5 234.5t-56.5 295zM195 717q0 -182 81.5 -325.5t224 -226.5t318.5 -83 q178 0 319.5 83t223.5 226.5t82 325.5t-82 325.5t-223.5 226.5t-319.5 83q-176 0 -318.5 -83t-224 -226.5t-81.5 -325.5zM369 717q0 131 60 232.5t163.5 158.5t234.5 57q94 0 157 -23.5t116 -66.5v-196q-43 47 -107.5 81.5t-154.5 34.5q-117 0 -198 -74.5t-81 -203.5 t81 -204t198 -75q90 0 154.5 35t107.5 82v-197q-53 -43 -115.5 -66.5t-157.5 -23.5q-131 0 -234.5 57.5t-163.5 159t-60 232.5z" />
<glyph unicode="&#xaa;" horiz-adv-x="532" d="M37 1083q0 72 59.5 115t143.5 43q39 0 70.5 -9t54.5 -20v54q0 33 -25 52t-64 19q-51 0 -91 -16.5t-56 -28.5l-49 97q37 18 89 36.5t116 18.5q92 0 149.5 -39t57.5 -111v-352h-127v68q-20 -37 -62.5 -57.5t-95.5 -20.5q-72 0 -121 40t-49 111zM172 1087q0 -29 18.5 -46 t59.5 -17q43 0 79 23.5t36 82.5v13q-43 23 -99 22q-43 0 -68.5 -22.5t-25.5 -55.5z" />
<glyph unicode="&#xab;" horiz-adv-x="1087" d="M63 522l373 508l164 -119l-307 -381l307 -397l-164 -119zM453 522l372 508l164 -119l-307 -381l307 -397l-164 -119z" />
<glyph unicode="&#xac;" horiz-adv-x="1312" d="M133 575v232h1047v-449h-197v217h-850z" />
<glyph unicode="&#xad;" horiz-adv-x="430" d="M10 410v153h410v-153h-410z" />
<glyph unicode="&#xae;" horiz-adv-x="1638" d="M82 717q0 160 56.5 295t155.5 234.5t234.5 153.5t290.5 54q158 0 292 -54t233.5 -153.5t155.5 -234.5t56 -295t-56 -295t-155.5 -234.5t-233.5 -153.5t-292 -54q-156 0 -291 54t-234 153.5t-155.5 234.5t-56.5 295zM195 717q0 -182 81.5 -325.5t224 -226.5t318.5 -83 q178 0 319.5 83t223.5 226.5t82 325.5t-82 325.5t-223.5 226.5t-319.5 83q-176 0 -318.5 -83t-224 -226.5t-81.5 -325.5zM532 307v860h289q152 0 237 -74.5t85 -189.5q0 -94 -50.5 -160.5t-140.5 -95.5l234 -340h-209l-186 322h-82v-322h-177zM709 768h102q68 0 110 31.5 t42 93.5q0 63 -42 94t-110 31h-102v-250z" />
<glyph unicode="&#xaf;" horiz-adv-x="1075" d="M164 1190v231h747v-231h-747z" />
<glyph unicode="&#xb0;" horiz-adv-x="595" d="M37 1225q0 111 73.5 180.5t186.5 69.5t187.5 -70t74.5 -180q0 -111 -74.5 -180.5t-187.5 -69.5t-186.5 69.5t-73.5 180.5zM166 1225q0 -61 38 -98t93 -37t93 36.5t38 98.5q0 59 -38 97t-93 38t-93 -38t-38 -97z" />
<glyph unicode="&#xb1;" horiz-adv-x="1286" d="M133 8v236h1020v-236h-1020zM133 688v244h375v338h270v-338h375v-244h-375v-338h-270v338h-375z" />
<glyph unicode="&#xb2;" horiz-adv-x="796" d="M51 578l391 409q49 51 77 95t28 96q0 47 -32 84.5t-97 37.5q-66 0 -108 -47t-42 -127h-174q0 92 39 166t111.5 118t177.5 44q102 0 169.5 -41t101.5 -103.5t34 -127.5q0 -68 -34 -126.5t-87 -107.5l-223 -209h358v-161h-690z" />
<glyph unicode="&#xb3;" horiz-adv-x="712" d="M41 831h174q0 -63 42 -96t103 -33q59 0 97.5 30t38.5 91t-49.5 97t-139.5 36v121q76 0 120 38t44 89q0 45 -27.5 73t-81.5 28q-51 0 -85.5 -31t-34.5 -80h-164q0 111 79 182.5t205 71.5q135 0 209 -69.5t74 -166.5q0 -66 -40 -113.5t-109 -74.5q80 -25 127 -79t47 -138 q0 -113 -85.5 -182.5t-230.5 -69.5q-96 0 -166.5 39t-108.5 102.5t-38 134.5z" />
<glyph unicode="&#xb4;" horiz-adv-x="768" d="M123 1114l307 328l211 -99l-369 -307z" />
<glyph unicode="&#xb5;" horiz-adv-x="1144" d="M131 -655v1597h275v-539q0 -94 36.5 -143t118.5 -49q86 0 137.5 52t51.5 140v539h264v-942h-264v115q-37 -57 -93.5 -92t-126.5 -35q-37 0 -71.5 8t-71.5 31v-682h-256z" />
<glyph unicode="&#xb6;" horiz-adv-x="1314" d="M123 993q0 143 63.5 240.5t170 149t233.5 51.5h602v-1885h-231v1713h-140v-1713h-231v1004q-127 0 -233.5 51t-170 149.5t-63.5 239.5z" />
<glyph unicode="&#xb7;" horiz-adv-x="645" d="M156 530q0 68 47 117t121 49q72 0 120 -49t48 -117t-48.5 -115.5t-119.5 -47.5q-74 0 -121 47.5t-47 115.5z" />
<glyph unicode="&#xb8;" horiz-adv-x="778" d="M135 -424l86 123q35 -27 74 -39t72 -12q109 0 108 76q0 39 -33.5 53t-83.5 14q-16 0 -60 -6t-91 -29l176 383l195 -6l-162 -244q23 6 57 7q39 0 79 -20.5t68.5 -61.5t28.5 -103q0 -72 -38 -119t-96 -71.5t-120 -24.5q-78 0 -137 17.5t-123 62.5z" />
<glyph unicode="&#xb9;" horiz-adv-x="980" d="M285 1196v160l377 80v-875h-170v690z" />
<glyph unicode="&#xba;" horiz-adv-x="569" d="M39 1188q0 111 73.5 178.5t186.5 67.5t187.5 -68t74.5 -178q0 -111 -74.5 -178.5t-187.5 -67.5t-186.5 67.5t-73.5 178.5zM174 1188q0 -61 37 -97t88 -36q53 0 90 35.5t37 97.5q0 61 -37 97t-90 36q-51 0 -88 -36t-37 -97z" />
<glyph unicode="&#xbb;" horiz-adv-x="1087" d="M100 133l308 381l-308 397l164 119l371 -508l-371 -508zM489 133l308 381l-308 397l164 119l371 -508l-371 -508z" />
<glyph unicode="&#xbc;" horiz-adv-x="1640" d="M53 1196v160l377 80v-875h-172v690zM219 0l1065 1434h176l-1065 -1434h-176zM827 160l494 700h119v-551h135v-149h-135v-160h-180v160h-433zM1069 291h205v291z" />
<glyph unicode="&#xbd;" horiz-adv-x="1781" d="M53 1196v160l377 80v-875h-172v690zM219 0l1065 1434h176l-1065 -1434h-176zM1028 4l389 410q49 51 77 95t28 95q0 47 -31 85t-96 38q-68 0 -110 -47t-42 -127h-172q0 92 38 166t111.5 118t178.5 44q102 0 169.5 -41t100.5 -103.5t33 -128.5q0 -68 -33 -126t-88 -107 l-221 -209h358v-162h-690z" />
<glyph unicode="&#xbe;" horiz-adv-x="1763" d="M55 831h174q0 -63 43 -96t103 -33q59 0 97 30t38 91t-48 97t-140 36v121q76 0 119.5 38t43.5 89q0 45 -26.5 73t-81.5 28q-51 0 -86 -31t-35 -80h-164q0 111 79 182.5t208 71.5q133 0 206.5 -69.5t73.5 -166.5q0 -66 -39.5 -113.5t-109.5 -74.5q80 -25 127 -79t47 -138 q0 -113 -85 -182.5t-230 -69.5q-96 0 -167 39t-109 102.5t-38 134.5zM350 0l1065 1434h178l-1065 -1434h-178zM952 160l492 700h121v-551h135v-149h-135v-160h-183v160h-430zM1194 291h205v291z" />
<glyph unicode="&#xbf;" horiz-adv-x="1239" d="M115 410q0 123 62.5 216t162.5 149t211 71l12 196h211l41 -364h-63q-123 0 -205 -42t-124 -104.5t-42 -121.5q0 -102 67.5 -158.5t184.5 -56.5q96 0 178 46t137 130l187 -146q-98 -121 -218 -189.5t-305 -68.5q-131 0 -244.5 54.5t-183 153.5t-69.5 235zM498 1325 q0 61 48 106.5t120 45.5t120 -45.5t48 -106.5t-48.5 -106t-119.5 -45q-72 0 -120 45t-48 106z" />
<glyph unicode="&#xc0;" d="M2 0l727 1518l727 -1518h-332l-149 326h-494l-149 -326h-330zM418 1948l211 100l307 -328l-150 -80zM551 557h356l-178 412z" />
<glyph unicode="&#xc1;" d="M2 0l727 1518l727 -1518h-332l-149 326h-494l-149 -326h-330zM516 1720l307 328l211 -100l-368 -308zM551 557h356l-178 412z" />
<glyph unicode="&#xc2;" d="M2 0l727 1518l727 -1518h-332l-149 326h-494l-149 -326h-330zM348 1720l381 287l379 -287l-180 -125l-199 181l-199 -181zM551 557h356l-178 412z" />
<glyph unicode="&#xc3;" d="M2 0l727 1518l727 -1518h-332l-149 326h-494l-149 -326h-330zM346 1735q16 74 82 129t154 55q51 0 83.5 -15.5t59.5 -36t56.5 -35.5t72.5 -15q35 0 65.5 27.5t61.5 76.5l129 -131q-16 -39 -54 -77t-90.5 -64.5t-111.5 -26.5q-57 0 -100 26.5t-84 53.5t-90 27 q-39 0 -60.5 -20.5t-30 -45.5t-8.5 -39zM551 557h356l-178 412z" />
<glyph unicode="&#xc4;" d="M2 0l727 1518l727 -1518h-332l-149 326h-494l-149 -326h-330zM299 1722q0 63 46 106.5t114 43.5q66 0 111.5 -43t45.5 -107q0 -66 -46 -108.5t-111 -42.5q-68 0 -114 42.5t-46 108.5zM551 557h356l-178 412zM831 1712q0 66 46.5 109t113.5 43q66 0 112 -43t46 -109 t-46 -107.5t-112 -41.5q-68 0 -114 41.5t-46 107.5z" />
<glyph unicode="&#xc5;" d="M2 0l678 1415q-82 14 -137.5 73.5t-55.5 149.5q0 100 71 163t169 63t171 -62.5t73 -163.5q0 -88 -56.5 -147t-136.5 -76l678 -1415h-332l-149 326h-494l-149 -326h-330zM551 557h356l-178 412zM631 1638q0 -47 29.5 -73.5t66.5 -26.5q39 0 68.5 26.5t29.5 73.5t-29.5 74 t-68.5 27q-37 0 -66.5 -27t-29.5 -74z" />
<glyph unicode="&#xc6;" horiz-adv-x="2142" d="M23 0l872 1434h1104v-248h-602v-303h561v-244h-561v-391h602v-248h-912v346h-501l-201 -346h-362zM741 616h346v594z" />
<glyph unicode="&#xc7;" horiz-adv-x="1425" d="M74 717q0 166 56 302t159.5 235.5t244 153.5t304.5 54q158 0 261 -39t191 -108v-330q-72 82 -179 139.5t-259 57.5q-123 0 -228.5 -56.5t-169 -161t-63.5 -247.5t63.5 -247.5t169 -161t228.5 -56.5q152 0 259.5 57.5t178.5 139.5v-330q-86 -68 -186 -107t-250 -41 l-76 -114q23 6 58 6q39 0 79.5 -20.5t68.5 -61.5t28 -103q0 -72 -38 -118.5t-95.5 -71.5t-120.5 -25q-76 0 -136.5 17.5t-123.5 62.5l86 123q37 -27 74.5 -39t72.5 -12q109 0 109 76q0 39 -35 53t-84 14q-14 0 -59.5 -6t-92.5 -28l121 260q-182 29 -321.5 129t-217 254.5 t-77.5 349.5z" />
<glyph unicode="&#xc8;" horiz-adv-x="1200" d="M156 0v1434h911v-248h-629v-303h588v-244h-588v-391h629v-248h-911zM301 1903l209 98l307 -328l-147 -78z" />
<glyph unicode="&#xc9;" horiz-adv-x="1200" d="M156 0v1434h911v-248h-629v-303h588v-244h-588v-391h629v-248h-911zM399 1673l308 328l211 -98l-369 -308z" />
<glyph unicode="&#xca;" horiz-adv-x="1200" d="M156 0v1434h911v-248h-629v-303h588v-244h-588v-391h629v-248h-911zM242 1712l381 287l378 -287l-180 -127l-198 182l-199 -182z" />
<glyph unicode="&#xcb;" horiz-adv-x="1200" d="M156 0v1434h911v-248h-629v-303h588v-244h-588v-391h629v-248h-911zM227 1759q0 66 47.5 109t112.5 43q66 0 113 -43t47 -109t-47 -107.5t-113 -41.5t-113 41.5t-47 107.5zM698 1759q0 66 47.5 109t112.5 43q66 0 113 -43t47 -109t-47 -107.5t-113 -41.5t-113 41.5 t-47 107.5z" />
<glyph unicode="&#xcc;" horiz-adv-x="606" d="M-16 1903l211 98l307 -328l-150 -78zM156 0v1434h297v-1434h-297z" />
<glyph unicode="&#xcd;" horiz-adv-x="606" d="M84 1673l307 328l209 -98l-369 -308zM156 0v1434h297v-1434h-297z" />
<glyph unicode="&#xce;" horiz-adv-x="606" d="M-78 1712l381 287l381 -287l-182 -127l-199 182l-199 -182zM156 0v1434h297v-1434h-297z" />
<glyph unicode="&#xcf;" horiz-adv-x="606" d="M-90 1737q0 66 46 107.5t112 41.5t112.5 -42t46.5 -107q0 -66 -47 -109t-112 -43q-66 0 -112 43t-46 109zM156 0v1434h297v-1434h-297zM381 1737q0 66 46 107.5t112 41.5t112.5 -42t46.5 -107q0 -66 -47 -109t-112 -43q-66 0 -112 43t-46 109z" />
<glyph unicode="&#xd0;" horiz-adv-x="1466" d="M10 625v188h146v621h487q225 0 394 -88.5t263.5 -249t94.5 -379.5t-94.5 -380t-263.5 -249t-394 -88h-487v625h-146zM455 266h178q127 0 231.5 47t167 146.5t62.5 257.5t-62.5 257t-167 146t-231.5 47h-178v-354h241v-188h-241v-359z" />
<glyph unicode="&#xd1;" horiz-adv-x="1613" d="M156 0v1505l1020 -958v887h282v-1506l-1020 959v-887h-282zM379 1679q16 76 80.5 131.5t154.5 55.5q49 0 83 -15.5t60.5 -36t55.5 -37t72 -16.5q37 0 67.5 29t61.5 78l129 -133q-16 -37 -54 -76t-90.5 -64.5t-111.5 -25.5q-57 0 -100.5 26.5t-84 52t-90.5 25.5 q-41 0 -61.5 -19.5t-28.5 -44t-8 -40.5z" />
<glyph unicode="&#xd2;" horiz-adv-x="1660" d="M74 717q0 164 57 300t159.5 236.5t241 154.5t299.5 54q162 0 300.5 -54t241 -154.5t159.5 -236.5t57 -300t-56 -301t-158.5 -239.5t-241 -159t-302.5 -56.5q-166 0 -304 56.5t-240.5 159t-157.5 239.5t-55 301zM383 717q0 -137 56.5 -243.5t157.5 -168t234 -61.5 q131 0 232.5 61.5t158 168t56.5 243.5t-55.5 243.5t-155.5 168t-236 61.5q-133 0 -234 -61.5t-157.5 -168t-56.5 -243.5zM545 1903l211 98l307 -328l-150 -78z" />
<glyph unicode="&#xd3;" horiz-adv-x="1660" d="M74 717q0 164 57 300t159.5 236.5t241 154.5t299.5 54q162 0 300.5 -54t241 -154.5t159.5 -236.5t57 -300t-56 -301t-158.5 -239.5t-241 -159t-302.5 -56.5q-166 0 -304 56.5t-240.5 159t-157.5 239.5t-55 301zM383 717q0 -137 56.5 -243.5t157.5 -168t234 -61.5 q131 0 232.5 61.5t158 168t56.5 243.5t-55.5 243.5t-155.5 168t-236 61.5q-133 0 -234 -61.5t-157.5 -168t-56.5 -243.5zM621 1673l307 328l211 -98l-369 -308z" />
<glyph unicode="&#xd4;" horiz-adv-x="1660" d="M74 717q0 164 57 300t159.5 236.5t241 154.5t299.5 54q162 0 300.5 -54t241 -154.5t159.5 -236.5t57 -300t-56 -301t-158.5 -239.5t-241 -159t-302.5 -56.5q-166 0 -304 56.5t-240.5 159t-157.5 239.5t-55 301zM383 717q0 -137 56.5 -243.5t157.5 -168t234 -61.5 q131 0 232.5 61.5t158 168t56.5 243.5t-55.5 243.5t-155.5 168t-236 61.5q-133 0 -234 -61.5t-157.5 -168t-56.5 -243.5zM463 1712l381 287l381 -287l-183 -127l-198 182l-199 -182z" />
<glyph unicode="&#xd5;" horiz-adv-x="1660" d="M74 717q0 164 57 300t159.5 236.5t241 154.5t299.5 54q162 0 300.5 -54t241 -154.5t159.5 -236.5t57 -300t-56 -301t-158.5 -239.5t-241 -159t-302.5 -56.5q-166 0 -304 56.5t-240.5 159t-157.5 239.5t-55 301zM383 717q0 -137 56.5 -243.5t157.5 -168t234 -61.5 q131 0 232.5 61.5t158 168t56.5 243.5t-55.5 243.5t-155.5 168t-236 61.5q-133 0 -234 -61.5t-157.5 -168t-56.5 -243.5zM459 1698q14 76 79.5 130t153.5 54q51 0 84 -15.5t59.5 -36t56.5 -35.5t73 -15q35 0 65.5 27.5t61.5 76.5l129 -131q-16 -37 -53.5 -76t-90.5 -65.5 t-112 -26.5q-55 0 -99.5 26.5t-85.5 53.5t-90 27q-39 0 -60.5 -20.5t-29.5 -45t-8 -39.5z" />
<glyph unicode="&#xd6;" horiz-adv-x="1660" d="M74 717q0 164 57 300t159.5 236.5t241 154.5t299.5 54q162 0 300.5 -54t241 -154.5t159.5 -236.5t57 -300t-56 -301t-158.5 -239.5t-241 -159t-302.5 -56.5q-166 0 -304 56.5t-240.5 159t-157.5 239.5t-55 301zM383 717q0 -137 56.5 -243.5t157.5 -168t234 -61.5 q131 0 232.5 61.5t158 168t56.5 243.5t-55.5 243.5t-155.5 168t-236 61.5q-133 0 -234 -61.5t-157.5 -168t-56.5 -243.5zM436 1737q0 66 47 107.5t113 41.5t112 -42t46 -107q0 -66 -46 -109t-112 -43t-113 43t-47 109zM907 1737q0 66 47 107.5t113 41.5t112 -42t46 -107 q0 -66 -46 -109t-112 -43t-113 43t-47 109z" />
<glyph unicode="&#xd7;" horiz-adv-x="1220" d="M106 186l347 336l-347 336l168 168l336 -346l336 346l168 -168l-346 -336l346 -336l-168 -168l-336 347l-336 -347z" />
<glyph unicode="&#xd8;" horiz-adv-x="1617" d="M74 717q0 164 56 300t158.5 236.5t241 154.5t301.5 54q119 0 226.5 -29.5t195.5 -84.5l168 196l140 -98l-175 -205q94 -98 148.5 -232.5t54.5 -291.5q0 -164 -57 -301t-159.5 -239.5t-241 -159t-300.5 -56.5q-123 0 -232.5 33t-199.5 92l-168 -197l-137 99l176 207 q-92 100 -144 233t-52 289zM383 717q0 -170 84 -291l600 702q-104 61 -236 62q-133 0 -234 -60.5t-157.5 -167t-56.5 -245.5zM590 309q104 -66 241 -65q131 0 232.5 60.5t158 167t56.5 245.5q0 174 -86 297z" />
<glyph unicode="&#xd9;" horiz-adv-x="1386" d="M145 471v963h293v-945q0 -123 64.5 -197.5t191.5 -74.5t191.5 75t64.5 197v945h293v-963q0 -168 -71.5 -283.5t-195.5 -175t-282 -59.5t-281.5 59.5t-195.5 175t-72 283.5zM383 1892l211 101l307 -328l-149 -80z" />
<glyph unicode="&#xda;" horiz-adv-x="1386" d="M145 471v963h293v-945q0 -123 64.5 -197.5t191.5 -74.5t191.5 75t64.5 197v945h293v-963q0 -168 -71.5 -283.5t-195.5 -175t-282 -59.5t-281.5 59.5t-195.5 175t-72 283.5zM485 1665l308 328l211 -101l-369 -307z" />
<glyph unicode="&#xdb;" horiz-adv-x="1386" d="M145 471v963h293v-945q0 -123 64.5 -197.5t191.5 -74.5t191.5 75t64.5 197v945h293v-963q0 -168 -71.5 -283.5t-195.5 -175t-282 -59.5t-281.5 59.5t-195.5 175t-72 283.5zM313 1712l381 287l379 -287l-180 -127l-199 182l-198 -182z" />
<glyph unicode="&#xdc;" horiz-adv-x="1386" d="M145 471v963h293v-945q0 -123 64.5 -197.5t191.5 -74.5t191.5 75t64.5 197v945h293v-963q0 -168 -71.5 -283.5t-195.5 -175t-282 -59.5t-281.5 59.5t-195.5 175t-72 283.5zM272 1737q0 66 47.5 107.5t112.5 41.5q66 0 113 -42t47 -107q0 -66 -47 -109t-113 -43t-113 43 t-47 109zM797 1737q0 66 46 107.5t113 41.5q66 0 112 -42t46 -107q0 -66 -46 -109t-112 -43q-68 0 -113.5 43t-45.5 109z" />
<glyph unicode="&#xdd;" horiz-adv-x="1288" d="M2 1434h334l307 -578l309 578h334l-493 -840v-594h-297v592zM436 1665l307 328l211 -101l-368 -307z" />
<glyph unicode="&#xde;" horiz-adv-x="1214" d="M164 0v1434h262v-260h184q254 0 394.5 -121t140.5 -332t-140.5 -332t-394.5 -121h-184v-268h-262zM426 508h184q125 0 197 50t72 163t-72 163t-197 50h-184v-426z" />
<glyph unicode="&#xdf;" horiz-adv-x="1210" d="M111 -4v1171q0 217 133 340t368 123q129 0 232.5 -40t164 -119.5t60.5 -198.5q0 -98 -29.5 -163t-67.5 -110t-68 -86t-30 -92q0 -41 33 -69.5t80 -56t94 -65.5t79 -95.5t32 -145.5q0 -115 -62.5 -209t-165 -149.5t-221.5 -55.5q-86 0 -162.5 28t-127.5 73l73 200 q43 -37 97.5 -58t107.5 -21q82 0 134.5 53t52.5 131q0 61 -33 103t-81 75t-96.5 65.5t-80 73.5t-31.5 103q0 61 29.5 108t68.5 93.5t69 98.5t30 126q0 88 -56.5 127t-140.5 39q-100 0 -160.5 -57.5t-60.5 -184.5l2 -1155h-266z" />
<glyph unicode="&#xe0;" horiz-adv-x="1077" d="M53 260q0 152 114 233.5t292 81.5q76 0 139.5 -18t108.5 -41v109q0 63 -50.5 99t-126.5 36q-102 0 -180.5 -33t-113.5 -53l-97 182q72 37 176.5 74t231.5 37q182 0 299 -78t117 -221v-668h-256v135q-41 -76 -126 -115.5t-192 -39.5q-152 0 -244 74.5t-92 205.5zM203 1397 l211 100l307 -328l-150 -79zM319 281q0 -59 41 -88t115 -29q96 0 164 47t68 166v2q-84 43 -197 43q-92 0 -141.5 -39t-49.5 -102z" />
<glyph unicode="&#xe1;" horiz-adv-x="1077" d="M53 260q0 152 114 233.5t292 81.5q76 0 139.5 -18t108.5 -41v109q0 63 -50.5 99t-126.5 36q-102 0 -180.5 -33t-113.5 -53l-97 182q72 37 176.5 74t231.5 37q182 0 299 -78t117 -221v-668h-256v135q-41 -76 -126 -115.5t-192 -39.5q-152 0 -244 74.5t-92 205.5zM319 281 q0 -59 41 -88t115 -29q96 0 164 47t68 166v2q-84 43 -197 43q-92 0 -141.5 -39t-49.5 -102zM375 1169l307 328l211 -100l-369 -307z" />
<glyph unicode="&#xe2;" horiz-adv-x="1077" d="M53 260q0 152 114 233.5t292 81.5q76 0 139.5 -18t108.5 -41v109q0 63 -50.5 99t-126.5 36q-102 0 -180.5 -33t-113.5 -53l-97 182q72 37 176.5 74t231.5 37q182 0 299 -78t117 -221v-668h-256v135q-41 -76 -126 -115.5t-192 -39.5q-152 0 -244 74.5t-92 205.5zM168 1217 l379 286l381 -286l-183 -127l-198 182l-199 -182zM319 281q0 -59 41 -88t115 -29q96 0 164 47t68 166v2q-84 43 -197 43q-92 0 -141.5 -39t-49.5 -102z" />
<glyph unicode="&#xe3;" horiz-adv-x="1077" d="M53 260q0 152 114 233.5t292 81.5q76 0 139.5 -18t108.5 -41v109q0 63 -50.5 99t-126.5 36q-102 0 -180.5 -33t-113.5 -53l-97 182q72 37 176.5 74t231.5 37q182 0 299 -78t117 -221v-668h-256v135q-41 -76 -126 -115.5t-192 -39.5q-152 0 -244 74.5t-92 205.5zM166 1206 q14 76 79.5 130.5t155.5 54.5q49 0 83 -15.5t60.5 -36t55.5 -36t72 -15.5q37 0 67.5 27.5t61.5 77.5l129 -131q-16 -37 -54 -76t-90.5 -65.5t-113.5 -26.5q-55 0 -98.5 26.5t-84 53t-90.5 26.5q-41 0 -62.5 -20.5t-28.5 -45t-7 -38.5zM319 281q0 -59 41 -88t115 -29 q96 0 164 47t68 166v2q-84 43 -197 43q-92 0 -141.5 -39t-49.5 -102z" />
<glyph unicode="&#xe4;" horiz-adv-x="1077" d="M53 260q0 152 114 233.5t292 81.5q76 0 139.5 -18t108.5 -41v109q0 63 -50.5 99t-126.5 36q-102 0 -180.5 -33t-113.5 -53l-97 182q72 37 176.5 74t231.5 37q182 0 299 -78t117 -221v-668h-256v135q-41 -76 -126 -115.5t-192 -39.5q-152 0 -244 74.5t-92 205.5zM154 1241 q0 63 46 106.5t111 43.5q66 0 113 -43t47 -107q0 -66 -47 -108.5t-113 -42.5t-111.5 42.5t-45.5 108.5zM319 281q0 -59 41 -88t115 -29q96 0 164 47t68 166v2q-84 43 -197 43q-92 0 -141.5 -39t-49.5 -102zM625 1241q0 63 46 106.5t111 43.5q66 0 113 -43t47 -107 q0 -66 -47 -108.5t-113 -42.5t-111.5 42.5t-45.5 108.5z" />
<glyph unicode="&#xe5;" horiz-adv-x="1077" d="M53 260q0 152 114 233.5t292 81.5q76 0 139.5 -18t108.5 -41v109q0 63 -50.5 99t-126.5 36q-102 0 -180.5 -33t-113.5 -53l-97 182q72 37 176.5 74t231.5 37q182 0 299 -78t117 -221v-668h-256v135q-41 -76 -126 -115.5t-192 -39.5q-152 0 -244 74.5t-92 205.5zM305 1317 q0 100 72 163.5t170 63.5t169.5 -63.5t71.5 -163.5q0 -102 -71.5 -164.5t-169.5 -62.5t-170 62.5t-72 164.5zM319 281q0 -59 41 -88t115 -29q96 0 164 47t68 166v2q-84 43 -197 43q-92 0 -141.5 -39t-49.5 -102zM449 1317q0 -47 29.5 -73.5t68.5 -26.5t68.5 26.5t29.5 73.5 t-29.5 73.5t-68.5 26.5t-68.5 -26.5t-29.5 -73.5z" />
<glyph unicode="&#xe6;" horiz-adv-x="1789" d="M53 260q0 141 111.5 228t294.5 87q61 0 119.5 -12t128.5 -41v68q0 170 -177 170q-70 0 -152.5 -24.5t-141.5 -61.5l-97 182q207 111 408 111q279 0 321 -203q63 96 167 147.5t233 51.5q209 0 329.5 -129t120.5 -351q0 -47 -4 -71h-725q25 -229 242 -230q82 0 147.5 35 t104.5 100l233 -71q-156 -266 -489 -266q-281 0 -389 206q-37 -98 -141.5 -152t-258.5 -54q-180 0 -282.5 74.5t-102.5 205.5zM319 281q0 -117 156 -117q199 0 236 174l-2 41q-94 43 -199 43q-190 0 -191 -141zM995 575h441q-8 94 -63.5 147.5t-147.5 53.5t-151.5 -53 t-78.5 -148z" />
<glyph unicode="&#xe7;" horiz-adv-x="1001" d="M61 471q0 147 69 258t187.5 172.5t270.5 61.5q104 0 183 -27t128 -68v-272q-39 68 -122 108.5t-171 40.5q-78 0 -139 -35.5t-98 -98t-37 -140.5q0 -125 80 -199.5t194 -74.5q94 0 174 41t119 110v-272q-49 -43 -124 -68.5t-175 -27.5l-70 -105q23 4 58 4q39 0 79 -20.5 t67.5 -61.5t27.5 -102q0 -70 -37 -118t-94.5 -71.5t-120.5 -23.5q-76 0 -136.5 17.5t-123.5 62.5l86 121q37 -27 75 -38.5t72 -11.5q109 0 109 74q0 39 -35 54.5t-84 15.5q-14 0 -60 -7.5t-91 -27.5l118 254q-168 41 -273.5 167t-105.5 308z" />
<glyph unicode="&#xe8;" horiz-adv-x="1136" d="M68 471q0 27 2 51.5t6 48.5q29 174 157.5 283t344.5 109q233 0 361 -128t128 -352q0 -12 -1 -30.5t-3 -40.5h-725q14 -119 79.5 -174.5t160.5 -55.5q90 0 152.5 36t100.5 99l232 -71q-70 -121 -180.5 -193.5t-307.5 -72.5q-160 0 -273.5 63t-173.5 175t-60 253zM256 1405 l211 100l307 -327l-149 -80zM342 575h440q-10 92 -61.5 146.5t-147.5 54.5q-92 0 -154.5 -53t-76.5 -148z" />
<glyph unicode="&#xe9;" horiz-adv-x="1136" d="M68 471q0 27 2 51.5t6 48.5q29 174 157.5 283t344.5 109q233 0 361 -128t128 -352q0 -12 -1 -30.5t-3 -40.5h-725q14 -119 79.5 -174.5t160.5 -55.5q90 0 152.5 36t100.5 99l232 -71q-70 -121 -180.5 -193.5t-307.5 -72.5q-160 0 -273.5 63t-173.5 175t-60 253zM342 575 h440q-10 92 -61.5 146.5t-147.5 54.5q-92 0 -154.5 -53t-76.5 -148zM406 1178l307 327l211 -100l-369 -307z" />
<glyph unicode="&#xea;" horiz-adv-x="1136" d="M68 471q0 27 2 51.5t6 48.5q29 174 157.5 283t344.5 109q233 0 361 -128t128 -352q0 -12 -1 -30.5t-3 -40.5h-725q14 -119 79.5 -174.5t160.5 -55.5q90 0 152.5 36t100.5 99l232 -71q-70 -121 -180.5 -193.5t-307.5 -72.5q-160 0 -273.5 63t-173.5 175t-60 253zM199 1212 l379 287l380 -287l-182 -127l-198 183l-199 -183zM342 575h440q-10 92 -61.5 146.5t-147.5 54.5q-92 0 -154.5 -53t-76.5 -148z" />
<glyph unicode="&#xeb;" horiz-adv-x="1136" d="M68 471q0 27 2 51.5t6 48.5q29 174 157.5 283t344.5 109q233 0 361 -128t128 -352q0 -12 -1 -30.5t-3 -40.5h-725q14 -119 79.5 -174.5t160.5 -55.5q90 0 152.5 36t100.5 99l232 -71q-70 -121 -180.5 -193.5t-307.5 -72.5q-160 0 -273.5 63t-173.5 175t-60 253zM184 1237 q0 66 46 107.5t112 41.5t113 -41.5t47 -107.5t-47 -109t-113 -43t-112 43t-46 109zM342 575h440q-10 92 -61.5 146.5t-147.5 54.5q-92 0 -154.5 -53t-76.5 -148zM655 1237q0 66 46.5 107.5t111.5 41.5q66 0 113 -41.5t47 -107.5t-47 -109t-113 -43t-112 43t-46 109z" />
<glyph unicode="&#xec;" horiz-adv-x="555" d="M-80 1417l211 99l307 -328l-149 -78zM147 0v942h259v-942h-259z" />
<glyph unicode="&#xed;" horiz-adv-x="555" d="M104 1188l308 328l211 -99l-369 -307zM147 0v942h259v-942h-259z" />
<glyph unicode="&#xee;" horiz-adv-x="555" d="M-104 1225l380 286l381 -286l-182 -127l-199 182l-198 -182zM147 0v942h259v-942h-259z" />
<glyph unicode="&#xef;" horiz-adv-x="555" d="M-117 1272q0 66 46 107.5t114 41.5q66 0 112 -42t46 -107q0 -66 -46 -108t-112 -42q-68 0 -114 42t-46 108zM147 0v942h259v-942h-259zM354 1272q0 66 46 107.5t114 41.5q66 0 112 -42t46 -107q0 -66 -46 -108t-112 -42q-68 0 -114 42t-46 108z" />
<glyph unicode="&#xf0;" horiz-adv-x="1251" d="M102 494q0 137 54.5 241.5t152 163.5t223.5 59q135 0 261 -73q-82 123 -191 239l-264 -88l-35 107l209 71q-92 88 -207 179l191 141q135 -127 241 -244l236 80l35 -108l-189 -64q330 -395 330 -704q0 -152 -68.5 -270t-187 -185.5t-272.5 -67.5q-152 0 -268.5 66.5 t-183.5 184.5t-67 272zM373 471q0 -115 70.5 -190.5t181.5 -75.5t181.5 75.5t70.5 190.5q0 117 -72 192.5t-180 75.5q-109 0 -180.5 -75.5t-71.5 -192.5z" />
<glyph unicode="&#xf1;" horiz-adv-x="1144" d="M131 0v942h266v-131q43 70 116 111t169 41q166 0 249 -92.5t83 -268.5v-602h-275v573q0 94 -35.5 143.5t-119.5 49.5t-135.5 -52t-51.5 -141v-573h-266zM193 1202q14 76 79.5 131.5t153.5 55.5q51 0 84 -16.5t59.5 -36t56 -36t72.5 -16.5q35 0 66 28.5t61 78.5l131 -134 q-16 -37 -55 -75.5t-91 -64t-112 -25.5q-57 0 -100 25.5t-84 52t-90 26.5q-39 0 -60.5 -19.5t-29.5 -44t-8 -40.5z" />
<glyph unicode="&#xf2;" horiz-adv-x="1179" d="M68 471q0 147 68.5 258t186 172.5t267.5 61.5t267.5 -61.5t186 -172.5t68.5 -258t-68.5 -258t-186.5 -172t-267 -61q-150 0 -267.5 61t-186 172t-68.5 258zM262 1417l211 99l307 -328l-149 -78zM338 471q0 -121 73.5 -194.5t178.5 -73.5q104 0 178 73.5t74 194.5 t-74 194.5t-178 73.5t-178 -73.5t-74 -194.5z" />
<glyph unicode="&#xf3;" horiz-adv-x="1179" d="M68 471q0 147 68.5 258t186 172.5t267.5 61.5t267.5 -61.5t186 -172.5t68.5 -258t-68.5 -258t-186.5 -172t-267 -61q-150 0 -267.5 61t-186 172t-68.5 258zM338 471q0 -121 73.5 -194.5t178.5 -73.5q104 0 178 73.5t74 194.5t-74 194.5t-178 73.5t-178 -73.5t-74 -194.5z M399 1188l308 328l211 -99l-369 -307z" />
<glyph unicode="&#xf4;" horiz-adv-x="1179" d="M68 471q0 147 68.5 258t186 172.5t267.5 61.5t267.5 -61.5t186 -172.5t68.5 -258t-68.5 -258t-186.5 -172t-267 -61q-150 0 -267.5 61t-186 172t-68.5 258zM209 1235l381 287l381 -287l-183 -125l-198 180l-199 -180zM338 471q0 -121 73.5 -194.5t178.5 -73.5 q104 0 178 73.5t74 194.5t-74 194.5t-178 73.5t-178 -73.5t-74 -194.5z" />
<glyph unicode="&#xf5;" horiz-adv-x="1179" d="M68 471q0 147 68.5 258t186 172.5t267.5 61.5t267.5 -61.5t186 -172.5t68.5 -258t-68.5 -258t-186.5 -172t-267 -61q-150 0 -267.5 61t-186 172t-68.5 258zM209 1202q14 76 79.5 131.5t153.5 55.5q51 0 84 -16.5t59.5 -36t56.5 -36t73 -16.5q35 0 65.5 28.5t61.5 78.5 l129 -134q-16 -37 -53 -75.5t-90.5 -64t-112.5 -25.5q-55 0 -99.5 25.5t-85.5 52t-90 26.5q-39 0 -60.5 -19.5t-29.5 -44t-8 -40.5zM338 471q0 -121 73.5 -194.5t178.5 -73.5q104 0 178 73.5t74 194.5t-74 194.5t-178 73.5t-178 -73.5t-74 -194.5z" />
<glyph unicode="&#xf6;" horiz-adv-x="1179" d="M68 471q0 147 68.5 258t186 172.5t267.5 61.5t267.5 -61.5t186 -172.5t68.5 -258t-68.5 -258t-186.5 -172t-267 -61q-150 0 -267.5 61t-186 172t-68.5 258zM195 1272q0 66 47 107.5t112 41.5q66 0 113 -42t47 -107q0 -66 -47 -108t-113 -42t-112.5 42t-46.5 108zM338 471 q0 -121 73.5 -194.5t178.5 -73.5q104 0 178 73.5t74 194.5t-74 194.5t-178 73.5t-178 -73.5t-74 -194.5zM666 1272q0 66 47 107.5t112 41.5q66 0 113 -42t47 -107q0 -66 -47 -108t-113 -42t-112.5 42t-46.5 108z" />
<glyph unicode="&#xf7;" horiz-adv-x="1300" d="M74 510v242h1147v-242h-1147zM479 182q0 68 48 117t120 49q74 0 121 -49t47 -117t-47 -116t-121 -48q-72 0 -120 48t-48 116zM479 1067q0 68 48 116t120 48q74 0 121 -48t47 -116t-47 -117t-121 -49q-72 0 -120 49t-48 117z" />
<glyph unicode="&#xf8;" horiz-adv-x="1118" d="M68 471q0 152 69.5 261.5t187 170t265.5 60.5q133 0 244 -50l90 119l108 -57l-92 -127q80 -63 126 -158.5t46 -218.5q0 -152 -69.5 -261.5t-187.5 -169.5t-265 -60q-141 0 -256 55l-101 -133l-108 57l104 143q-76 63 -118.5 156.5t-42.5 212.5zM322 471q0 -102 53 -174 l321 430q-51 20 -106 21q-74 0 -135.5 -36t-97 -98.5t-35.5 -142.5zM471 219q55 -25 119 -24q113 0 190.5 74.5t77.5 201.5q0 55 -16.5 101t-46.5 81z" />
<glyph unicode="&#xf9;" horiz-adv-x="1144" d="M131 340v602h275v-573q0 -94 36.5 -143.5t118.5 -49.5q86 0 137.5 52.5t51.5 140.5v573h264v-942h-264v131q-45 -70 -117 -110.5t-168 -40.5q-166 0 -250 92t-84 268zM291 1417l211 99l307 -328l-150 -78z" />
<glyph unicode="&#xfa;" horiz-adv-x="1144" d="M131 340v602h275v-573q0 -94 36.5 -143.5t118.5 -49.5q86 0 137.5 52.5t51.5 140.5v573h264v-942h-264v131q-45 -70 -117 -110.5t-168 -40.5q-166 0 -250 92t-84 268zM336 1188l307 328l209 -99l-369 -307z" />
<glyph unicode="&#xfb;" horiz-adv-x="1144" d="M131 340v602h275v-573q0 -94 36.5 -143.5t118.5 -49.5q86 0 137.5 52.5t51.5 140.5v573h264v-942h-264v131q-45 -70 -117 -110.5t-168 -40.5q-166 0 -250 92t-84 268zM190 1235l381 287l381 -287l-182 -125l-199 180l-198 -180z" />
<glyph unicode="&#xfc;" horiz-adv-x="1144" d="M131 340v602h275v-573q0 -94 36.5 -143.5t118.5 -49.5q86 0 137.5 52.5t51.5 140.5v573h264v-942h-264v131q-45 -70 -117 -110.5t-168 -40.5q-166 0 -250 92t-84 268zM178 1260q0 66 46 108.5t114 42.5q66 0 113 -43t47 -108q0 -66 -47.5 -108t-112.5 -42q-68 0 -114 42 t-46 108zM649 1260q0 66 46 108.5t114 42.5q66 0 113 -43t47 -108q0 -66 -47.5 -108t-112.5 -42q-68 0 -114 42t-46 108z" />
<glyph unicode="&#xfd;" horiz-adv-x="1015" d="M-12 942h295l235 -586l234 586h276l-614 -1393h-273l238 545zM299 1188l307 328l211 -99l-368 -307z" />
<glyph unicode="&#xfe;" horiz-adv-x="1232" d="M125 -451v2048h266v-809q111 174 322 175q119 0 222 -57.5t166.5 -167t63.5 -267.5t-63.5 -267.5t-167 -166.5t-221.5 -57q-211 0 -322 174v-605h-266zM391 471q0 -86 36 -147.5t92 -93t116 -31.5q104 0 180 72.5t76 199.5t-76 199.5t-180 72.5q-59 0 -115.5 -31.5 t-92.5 -93t-36 -147.5z" />
<glyph unicode="&#xff;" horiz-adv-x="1015" d="M-12 942h295l235 -586l234 586h276l-614 -1393h-273l238 545zM113 1237q0 66 47 107.5t112 41.5q66 0 113 -41.5t47 -107.5t-47 -109t-113 -43t-112.5 43t-46.5 109zM584 1237q0 66 47 107.5t112 41.5q66 0 113 -41.5t47 -107.5t-47 -109t-113 -43t-112.5 43t-46.5 109z " />
<glyph unicode="&#x152;" horiz-adv-x="2017" d="M74 717q0 215 94 375.5t258 251t373 90.5h1124v-248h-629v-303h588v-244h-588v-391h631v-248h-1126q-207 0 -372 90t-259 251t-94 376zM375 717q0 -217 123 -337t344 -120h170v914h-170q-221 0 -344 -120t-123 -337z" />
<glyph unicode="&#x153;" horiz-adv-x="1843" d="M72 471q0 154 63.5 263.5t170 169t233.5 59.5q141 0 240.5 -73t142.5 -204q53 127 164.5 202t261.5 75q113 0 209 -59.5t155.5 -167t59.5 -257.5q0 -12 -1.5 -33.5t-3.5 -33.5h-720q14 -115 77.5 -175.5t161.5 -60.5q90 0 149.5 40t102.5 103l229 -73 q-63 -115 -180 -190.5t-268 -75.5q-139 0 -243.5 74.5t-153.5 197.5q-45 -129 -143.5 -200.5t-239.5 -71.5q-127 0 -233.5 59t-170 169.5t-63.5 262.5zM334 471q0 -129 73.5 -198.5t178.5 -69.5q94 0 160.5 69.5t66.5 198.5t-66.5 198.5t-160.5 69.5q-104 0 -178 -69.5 t-74 -198.5zM1051 573h438q-12 92 -63.5 147.5t-141.5 55.5q-88 0 -154.5 -52t-78.5 -151z" />
<glyph unicode="&#x178;" horiz-adv-x="1288" d="M2 1434h334l307 -578l309 578h334l-493 -840v-594h-297v592zM223 1751q0 66 46 108t112 42q68 0 115 -42t47 -108t-47 -107.5t-115 -41.5q-66 0 -112 41.5t-46 107.5zM748 1751q0 66 46 108t111 42q66 0 113 -42t47 -108t-47 -107.5t-113 -41.5t-111.5 41.5t-45.5 107.5z " />
<glyph unicode="&#x2c6;" horiz-adv-x="983" d="M111 1243l381 287l380 -287l-182 -125l-198 180l-199 -180z" />
<glyph unicode="&#x2dc;" horiz-adv-x="1085" d="M170 1298q14 74 79.5 129.5t156.5 55.5q49 0 82.5 -15.5t60 -36t55.5 -36t72 -15.5q37 0 67.5 28t61.5 77l129 -131q-16 -39 -54 -77t-90.5 -64.5t-113.5 -26.5q-55 0 -98 26.5t-84 52t-91 25.5q-41 0 -62.5 -19.5t-28.5 -44t-7 -40.5z" />
<glyph unicode="&#x2000;" horiz-adv-x="1024" />
<glyph unicode="&#x2001;" horiz-adv-x="2048" />
<glyph unicode="&#x2002;" horiz-adv-x="1024" />
<glyph unicode="&#x2003;" horiz-adv-x="2048" />
<glyph unicode="&#x2004;" horiz-adv-x="682" />
<glyph unicode="&#x2005;" horiz-adv-x="512" />
<glyph unicode="&#x2006;" horiz-adv-x="341" />
<glyph unicode="&#x2007;" horiz-adv-x="341" />
<glyph unicode="&#x2008;" horiz-adv-x="256" />
<glyph unicode="&#x2009;" horiz-adv-x="409" />
<glyph unicode="&#x200a;" horiz-adv-x="113" />
<glyph unicode="&#x2010;" horiz-adv-x="448" d="M10 371v231h428v-231h-428z" />
<glyph unicode="&#x2011;" horiz-adv-x="448" d="M10 371v231h428v-231h-428z" />
<glyph unicode="&#x2012;" horiz-adv-x="448" d="M10 371v231h428v-231h-428z" />
<glyph unicode="&#x2013;" horiz-adv-x="1576" d="M143 371v231h1282v-231h-1282z" />
<glyph unicode="&#x2014;" horiz-adv-x="1892" d="M143 371v231h1602v-231h-1602z" />
<glyph unicode="&#x2018;" horiz-adv-x="643" d="M143 928l209 506h189l-115 -506h-283z" />
<glyph unicode="&#x2019;" horiz-adv-x="643" d="M102 928l115 506h283l-211 -506h-187z" />
<glyph unicode="&#x201a;" horiz-adv-x="643" d="M123 -342l115 506h282l-211 -506h-186z" />
<glyph unicode="&#x201c;" horiz-adv-x="1095" d="M143 928l209 506h189l-115 -506h-283zM596 928l211 506h186l-114 -506h-283z" />
<glyph unicode="&#x201d;" horiz-adv-x="1095" d="M102 928l115 506h283l-211 -506h-187zM555 928l115 506h282l-209 -506h-188z" />
<glyph unicode="&#x201e;" horiz-adv-x="1095" d="M102 -342l115 506h283l-211 -506h-187zM555 -342l115 506h282l-209 -506h-188z" />
<glyph unicode="&#x2022;" horiz-adv-x="614" d="M156 889q0 68 47 117t121 49q72 0 120 -49.5t48 -116.5q0 -68 -48.5 -116t-119.5 -48q-74 0 -121 48t-47 116z" />
<glyph unicode="&#x2026;" horiz-adv-x="1878" d="M156 121q0 68 47 117t121 49q72 0 120 -49.5t48 -116.5q0 -68 -48.5 -116t-119.5 -48q-74 0 -121 48t-47 116zM770 121q0 68 47 117t121 49q72 0 120 -49.5t48 -116.5q0 -68 -48 -116t-120 -48q-74 0 -121 48t-47 116zM1384 121q0 68 47.5 117t120.5 49q72 0 120 -49.5 t48 -116.5q0 -68 -48 -116t-120 -48q-74 0 -121 48t-47 116z" />
<glyph unicode="&#x202f;" horiz-adv-x="409" />
<glyph unicode="&#x2039;" horiz-adv-x="716" d="M63 522l373 508l164 -119l-307 -381l307 -397l-164 -119z" />
<glyph unicode="&#x203a;" horiz-adv-x="716" d="M117 133l307 381l-307 397l164 119l372 -508l-372 -508z" />
<glyph unicode="&#x205f;" horiz-adv-x="512" />
<glyph unicode="&#x20ac;" horiz-adv-x="1292" d="M66 537v149h122q-2 14 -2 31q0 41 4 80h-104v149h127q37 156 121 272.5t207 183t278 66.5q84 0 161 -22.5t146 -61.5v-290q-131 127 -307 127q-119 0 -207 -72t-131 -203h617v-149h-645q-4 -39 -4 -80q0 -16 2 -31h602v-149h-584q35 -156 128 -240t222 -84q176 0 307 127 v-289q-70 -41 -146.5 -62.5t-160.5 -21.5q-164 0 -292 73t-211 201t-113 296h-137z" />
<glyph unicode="&#x2122;" horiz-adv-x="1476" d="M61 1300v134h535v-134h-195v-583h-145v583h-195zM606 717l107 751l299 -462l301 462l104 -751h-151l-45 393l-209 -328l-209 328l-45 -393h-152z" />
<glyph unicode="&#x25fc;" horiz-adv-x="942" d="M0 0v942h942v-942h-942z" />
</font>
</defs>
</svg>
