<?xml version="1.0" standalone="no"?>
<!DOCTYPE svg PUBLIC "-//W3C//DTD SVG 1.1//EN" "http://www.w3.org/Graphics/SVG/1.1/DTD/svg11.dtd" >
<svg xmlns="http://www.w3.org/2000/svg" xmlns:xlink="http://www.w3.org/1999/xlink" version="1.1">
<metadata></metadata>
<defs>
<font id="jostregular" horiz-adv-x="614" >
<font-face units-per-em="2048" ascent="1638" descent="-410" />
<missing-glyph horiz-adv-x="500" />
<glyph />
<glyph />
<glyph unicode="&#xd;" />
<glyph unicode=" " />
<glyph unicode="!" d="M195 82q0 47 33.5 80t78.5 33q47 0 80 -33t33 -80q0 -45 -33 -79t-80 -34q-45 0 -78.5 34t-33.5 79zM205 1434h205l-41 -1024h-123z" />
<glyph unicode="&#x22;" horiz-adv-x="952" d="M164 819l102 615h195l-185 -615h-112zM532 819l103 615h194l-184 -615h-113z" />
<glyph unicode="#" horiz-adv-x="1239" d="M72 410v133h213l88 358h-219v133h252l96 400h153l-96 -400h277l96 400h153l-96 -400h178v-133h-211l-88 -358h217v-133h-247l-101 -410h-153l98 410h-274l-101 -410h-153l100 410h-182zM438 543h279l86 358h-277z" />
<glyph unicode="$" horiz-adv-x="1187" d="M113 375l147 88q66 -147 154 -233.5t221 -86.5q123 0 184.5 62.5t61.5 169.5q0 92 -50.5 151.5t-127 98.5t-158.5 67q-53 18 -115.5 49t-118 79t-91.5 118t-36 168q0 88 45 160.5t123 121t178 62.5v225h152v-227q92 -16 165 -63.5t122 -111t73 -126.5l-141 -94 q-31 59 -69.5 113.5t-94 88t-135.5 33.5q-123 0 -179 -50t-56 -144q0 -78 47 -128.5t122.5 -86t161.5 -68.5q55 -20 119 -53t119 -81t90 -119t35 -169q0 -170 -96.5 -280.5t-282.5 -126.5v-211h-152v217q-143 29 -251.5 132t-165.5 255z" />
<glyph unicode="%" horiz-adv-x="1538" d="M72 1126q0 92 40 166t113.5 118t169.5 44q98 0 171 -44t113 -117.5t40 -166.5q0 -90 -40 -164.5t-112.5 -118.5t-171.5 -44q-96 0 -169.5 44t-113.5 118.5t-40 164.5zM217 1126q0 -78 47 -136t131 -58t131 58.5t47 135.5q0 78 -47 136.5t-131 58.5t-131 -58.5t-47 -136.5 zM231 0l922 1434h154l-922 -1434h-154zM819 307q0 92 40 166t114 118t170 44q98 0 170.5 -44t112.5 -118t40 -166q0 -90 -40 -164.5t-112.5 -118.5t-170.5 -44q-96 0 -170 44t-114 118.5t-40 164.5zM965 307q0 -78 47 -136t131 -58t131 58t47 136t-47 136.5t-131 58.5 t-131 -58.5t-47 -136.5z" />
<glyph unicode="&#x26;" horiz-adv-x="1382" d="M82 375q0 92 34 161.5t87 121t114.5 88t116.5 65.5q-37 37 -82 87t-78.5 109.5t-33.5 131.5q0 145 98 231t252 86q109 0 185.5 -45t117.5 -117.5t41 -158.5q0 -96 -70.5 -186.5t-197.5 -170.5l346 -399q59 59 114.5 127.5t106.5 140.5l127 -80q-59 -78 -120.5 -155.5 t-127.5 -147.5l229 -264h-196l-141 162q-98 -82 -212 -132t-249 -50q-117 0 -222.5 48t-172 137t-66.5 210zM256 385q0 -117 87 -185.5t210 -68.5q94 0 181 40t169 105l-373 426q-66 -37 -129 -78.5t-104 -100t-41 -138.5zM412 1139q0 -68 50 -128.5t109 -125.5 q92 59 144.5 123.5t52.5 126.5q0 78 -47 127t-131 49t-131 -47t-47 -125z" />
<glyph unicode="'" horiz-adv-x="583" d="M164 819l102 615h195l-185 -615h-112z" />
<glyph unicode="(" horiz-adv-x="634" d="M184 594q0 262 56.5 518t179.5 485h153q-106 -229 -155 -485t-49 -518q0 -260 49 -516t155 -488h-153q-123 231 -179.5 487.5t-56.5 516.5z" />
<glyph unicode=")" horiz-adv-x="634" d="M61 -410q109 231 157 487.5t48 516.5q0 262 -48 518t-157 485h154q123 -229 179.5 -485t56.5 -518q0 -260 -56.5 -516.5t-179.5 -487.5h-154z" />
<glyph unicode="*" horiz-adv-x="1212" d="M205 1090l43 137l303 -117l-16 324h143l-16 -324l303 117l43 -137l-312 -84l203 -252l-117 -84l-176 270l-176 -270l-117 84l203 252z" />
<glyph unicode="+" horiz-adv-x="1259" d="M133 440v164h410v420h174v-420h409v-164h-409v-420h-174v420h-410z" />
<glyph unicode="," horiz-adv-x="630" d="M123 -305l180 530l164 -61l-225 -512z" />
<glyph unicode="-" horiz-adv-x="430" d="M10 410v153h410v-153h-410z" />
<glyph unicode="." d="M195 82q0 47 33.5 80t78.5 33q47 0 80 -33t33 -80q0 -45 -33 -79t-80 -34q-45 0 -78.5 34t-33.5 79z" />
<glyph unicode="/" horiz-adv-x="1054" d="M31 -307l829 1741h164l-829 -1741h-164z" />
<glyph unicode="0" horiz-adv-x="1228" d="M82 717q0 215 67.5 381t187.5 261t277 95q158 0 278 -95t187.5 -261t67.5 -381t-67.5 -381t-187.5 -261t-278 -95t-277.5 95t-187 261t-67.5 381zM256 717q0 -166 44 -296t124 -204t190 -74q111 0 192 74t124 204t43 296q0 168 -43 297t-124 202.5t-192 73.5 t-190.5 -73.5t-123.5 -202.5t-44 -297z" />
<glyph unicode="1" horiz-adv-x="921" d="M164 1151v180l491 123v-1454h-174v1245z" />
<glyph unicode="2" horiz-adv-x="1165" d="M41 0l678 723q72 76 110.5 151.5t38.5 161.5q0 63 -32.5 122t-94 96.5t-149.5 37.5q-137 0 -216 -93t-79 -257h-174q0 154 55 269.5t160.5 180t253.5 64.5q119 0 205 -40t141 -102.5t82 -134t27 -137.5q0 -111 -53.5 -219t-137.5 -194l-457 -465h654v-164h-1012z" />
<glyph unicode="3" horiz-adv-x="1118" d="M123 379h176q0 -100 79 -168t202 -68t195.5 70t72.5 186q0 133 -95.5 200t-234.5 67v153q139 0 214 74t75 174q0 102 -54.5 165.5t-162.5 63.5q-100 0 -170 -62.5t-70 -156.5h-166q0 113 52.5 197t143.5 132t208 48q123 0 212 -53t137 -139t48 -189q0 -106 -65.5 -192 t-178.5 -133q127 -37 206 -127.5t79 -241.5q0 -121 -58.5 -211t-158.5 -139t-229 -49q-137 0 -240.5 53t-160 144t-56.5 202z" />
<glyph unicode="4" horiz-adv-x="1193" d="M41 287l795 1147h71v-994h226v-153h-226v-287h-174v287h-692zM328 440h405v607z" />
<glyph unicode="5" horiz-adv-x="1155" d="M61 281l148 100q33 -61 87 -115.5t126 -88.5t149 -34q154 0 238 90.5t84 237.5q0 98 -42 172t-114.5 115t-165.5 41q-68 0 -124 -11.5t-112 -39t-130 -78.5l188 764h676v-154h-541l-96 -379q102 53 213 53q123 0 220.5 -61.5t152.5 -170t55 -251.5q0 -162 -67.5 -271.5 t-181 -164.5t-253.5 -55q-131 0 -228 40.5t-165.5 109.5t-116.5 151z" />
<glyph unicode="6" horiz-adv-x="1179" d="M102 471q0 88 25 164t66 133l483 666h219l-403 -533q35 20 74.5 27.5t86.5 7.5q117 0 213.5 -61.5t153.5 -166t57 -237.5q0 -147 -64.5 -258t-174 -172t-248.5 -61q-137 0 -248 61t-175.5 172t-64.5 258zM268 471q0 -98 42 -173t115 -118t165 -43t164.5 43t114.5 118 t42 173t-42 175t-114.5 120t-164.5 43t-165 -43t-115 -120t-42 -175z" />
<glyph unicode="7" horiz-adv-x="1075" d="M61 1270v164h1004l-686 -1434h-182l608 1270h-744z" />
<glyph unicode="8" horiz-adv-x="1118" d="M113 389q0 141 72.5 236.5t181.5 138.5q-94 41 -148.5 124t-54.5 199q0 102 52 185.5t141 132.5t202 49t202 -49t141 -132t52 -186q0 -117 -54 -199.5t-148 -123.5q109 -43 181.5 -138.5t72.5 -236.5q0 -111 -58.5 -204t-159 -149t-229.5 -56q-127 0 -228.5 56 t-159.5 149t-58 204zM279 410q0 -88 39.5 -149.5t104 -94.5t136.5 -33t136.5 33t104.5 94.5t40 149.5q0 78 -40 140t-104.5 99t-136.5 37t-136.5 -37t-104 -99t-39.5 -140zM330 1067q0 -100 68.5 -163.5t160.5 -63.5t160.5 63.5t68.5 163.5q0 102 -64.5 167.5t-164.5 65.5 t-164.5 -65.5t-64.5 -167.5z" />
<glyph unicode="9" horiz-adv-x="1179" d="M102 963q0 147 64.5 257.5t175.5 172t248 61.5q139 0 248.5 -61.5t174 -172t64.5 -257.5q0 -88 -24.5 -164t-65.5 -133l-483 -666h-219l403 532q-35 -20 -75 -27t-87 -7q-117 0 -213 61.5t-153.5 166.5t-57.5 237zM268 963q0 -98 42 -174t115 -120t165 -44t164.5 44 t114.5 120t42 174t-42 172.5t-114.5 117.5t-164.5 43t-165 -43t-115 -117.5t-42 -172.5z" />
<glyph unicode=":" d="M195 82q0 47 33.5 80t78.5 33q47 0 80 -33t33 -80q0 -45 -33 -79t-80 -34q-45 0 -78.5 34t-33.5 79zM195 860q0 47 33.5 80t78.5 33q47 0 80 -33t33 -80q0 -45 -33 -78.5t-80 -33.5q-45 0 -78.5 33.5t-33.5 78.5z" />
<glyph unicode=";" horiz-adv-x="675" d="M123 -305l180 530l164 -61l-225 -512zM256 860q0 47 34 80t79 33q47 0 79.5 -33t32.5 -80q0 -45 -32.5 -78.5t-79.5 -33.5q-45 0 -79 33.5t-34 78.5z" />
<glyph unicode="&#x3c;" horiz-adv-x="1310" d="M133 481v92l1045 451v-164l-775 -323l775 -342v-164z" />
<glyph unicode="=" horiz-adv-x="1259" d="M133 287v153h993v-153h-993zM133 594v154h993v-154h-993z" />
<glyph unicode="&#x3e;" horiz-adv-x="1310" d="M133 31v164l774 323l-774 342v164l1045 -451v-92z" />
<glyph unicode="?" horiz-adv-x="1140" d="M123 1214q47 72 104.5 126.5t140.5 84t203 29.5q129 0 229.5 -56.5t159 -153.5t58.5 -220q0 -117 -61.5 -212t-160 -153.5t-212.5 -64.5l-15 -246h-123l-40 359h53q123 0 211 47t135 119.5t47 150.5q0 133 -81 204.5t-220 71.5q-102 0 -175 -46t-120 -124zM399 82 q0 47 34 80t79 33q47 0 80 -33t33 -80q0 -45 -33 -79t-80 -34q-45 0 -79 34t-34 79z" />
<glyph unicode="@" horiz-adv-x="1576" d="M72 655q0 168 56 313.5t160.5 254t247 170t314.5 61.5q164 0 287 -55.5t204.5 -149.5t122.5 -210.5t41 -239.5q0 -135 -34.5 -229.5t-91 -152t-120 -84t-120.5 -26.5q-76 0 -126 48t-59 122q-49 -74 -122.5 -111.5t-159.5 -37.5q-74 0 -138.5 37.5t-104.5 110.5t-40 173 q0 143 60.5 239.5t149.5 146.5t175 50q82 0 137.5 -45t81.5 -112l21 137h153l-84 -473q-4 -29 -4 -55q0 -37 14.5 -66t65.5 -29q31 0 79 35t86 114t38 208q0 137 -56.5 256t-170 192.5t-285.5 73.5q-193 0 -335 -88t-221 -238.5t-79 -339.5q0 -166 65.5 -287.5t185.5 -188 t282 -66.5q109 0 210 21.5t201 84.5l72 -117q-92 -55 -199.5 -88.5t-283.5 -33.5q-219 0 -370 83.5t-228.5 236t-77.5 355.5zM545 655q0 -86 42 -135t126 -49q51 0 106 26.5t94 89t39 171.5q0 86 -50 135t-128 49q-55 0 -108.5 -35t-87 -99.5t-33.5 -152.5z" />
<glyph unicode="A" horiz-adv-x="1351" d="M10 0l666 1505l665 -1505h-194l-182 430h-578l-182 -430h-195zM457 594h438l-219 516z" />
<glyph unicode="B" horiz-adv-x="1142" d="M164 0v1434h368q193 0 309.5 -88.5t116.5 -270.5q0 -111 -63.5 -185.5t-173.5 -107.5q141 -29 230 -117.5t89 -244.5q0 -141 -64.5 -234.5t-174 -139.5t-248.5 -46h-389zM338 154h215q139 0 226 72.5t87 203.5q0 133 -87 202.5t-226 69.5h-215v-548zM338 854h194 q109 0 180.5 55.5t71.5 155.5q0 102 -71.5 158.5t-180.5 56.5h-194v-426z" />
<glyph unicode="C" horiz-adv-x="1402" d="M82 717q0 160 55.5 295t153.5 234.5t228 153.5t280 54q158 0 264 -39t197 -119v-229q-76 96 -193 154.5t-268 58.5q-141 0 -262 -71.5t-196 -197.5t-75 -294q0 -166 75 -293t195.5 -198.5t262.5 -71.5q152 0 268.5 59t192.5 154v-230q-90 -80 -197 -118.5t-264 -38.5 q-150 0 -280 54t-228 153.5t-153.5 234.5t-55.5 295z" />
<glyph unicode="D" horiz-adv-x="1392" d="M164 0v1434h430q209 0 370.5 -90.5t254 -251t92.5 -375.5t-92.5 -376t-254 -251t-370.5 -90h-430zM338 174h256q162 0 283.5 66.5t190.5 188.5t69 288q0 168 -69 288.5t-190.5 187.5t-283.5 67h-256v-1086z" />
<glyph unicode="E" horiz-adv-x="1126" d="M164 0v1434h819v-164h-645v-410h604v-164h-604v-532h645v-164h-819z" />
<glyph unicode="F" horiz-adv-x="1024" d="M164 0v1434h737v-164h-563v-410h543v-164h-543v-696h-174z" />
<glyph unicode="G" horiz-adv-x="1587" d="M82 717q0 160 54 295t152.5 234.5t231.5 153.5t289 54q199 0 351.5 -78t244.5 -227l-123 -113q-68 115 -188.5 179.5t-284.5 64.5q-152 0 -274.5 -71.5t-195.5 -197.5t-73 -294q0 -166 73 -293t195.5 -198.5t274.5 -71.5q143 0 245.5 56t166 149.5t86.5 203.5h-478v164 h666q0 -150 -45 -284t-133 -238.5t-216 -164.5t-292 -60q-156 0 -289 54t-231.5 153.5t-152.5 234.5t-54 295z" />
<glyph unicode="H" horiz-adv-x="1464" d="M164 0v1434h174v-574h788v574h174v-1434h-174v696h-788v-696h-174z" />
<glyph unicode="I" horiz-adv-x="501" d="M164 0v1434h174v-1434h-174z" />
<glyph unicode="J" horiz-adv-x="491" d="M-227 -348l90 135q45 -74 162 -74q47 0 93 42t46 143v1536h164v-1557q0 -168 -84 -248t-230 -80q-82 0 -150.5 36t-90.5 67z" />
<glyph unicode="K" horiz-adv-x="1157" d="M164 0v1434h174v-617l563 617h215l-620 -672l651 -762h-215l-594 696v-696h-174z" />
<glyph unicode="L" horiz-adv-x="921" d="M164 0v1434h174v-1270h563v-164h-737z" />
<glyph unicode="M" horiz-adv-x="1658" d="M82 0l174 1505l573 -1038l574 1038l174 -1505h-174l-107 969l-467 -836l-467 836l-106 -969h-174z" />
<glyph unicode="N" horiz-adv-x="1587" d="M164 0v1505l1085 -1138v1067h174v-1506l-1085 1139v-1067h-174z" />
<glyph unicode="O" horiz-adv-x="1617" d="M82 717q0 158 54 292t152.5 233t231.5 155.5t289 56.5q158 0 290 -56.5t230 -155.5t152.5 -233.5t54.5 -291.5q0 -156 -54.5 -291t-152.5 -234.5t-230 -155.5t-290 -56q-156 0 -289 56t-231.5 155.5t-152.5 234.5t-54 291zM266 717q0 -162 71 -289t193.5 -200.5 t278.5 -73.5q158 0 279.5 73.5t192.5 200.5t71 289t-71 289t-192.5 200.5t-279.5 73.5q-156 0 -278.5 -73.5t-193.5 -200.5t-71 -289z" />
<glyph unicode="P" horiz-adv-x="1122" d="M164 0v1434h389q139 0 248.5 -52.5t174 -148.5t64.5 -229q0 -131 -64.5 -228.5t-174 -150t-248.5 -52.5h-215v-573h-174zM338 737h215q139 0 226 67.5t87 199.5q0 133 -87 199.5t-226 66.5h-215v-533z" />
<glyph unicode="Q" horiz-adv-x="1617" d="M82 717q0 158 54 292t152.5 233t231.5 155.5t289 56.5q158 0 290 -56.5t230 -155.5t152.5 -233.5t54.5 -291.5q0 -137 -43 -258t-119 -217l242 -242h-225l-131 131q-90 -72 -205 -111.5t-246 -39.5q-156 0 -289 56t-231.5 155.5t-152.5 234.5t-54 291zM266 717 q0 -162 71 -289t193.5 -200.5t278.5 -73.5q94 0 176 26.5t148 77.5l-357 356h225l244 -243q51 70 79 157.5t28 188.5q0 162 -71 289t-192.5 200.5t-279.5 73.5q-156 0 -278.5 -73.5t-193.5 -200.5t-71 -289z" />
<glyph unicode="R" horiz-adv-x="1146" d="M164 0v1434h389q139 0 248.5 -52.5t174 -148.5t64.5 -229q0 -162 -95 -269.5t-247 -144.5l428 -590h-215l-399 573h-174v-573h-174zM338 727h215q139 0 226 72.5t87 204.5q0 133 -87 204.5t-226 71.5h-215v-553z" />
<glyph unicode="S" horiz-adv-x="1122" d="M78 340l139 94q72 -131 161 -211t218 -80q115 0 184.5 63.5t69.5 162.5q0 96 -45 153.5t-118 93t-155 64.5q-53 18 -118.5 48t-125 76t-97 113.5t-37.5 165.5q0 106 53 190.5t147.5 132.5t214.5 48q117 0 204 -44t148.5 -112.5t96.5 -144.5l-150 -86q-27 53 -67.5 104.5 t-99 84t-142.5 32.5q-117 0 -170 -56t-53 -126q0 -90 71.5 -157.5t260.5 -133.5q57 -20 120.5 -53t118 -83t89 -121t34.5 -169q0 -125 -62.5 -217t-162.5 -142t-215 -50q-117 0 -216.5 50t-174 133t-121.5 177z" />
<glyph unicode="T" horiz-adv-x="952" d="M20 1270v164h912v-164h-369v-1270h-174v1270h-369z" />
<glyph unicode="U" horiz-adv-x="1282" d="M154 471v963h174v-963q0 -147 79.5 -237.5t233.5 -90.5t233.5 90.5t79.5 237.5v963h174v-963q0 -141 -60 -253t-168.5 -175t-258.5 -63q-147 0 -257 63t-170 175t-60 253z" />
<glyph unicode="V" horiz-adv-x="1351" d="M10 1434h195l471 -1110l471 1110h194l-665 -1506z" />
<glyph unicode="W" horiz-adv-x="2027" d="M20 1434h195l381 -1055l418 1126l426 -1126l372 1055h195l-563 -1506l-430 1114l-430 -1114z" />
<glyph unicode="X" horiz-adv-x="1136" d="M20 0l467 752l-415 682h204l299 -531l306 531h204l-423 -682l454 -752h-205l-338 600l-348 -600h-205z" />
<glyph unicode="Y" horiz-adv-x="1148" d="M10 1434h195l368 -664l371 664h195l-477 -816v-618h-175v616z" />
<glyph unicode="Z" horiz-adv-x="1116" d="M31 0l753 1270h-712v164h1003l-753 -1270h712v-164h-1003z" />
<glyph unicode="[" d="M205 -451v2048h368v-153h-206v-1741h206v-154h-368z" />
<glyph unicode="\" horiz-adv-x="1054" d="M31 1434h174l819 -1434h-174z" />
<glyph unicode="]" d="M41 -297h207v1741h-207v153h369v-2048h-369v154z" />
<glyph unicode="^" horiz-adv-x="1044" d="M133 942l348 512h82l348 -512h-163l-226 330l-225 -330h-164z" />
<glyph unicode="_" horiz-adv-x="1024" d="M0 -160h1024v-112h-1024v112z" />
<glyph unicode="`" horiz-adv-x="768" d="M154 1352l153 82l307 -328l-92 -62z" />
<glyph unicode="a" horiz-adv-x="985" d="M61 283q0 137 97.5 220t271.5 83q94 0 160.5 -21.5t107.5 -48.5v137q0 96 -62.5 131t-150.5 35q-106 0 -177.5 -34.5t-104.5 -59.5l-80 121q53 39 146 78t225 39q164 0 266 -75t102 -212v-676h-164v127q-45 -74 -135 -110.5t-176 -36.5t-160.5 35.5t-120 103t-45.5 164.5 zM227 291q0 -82 56.5 -126t146.5 -44q113 0 190.5 67.5t77.5 180.5v34q-57 29 -116.5 41.5t-124.5 12.5q-119 0 -174.5 -44t-55.5 -122z" />
<glyph unicode="b" horiz-adv-x="1167" d="M143 0v1597h164v-817q51 88 134 135.5t188 47.5q129 0 234.5 -59.5t169 -169t63.5 -263.5q0 -152 -63.5 -262.5t-169 -169.5t-234.5 -59q-104 0 -187.5 47t-134.5 135v-162h-164zM307 471q0 -109 45 -184.5t115 -114.5t141 -39q88 0 161 39t117 114.5t44 184.5t-44 184.5 t-117 114.5t-161 39q-72 0 -141.5 -39t-114.5 -114.5t-45 -184.5z" />
<glyph unicode="c" horiz-adv-x="978" d="M61 471q0 143 64.5 254t175.5 174.5t248 63.5q96 0 187 -32t141 -89v-205q-33 70 -123 121t-205 51q-92 0 -165 -43t-115 -120t-42 -175t42 -174t115 -120t165 -44q115 0 205 51.5t123 120.5v-205q-49 -57 -140.5 -88.5t-187.5 -31.5q-137 0 -248 63t-175.5 175 t-64.5 253z" />
<glyph unicode="d" horiz-adv-x="1167" d="M72 471q0 154 63.5 263.5t170 169t233.5 59.5q104 0 187 -47.5t134 -135.5v817h164v-1597h-164v162q-51 -88 -134 -135t-187 -47q-127 0 -233.5 59t-170 169.5t-63.5 262.5zM238 471q0 -109 44 -184.5t117.5 -114.5t159.5 -39q72 0 141.5 39t114.5 114.5t45 184.5 t-45 184.5t-114.5 114.5t-141.5 39q-86 0 -159.5 -39t-117.5 -114.5t-44 -184.5z" />
<glyph unicode="e" horiz-adv-x="1054" d="M72 471q0 147 58 258t163.5 172.5t245.5 61.5q207 0 325.5 -129t118.5 -355q0 -14 -1 -29.5t-1 -19.5h-741q10 -141 88 -219t211 -78q193 0 295 170l133 -84q-148 -239 -449 -239q-131 0 -232.5 62t-157.5 173t-56 256zM246 569h559q-8 113 -80.5 181.5t-185.5 68.5 q-121 0 -197 -64.5t-96 -185.5z" />
<glyph unicode="f" horiz-adv-x="585" d="M82 788v154h92v348q0 168 71.5 248t200.5 80q66 0 112 -25.5t69 -56.5l-90 -135q-20 35 -48 44t-53 9q-45 0 -71.5 -41t-26.5 -143v-328h215v-154h-215v-788h-164v788h-92z" />
<glyph unicode="g" horiz-adv-x="1167" d="M72 471q0 154 63.5 263.5t170 169t233.5 59.5q104 0 187 -47.5t134 -135.5v162h164v-922q0 -162 -67.5 -271t-174 -164.5t-225.5 -55.5q-137 0 -242.5 51t-165 144.5t-59.5 214.5h166q0 -68 37 -126.5t104.5 -94t159.5 -35.5q72 0 141.5 34.5t115.5 109.5t46 193v142 q-51 -88 -134 -135t-187 -47q-127 0 -233.5 59t-170 169.5t-63.5 262.5zM238 471q0 -109 44 -184.5t117.5 -114.5t159.5 -39q72 0 141.5 39t114.5 114.5t45 184.5t-45 184.5t-114.5 114.5t-141.5 39q-86 0 -159.5 -39t-117.5 -114.5t-44 -184.5z" />
<glyph unicode="h" horiz-adv-x="1075" d="M154 0v1597h163v-804q43 78 116 124t165 46q145 0 234.5 -93.5t89.5 -275.5v-594h-164v573q0 236 -201 236q-106 0 -173 -66.5t-67 -169.5v-573h-163z" />
<glyph unicode="i" horiz-adv-x="532" d="M154 1331q0 47 33.5 80t78.5 33q47 0 80 -33t33 -80q0 -45 -33 -78.5t-80 -33.5q-45 0 -78.5 33.5t-33.5 78.5zM184 0v942h164v-942h-164z" />
<glyph unicode="j" horiz-adv-x="512" d="M-125 -369l90 136q33 -53 101 -54q53 0 75.5 43t22.5 142v1044h164v-1065q0 -156 -72 -242t-201 -86q-119 0 -180 82zM127 1331q0 47 33 79t78 32q47 0 78.5 -32t31.5 -79q0 -45 -31.5 -77.5t-78.5 -32.5q-45 0 -78 32.5t-33 77.5z" />
<glyph unicode="k" horiz-adv-x="901" d="M143 0v1597h164v-985l348 330h205l-409 -389l450 -553h-205l-389 477v-477h-164z" />
<glyph unicode="l" horiz-adv-x="471" d="M154 0v1597h163v-1597h-163z" />
<glyph unicode="m" horiz-adv-x="1597" d="M154 0v942h163v-137q84 158 261 158q98 0 168.5 -46.5t103.5 -130.5q98 176 291 177q145 0 224 -96.5t79 -272.5v-594h-164v573q0 121 -44 178.5t-136 57.5q-100 0 -159.5 -62.5t-59.5 -173.5v-573h-164v573q0 121 -44 178.5t-136 57.5q-100 0 -160 -62.5t-60 -173.5 v-573h-163z" />
<glyph unicode="n" horiz-adv-x="1075" d="M154 0v942h163v-147q92 168 281 168q150 0 237 -99.5t87 -269.5v-594h-164v573q0 236 -201 236q-106 0 -173 -65.5t-67 -170.5v-573h-163z" />
<glyph unicode="o" horiz-adv-x="1118" d="M72 471q0 143 64.5 254t175 174.5t247.5 63.5q139 0 249 -63.5t174.5 -174.5t64.5 -254q0 -141 -64.5 -253t-174.5 -175t-249 -63q-137 0 -247.5 63t-175 175t-64.5 253zM238 471q0 -98 42 -174t114.5 -120t164.5 -44t165 44t115 120t42 174t-42 175t-115 120t-165 43 t-164.5 -43t-114.5 -120t-42 -175z" />
<glyph unicode="p" horiz-adv-x="1167" d="M143 -451v1393h164v-162q51 88 134 135.5t188 47.5q129 0 234.5 -59.5t169 -169t63.5 -263.5q0 -152 -63.5 -262.5t-169 -169.5t-234.5 -59q-104 0 -187.5 47t-134.5 135v-613h-164zM307 471q0 -109 45 -184.5t115 -114.5t141 -39q88 0 161 39t117 114.5t44 184.5 t-44 184.5t-117 114.5t-161 39q-72 0 -141.5 -39t-114.5 -114.5t-45 -184.5z" />
<glyph unicode="q" horiz-adv-x="1167" d="M72 471q0 154 63.5 263.5t170 169t233.5 59.5q104 0 187 -47.5t134 -135.5v162h164v-1393h-164v613q-51 -88 -134 -135t-187 -47q-127 0 -233.5 59t-170 169.5t-63.5 262.5zM238 471q0 -109 44 -184.5t117.5 -114.5t159.5 -39q72 0 141.5 39t114.5 114.5t45 184.5 t-45 184.5t-114.5 114.5t-141.5 39q-86 0 -159.5 -39t-117.5 -114.5t-44 -184.5z" />
<glyph unicode="r" horiz-adv-x="702" d="M154 0v942h163v-108q39 59 92.5 94t106.5 35q51 0 95 -13.5t81 -52.5l-90 -135q-33 25 -59.5 36t-67.5 11q-92 0 -125 -66.5t-33 -169.5v-573h-163z" />
<glyph unicode="s" horiz-adv-x="825" d="M63 209l130 80q43 -66 105 -113t151 -47q70 0 109.5 32t39.5 87q0 49 -31.5 83t-81 57.5t-104.5 43.5q-61 25 -123.5 58.5t-104.5 88t-42 136.5q0 84 44 139t114.5 82t146.5 27q113 0 205 -53.5t135 -131.5l-131 -84q-39 53 -97.5 88t-132.5 35q-51 0 -88 -22.5 t-37 -69.5q0 -57 60.5 -93t136.5 -67q82 -33 149.5 -70.5t107.5 -91t40 -137.5q0 -123 -89 -204.5t-235 -81.5q-94 0 -169.5 33.5t-128 87t-79.5 108.5z" />
<glyph unicode="t" horiz-adv-x="491" d="M10 788v154h154v328h164v-328h153v-154h-153v-788h-164v788h-154z" />
<glyph unicode="u" horiz-adv-x="1075" d="M154 348v594h163v-573q0 -113 51.5 -174.5t149.5 -61.5q109 0 174.5 65.5t65.5 170.5v573h164v-942h-164v147q-93 -167 -279 -167h-2q-147 0 -235 100t-88 268z" />
<glyph unicode="v" horiz-adv-x="901" d="M0 942h184l267 -666l266 666h184l-450 -1014z" />
<glyph unicode="w" horiz-adv-x="1392" d="M10 942h185l235 -612l256 684l275 -688l237 616h184l-409 -1014l-285 686l-268 -686z" />
<glyph unicode="x" horiz-adv-x="860" d="M0 0l342 485l-322 457h185l225 -328l225 328h185l-322 -457l342 -485h-184l-246 356l-246 -356h-184z" />
<glyph unicode="y" horiz-adv-x="901" d="M0 942h195l264 -649l258 649h184l-614 -1393h-185l258 584z" />
<glyph unicode="z" horiz-adv-x="942" d="M31 0l583 788h-522v154h819l-583 -788h542v-154h-839z" />
<glyph unicode="{" horiz-adv-x="636" d="M102 532v123q47 16 73 62.5t26 163.5v430q0 102 33.5 164.5t83 92t94.5 29.5h123v-143h-72q-45 0 -71.5 -30.5t-26.5 -71.5v-348q0 -76 -7.5 -159t-35 -151.5t-93.5 -99.5q66 -31 93.5 -99.5t35 -151.5t7.5 -159v-348q0 -39 26.5 -70.5t71.5 -31.5h72v-144h-123 q-45 0 -94.5 30t-83 93.5t-33.5 163.5v430q0 117 -25.5 164t-73.5 61z" />
<glyph unicode="|" horiz-adv-x="561" d="M205 -440v2048h151v-2048h-151z" />
<glyph unicode="}" horiz-adv-x="636" d="M121 -266h72q47 0 72.5 31.5t25.5 70.5v348q0 76 7 159t34.5 151.5t93.5 99.5q-66 31 -93.5 99.5t-34.5 151.5t-7 159v348q0 41 -25.5 71.5t-72.5 30.5h-72v143h123q45 0 94 -29.5t83 -92t34 -164.5v-430q0 -117 26.5 -163t71.5 -63v-123q-45 -14 -71.5 -61t-26.5 -164 v-430q0 -100 -34 -163.5t-83 -93.5t-94 -30h-123v144z" />
<glyph unicode="~" horiz-adv-x="1177" d="M133 420q0 33 11.5 69.5t37.5 73.5q41 53 96.5 80t118.5 27q123 0 252 -99q47 -35 85 -50t65 -15q86 0 86 100q0 12 -2 26.5t-9 29.5l162 -11q4 -12 6 -26.5t2 -30.5q0 -31 -9 -71t-36 -74q-39 -51 -88 -74t-104 -23q-102 0 -236 99q-45 35 -91 51t-85 16 q-113 0 -112 -112q0 -23 8 -46l-152 11q-6 23 -6 49z" />
<glyph unicode="&#xa0;" />
<glyph unicode="&#xa1;" d="M195 850q0 47 33.5 80t78.5 33q47 0 80 -33t33 -80q0 -45 -33 -79t-80 -34q-45 0 -78.5 34t-33.5 79zM205 -502l41 1024h123l41 -1024h-205z" />
<glyph unicode="&#xa2;" horiz-adv-x="1187" d="M166 471q0 129 52 231.5t144.5 169t210.5 84.5v228h132v-223q84 -8 158.5 -39t117.5 -80v-205q-33 70 -123 121t-205 51q-92 0 -164.5 -43t-114.5 -120t-42 -175t42 -174t114.5 -120t164.5 -44q115 0 205 51.5t123 120.5v-205q-43 -51 -118 -80.5t-158 -37.5v-211h-132 v215q-119 18 -211 84.5t-144 169t-52 231.5z" />
<glyph unicode="&#xa3;" horiz-adv-x="1187" d="M131 0q100 104 170 185t106.5 158t36.5 167q0 47 -18 94h-289v154h201q-39 57 -69.5 128.5t-30.5 174.5q0 123 54 211t149.5 135t215.5 47q102 0 178 -41t125.5 -104.5t76 -135t30.5 -133.5l-145 -59q-4 76 -33 144.5t-86.5 112.5t-145.5 44q-61 0 -116.5 -21.5 t-90 -69.5t-34.5 -126q0 -72 19.5 -124t48 -95t57.5 -88h333v-154h-270q6 -31 6 -63q0 -119 -52 -218.5t-128 -158.5h629v-164h-928z" />
<glyph unicode="&#xa4;" horiz-adv-x="1187" d="M76 199l123 120q-45 59 -69 134t-24 161t24 161t69 134l-123 121l102 103l121 -121q59 45 135 69.5t160 24.5t158.5 -24.5t136.5 -69.5l121 121l100 -103l-121 -121q45 -59 68.5 -134t23.5 -161t-23.5 -160.5t-68.5 -134.5l121 -120l-100 -103l-121 121 q-61 -45 -136 -69.5t-159 -24.5t-160 24.5t-135 69.5l-121 -121zM272 614q0 -98 42 -175t115 -120t165 -43t164.5 43t114.5 120t42 175t-42 175t-114.5 120t-164.5 43t-165 -43t-115 -120t-42 -175z" />
<glyph unicode="&#xa5;" horiz-adv-x="1187" d="M31 1434h194l369 -664l371 664h192l-401 -686h329v-154h-401v-154h401v-153h-401v-287h-176v287h-416v153h416v154h-416v154h342z" />
<glyph unicode="&#xa6;" horiz-adv-x="561" d="M205 10v492h151v-492h-151zM205 932v491h151v-491h-151z" />
<glyph unicode="&#xa7;" horiz-adv-x="835" d="M61 252l136 78q18 -86 86.5 -141.5t156.5 -55.5q78 0 121 28.5t43 90.5q0 51 -30.5 85t-79 58.5t-103.5 44.5q-63 27 -125.5 65t-103.5 95t-41 135q0 180 190 230q-76 37 -133 92t-57 149q0 78 45 133.5t114.5 85t145.5 29.5t146.5 -24.5t123 -65.5t70.5 -94l-131 -84 q-31 59 -90.5 85.5t-116.5 26.5q-61 0 -102 -22.5t-41 -69.5q0 -37 35.5 -67.5t89 -55t104.5 -47.5q68 -27 127 -65.5t96 -91t37 -121.5q0 -109 -50 -167.5t-134 -80.5q76 -41 130 -100.5t54 -143.5q0 -152 -96 -219t-248 -67q-86 0 -166 35.5t-134 98t-69 138.5zM285 756 q0 -84 54 -124t122 -67q63 14 103 68.5t40 109.5q0 68 -52 106t-122 66q-74 -29 -109.5 -66.5t-35.5 -92.5z" />
<glyph unicode="&#xa8;" horiz-adv-x="962" d="M164 1352q0 47 33.5 79.5t78.5 32.5q47 0 80 -32.5t33 -79.5q0 -45 -32.5 -79t-80.5 -34q-45 0 -78.5 34t-33.5 79zM573 1352q0 47 34 79.5t79 32.5q47 0 80 -32.5t33 -79.5q0 -45 -33 -79t-80 -34q-45 0 -79 34t-34 79z" />
<glyph unicode="&#xa9;" horiz-adv-x="1638" d="M82 717q0 160 56.5 295t155.5 234.5t234.5 153.5t290.5 54q158 0 292 -54t233.5 -153.5t155.5 -234.5t56 -295t-56 -295t-155.5 -234.5t-233.5 -153.5t-292 -54q-156 0 -291 54t-234 153.5t-155.5 234.5t-56.5 295zM195 717q0 -182 81.5 -325.5t224 -226.5t318.5 -83 q178 0 319.5 83t223.5 226.5t82 325.5t-82 325.5t-223.5 226.5t-319.5 83q-176 0 -318.5 -83t-224 -226.5t-81.5 -325.5zM379 717q0 129 58.5 228t155.5 156.5t216 57.5q94 0 158.5 -23.5t117.5 -70.5v-137q-45 57 -115.5 92t-160.5 35t-163 -43t-115 -119t-42 -176t42 -176 t115 -119t163 -43t160.5 35t115.5 92v-137q-53 -47 -117.5 -71t-158.5 -24q-119 0 -216 57.5t-155.5 158t-58.5 227.5z" />
<glyph unicode="&#xaa;" horiz-adv-x="487" d="M41 1090q0 74 62.5 119.5t138.5 45.5q41 0 71.5 -10t51.5 -24v79q0 35 -30 53.5t-69 18.5q-51 0 -88 -18.5t-53 -30.5l-39 63q27 18 72 38t108 20q80 0 130 -38t50 -106v-358h-81v68q-20 -37 -63.5 -57.5t-96.5 -20.5q-63 0 -113.5 41t-50.5 117zM125 1090 q0 -33 21.5 -58.5t78.5 -25.5q53 0 96.5 27.5t43.5 92.5v39q-53 29 -119 29q-55 0 -88 -30.5t-33 -73.5z" />
<glyph unicode="&#xab;" horiz-adv-x="1044" d="M82 522l389 482l102 -93l-307 -381l307 -397l-102 -92zM410 522l389 482l102 -93l-307 -381l307 -397l-102 -92z" />
<glyph unicode="&#xac;" horiz-adv-x="1269" d="M133 614v154h1004v-410h-154v256h-850z" />
<glyph unicode="&#xad;" horiz-adv-x="430" d="M10 410v153h410v-153h-410z" />
<glyph unicode="&#xae;" horiz-adv-x="1638" d="M82 717q0 160 56.5 295t155.5 234.5t234.5 153.5t290.5 54q158 0 292 -54t233.5 -153.5t155.5 -234.5t56 -295t-56 -295t-155.5 -234.5t-233.5 -153.5t-292 -54q-156 0 -291 54t-234 153.5t-155.5 234.5t-56.5 295zM195 717q0 -182 81.5 -325.5t224 -226.5t318.5 -83 q178 0 319.5 83t223.5 226.5t82 325.5t-82 325.5t-223.5 226.5t-319.5 83q-176 0 -318.5 -83t-224 -226.5t-81.5 -325.5zM561 307v860h234q125 0 208.5 -69.5t83.5 -188.5q0 -96 -57 -160.5t-147 -86.5l256 -355h-129l-240 344h-104v-344h-105zM666 743h129q84 0 136 43 t52 123t-52 123t-136 43h-129v-332z" />
<glyph unicode="&#xaf;" horiz-adv-x="1044" d="M164 1229v153h717v-153h-717z" />
<glyph unicode="&#xb0;" horiz-adv-x="569" d="M41 1229q0 109 69.5 177.5t174.5 68.5q104 0 173.5 -69t69.5 -177q0 -106 -69.5 -176t-173.5 -70t-174 70t-70 176zM123 1229q0 -74 46 -121t116 -47t115.5 47t45.5 121t-46 121t-115 47q-70 0 -116 -47t-46 -121z" />
<glyph unicode="&#xb1;" horiz-adv-x="1259" d="M133 0v164h993v-164h-993zM133 707v163h410v400h174v-400h409v-163h-409v-400h-174v400h-410z" />
<glyph unicode="&#xb2;" horiz-adv-x="708" d="M51 578l406 434q43 45 66.5 91t23.5 97q0 57 -39 105.5t-117 48.5q-82 0 -134 -56.5t-52 -154.5h-105q0 137 79 223t212 86q94 0 151.5 -41t84 -101.5t26.5 -117.5q0 -66 -31.5 -125t-82.5 -113l-273 -278h391v-98h-606z" />
<glyph unicode="&#xb3;" horiz-adv-x="638" d="M51 801h107q0 -61 47 -101.5t121 -40.5t117.5 42t43.5 112q0 80 -57 120t-141 40v92q84 0 129 44t45 105t-33 99.5t-98 38.5q-59 0 -101.5 -37t-42.5 -94h-100q0 100 68.5 162.5t175.5 62.5q111 0 174 -69.5t63 -159.5q0 -63 -38.5 -115.5t-106.5 -79.5q74 -23 122 -77 t48 -144q0 -109 -76.5 -174.5t-191.5 -65.5q-125 0 -200 69.5t-75 170.5z" />
<glyph unicode="&#xb4;" horiz-adv-x="768" d="M154 1106l307 328l153 -82l-368 -308z" />
<glyph unicode="&#xb5;" horiz-adv-x="1075" d="M154 -655v1597h163v-573q0 -236 201 -236q109 0 174.5 67.5t65.5 168.5v573h164v-942h-164v127q-49 -70 -122 -108.5t-159 -38.5q-92 0 -160 36v-671h-163z" />
<glyph unicode="&#xb6;" horiz-adv-x="1183" d="M123 993q0 143 63.5 240.5t170 149t233.5 51.5h471v-1885h-143v1751h-185v-1751h-143v1004q-127 0 -233.5 51t-170 149.5t-63.5 239.5z" />
<glyph unicode="&#xb7;" d="M195 492q0 47 33.5 79.5t78.5 32.5q47 0 80 -32.5t33 -79.5q0 -45 -33 -79t-80 -34q-45 0 -78.5 34t-33.5 79z" />
<glyph unicode="&#xb8;" horiz-adv-x="716" d="M162 -373l67 82q29 -25 52.5 -37t62.5 -12q53 0 77.5 22.5t24.5 59.5q0 74 -102 74q-14 0 -49 -7.5t-68 -29.5l174 344h125l-131 -229h19q51 0 100 -38t49 -114q0 -94 -67.5 -143.5t-151.5 -49.5q-57 0 -98 17.5t-84 60.5z" />
<glyph unicode="&#xb9;" horiz-adv-x="962" d="M311 1251v109l295 74v-873h-104v748z" />
<glyph unicode="&#xba;" horiz-adv-x="569" d="M41 1188q0 109 69.5 177.5t174.5 68.5q104 0 173.5 -69t69.5 -177q0 -106 -69.5 -176t-173.5 -70t-174 70t-70 176zM123 1188q0 -74 46 -121t116 -47t115.5 47t45.5 121t-46 121t-115 47q-70 0 -116 -47t-46 -121z" />
<glyph unicode="&#xbb;" horiz-adv-x="1044" d="M143 133l308 381l-308 397l103 93l389 -482l-389 -481zM471 133l307 381l-307 397l102 93l390 -482l-390 -481z" />
<glyph unicode="&#xbc;" horiz-adv-x="1544" d="M61 1251v109l295 74v-873h-104v748zM201 0l1065 1434h133l-1065 -1434h-133zM815 172l477 688h43v-596h135v-92h-135v-172h-104v172h-416zM987 264h244v365z" />
<glyph unicode="&#xbd;" horiz-adv-x="1677" d="M61 1251v109l295 74v-873h-104v748zM201 0l1065 1434h133l-1065 -1434h-133zM1010 4l405 434q43 45 66.5 91t23.5 98q0 57 -39 105t-116 48q-82 0 -134.5 -56t-52.5 -155h-104q0 137 79 223.5t212 86.5q94 0 151.5 -41t84 -101.5t26.5 -118.5q0 -66 -32 -125t-83 -112 l-272 -279h391v-98h-606z" />
<glyph unicode="&#xbe;" horiz-adv-x="1679" d="M61 801h107q0 -61 47 -101.5t121 -40.5t118 42t44 112q0 80 -57.5 120t-141.5 40v92q84 0 129 44t45 105t-32.5 99.5t-98.5 38.5q-59 0 -101 -37t-42 -94h-101q0 100 69 162.5t175 62.5q111 0 174.5 -69.5t63.5 -159.5q0 -63 -39 -115.5t-107 -79.5q74 -23 122 -77 t48 -144q0 -109 -76.5 -174.5t-191.5 -65.5q-125 0 -200 69.5t-75 170.5zM338 0l1065 1434h133l-1065 -1434h-133zM952 172l478 688h43v-596h135v-92h-135v-172h-105v172h-416zM1124 264h244v365z" />
<glyph unicode="&#xbf;" horiz-adv-x="1140" d="M123 410q0 119 61.5 213t160.5 152.5t212 64.5l14 245h123l41 -358h-53q-123 0 -211 -47t-135 -119.5t-47 -150.5q0 -131 82 -204t219 -73q102 0 175 47t120 123l133 -84q-47 -72 -104.5 -126t-139.5 -83.5t-205 -29.5q-127 0 -228 56t-159.5 154.5t-58.5 219.5z M516 1352q0 47 34 79.5t79 32.5q47 0 79.5 -32.5t32.5 -79.5q0 -45 -32.5 -79t-79.5 -34q-45 0 -79 34t-34 79z" />
<glyph unicode="&#xc0;" horiz-adv-x="1351" d="M10 0l666 1505l665 -1505h-194l-182 430h-578l-182 -430h-195zM410 1935l153 82l307 -327l-92 -62zM457 594h438l-219 516z" />
<glyph unicode="&#xc1;" horiz-adv-x="1351" d="M10 0l666 1505l665 -1505h-194l-182 430h-578l-182 -430h-195zM457 594h438l-219 516zM481 1690l307 327l154 -82l-369 -307z" />
<glyph unicode="&#xc2;" horiz-adv-x="1351" d="M10 0l666 1505l665 -1505h-194l-182 430h-578l-182 -430h-195zM348 1628l328 287l328 -287l-103 -82l-225 195l-225 -195zM457 594h438l-219 516z" />
<glyph unicode="&#xc3;" horiz-adv-x="1351" d="M10 0l666 1505l665 -1505h-194l-182 430h-578l-182 -430h-195zM338 1663q16 76 79.5 122t133.5 46q49 0 81 -14.5t55.5 -34t50 -33.5t67.5 -14q53 0 115 98l94 -88q-25 -57 -82.5 -103.5t-134.5 -46.5q-55 0 -94 25t-73 48.5t-81 23.5q-41 0 -63.5 -19.5t-31 -44 t-8.5 -41.5zM457 594h438l-219 516z" />
<glyph unicode="&#xc4;" horiz-adv-x="1351" d="M10 0l666 1505l665 -1505h-194l-182 430h-578l-182 -430h-195zM358 1741q0 47 34 79.5t79 32.5q47 0 80 -32.5t33 -79.5q0 -45 -33 -79t-80 -34q-45 0 -79 34t-34 79zM457 594h438l-219 516zM768 1741q0 47 34 79.5t79 32.5q47 0 79.5 -32.5t32.5 -79.5q0 -45 -32.5 -79 t-79.5 -34q-45 0 -79 34t-34 79z" />
<glyph unicode="&#xc5;" horiz-adv-x="1351" d="M10 0l633 1432q-70 12 -123 66t-53 136q0 92 64.5 148.5t144.5 56.5t144.5 -56.5t64.5 -148.5q0 -82 -53.5 -136t-122.5 -66l632 -1432h-194l-182 430h-578l-182 -430h-195zM457 594h438l-219 516zM571 1634q0 -51 33 -79.5t72 -28.5t71.5 28.5t32.5 79.5t-32.5 80 t-71.5 29t-72 -29t-33 -80z" />
<glyph unicode="&#xc6;" horiz-adv-x="1966" d="M10 0l881 1434h932v-164h-645v-410h604v-164h-604v-532h645v-164h-819v430h-535l-264 -430h-195zM569 594h435v711z" />
<glyph unicode="&#xc7;" horiz-adv-x="1402" d="M82 717q0 160 55.5 295t153.5 234.5t228 153.5t280 54q158 0 264 -39t197 -119v-229q-76 96 -193 154.5t-268 58.5q-141 0 -262 -71.5t-196 -197.5t-75 -294q0 -166 75 -293t195.5 -198.5t262.5 -71.5q152 0 268.5 59t192.5 154v-230q-88 -78 -189.5 -116.5t-249.5 -40.5 l-49 -89h19q51 0 99 -37.5t48 -113.5q0 -94 -66.5 -143.5t-150.5 -49.5q-57 0 -99 17.5t-85 60.5l69 82q29 -25 52.5 -37t62.5 -12q53 0 77.5 22.5t24.5 59.5q0 74 -102 74q-14 0 -50 -7.5t-69 -29.5l107 209q-178 20 -319.5 119.5t-224.5 257t-83 354.5z" />
<glyph unicode="&#xc8;" horiz-adv-x="1126" d="M164 0v1434h819v-164h-645v-410h604v-164h-604v-532h645v-164h-819zM307 1884l154 82l307 -328l-92 -61z" />
<glyph unicode="&#xc9;" horiz-adv-x="1126" d="M164 0v1434h819v-164h-645v-410h604v-164h-604v-532h645v-164h-819zM379 1638l307 328l154 -82l-369 -307z" />
<glyph unicode="&#xca;" horiz-adv-x="1126" d="M164 0v1434h819v-164h-645v-410h604v-164h-604v-532h645v-164h-819zM266 1659l328 287l328 -287l-103 -82l-225 195l-225 -195z" />
<glyph unicode="&#xcb;" horiz-adv-x="1126" d="M164 0v1434h819v-164h-645v-410h604v-164h-604v-532h645v-164h-819zM276 1731q0 47 34 79.5t79 32.5q47 0 80 -32.5t33 -79.5q0 -45 -33 -79t-80 -34q-45 0 -79 34t-34 79zM686 1731q0 47 34 79.5t79 32.5q47 0 79.5 -32.5t32.5 -79.5q0 -45 -32.5 -79t-79.5 -34 q-45 0 -79 34t-34 79z" />
<glyph unicode="&#xcc;" horiz-adv-x="501" d="M-16 1884l155 82l307 -328l-94 -61zM164 0v1434h174v-1434h-174z" />
<glyph unicode="&#xcd;" horiz-adv-x="501" d="M57 1638l308 328l151 -82l-369 -307zM164 0v1434h174v-1434h-174z" />
<glyph unicode="&#xce;" horiz-adv-x="501" d="M-78 1659l328 287l328 -287l-103 -82l-225 195l-225 -195zM164 0v1434h174v-1434h-174z" />
<glyph unicode="&#xcf;" horiz-adv-x="501" d="M-66 1690q0 47 33 79.5t78 32.5q47 0 81 -32.5t34 -79.5q0 -45 -34 -79t-81 -34q-45 0 -78 34t-33 79zM164 0v1434h174v-1434h-174zM344 1690q0 47 33 79.5t78 32.5q47 0 80.5 -32.5t33.5 -79.5q0 -45 -33.5 -79t-80.5 -34q-45 0 -78 34t-33 79z" />
<glyph unicode="&#xd0;" horiz-adv-x="1392" d="M10 635v153h154v646h430q209 0 370.5 -90.5t254 -251t92.5 -375.5t-92.5 -376t-254 -251t-370.5 -90h-430v635h-154zM338 174h256q162 0 283.5 66.5t190.5 188.5t69 288q0 168 -69 288.5t-190.5 187.5t-283.5 67h-256v-472h287v-153h-287v-461z" />
<glyph unicode="&#xd1;" horiz-adv-x="1587" d="M164 0v1505l1085 -1138v1067h174v-1506l-1085 1139v-1067h-174zM440 1622q16 76 80 122t133 46q49 0 81 -14.5t55.5 -34t50 -33.5t67.5 -14q53 0 115 98l94 -88q-25 -57 -82 -103.5t-135 -46.5q-55 0 -94 25t-73 48.5t-81 23.5q-41 0 -63.5 -19.5t-30.5 -44t-8 -41.5z " />
<glyph unicode="&#xd2;" horiz-adv-x="1617" d="M82 717q0 158 54 292t152.5 233t231.5 155.5t289 56.5q158 0 290 -56.5t230 -155.5t152.5 -233.5t54.5 -291.5q0 -156 -54.5 -291t-152.5 -234.5t-230 -155.5t-290 -56q-156 0 -289 56t-231.5 155.5t-152.5 234.5t-54 291zM266 717q0 -162 71 -289t193.5 -200.5 t278.5 -73.5q158 0 279.5 73.5t192.5 200.5t71 289t-71 289t-192.5 200.5t-279.5 73.5q-156 0 -278.5 -73.5t-193.5 -200.5t-71 -289zM563 1884l154 82l307 -328l-92 -61z" />
<glyph unicode="&#xd3;" horiz-adv-x="1617" d="M82 717q0 158 54 292t152.5 233t231.5 155.5t289 56.5q158 0 290 -56.5t230 -155.5t152.5 -233.5t54.5 -291.5q0 -156 -54.5 -291t-152.5 -234.5t-230 -155.5t-290 -56q-156 0 -289 56t-231.5 155.5t-152.5 234.5t-54 291zM266 717q0 -162 71 -289t193.5 -200.5 t278.5 -73.5q158 0 279.5 73.5t192.5 200.5t71 289t-71 289t-192.5 200.5t-279.5 73.5q-156 0 -278.5 -73.5t-193.5 -200.5t-71 -289zM594 1638l307 328l154 -82l-369 -307z" />
<glyph unicode="&#xd4;" horiz-adv-x="1617" d="M82 717q0 158 54 292t152.5 233t231.5 155.5t289 56.5q158 0 290 -56.5t230 -155.5t152.5 -233.5t54.5 -291.5q0 -156 -54.5 -291t-152.5 -234.5t-230 -155.5t-290 -56q-156 0 -289 56t-231.5 155.5t-152.5 234.5t-54 291zM266 717q0 -162 71 -289t193.5 -200.5 t278.5 -73.5q158 0 279.5 73.5t192.5 200.5t71 289t-71 289t-192.5 200.5t-279.5 73.5q-156 0 -278.5 -73.5t-193.5 -200.5t-71 -289zM481 1659l328 287l328 -287l-103 -82l-225 195l-225 -195z" />
<glyph unicode="&#xd5;" horiz-adv-x="1617" d="M82 717q0 158 54 292t152.5 233t231.5 155.5t289 56.5q158 0 290 -56.5t230 -155.5t152.5 -233.5t54.5 -291.5q0 -156 -54.5 -291t-152.5 -234.5t-230 -155.5t-290 -56q-156 0 -289 56t-231.5 155.5t-152.5 234.5t-54 291zM266 717q0 -162 71 -289t193.5 -200.5 t278.5 -73.5q158 0 279.5 73.5t192.5 200.5t71 289t-71 289t-192.5 200.5t-279.5 73.5q-156 0 -278.5 -73.5t-193.5 -200.5t-71 -289zM471 1653q16 76 79.5 122t133.5 46q49 0 81 -14.5t55.5 -34t50 -34t67.5 -14.5q53 0 115 99l94 -88q-25 -57 -82 -103.5t-135 -46.5 q-55 0 -94 24.5t-73 48t-81 23.5q-41 0 -63.5 -19.5t-30.5 -44t-8 -40.5z" />
<glyph unicode="&#xd6;" horiz-adv-x="1617" d="M82 717q0 158 54 292t152.5 233t231.5 155.5t289 56.5q158 0 290 -56.5t230 -155.5t152.5 -233.5t54.5 -291.5q0 -156 -54.5 -291t-152.5 -234.5t-230 -155.5t-290 -56q-156 0 -289 56t-231.5 155.5t-152.5 234.5t-54 291zM266 717q0 -162 71 -289t193.5 -200.5 t278.5 -73.5q158 0 279.5 73.5t192.5 200.5t71 289t-71 289t-192.5 200.5t-279.5 73.5q-156 0 -278.5 -73.5t-193.5 -200.5t-71 -289zM492 1690q0 47 33.5 79.5t78.5 32.5q47 0 80 -32.5t33 -79.5q0 -45 -33 -79t-80 -34q-45 0 -78.5 34t-33.5 79zM901 1690q0 47 34 79.5 t79 32.5q47 0 79.5 -32.5t32.5 -79.5q0 -45 -32.5 -79t-79.5 -34q-45 0 -79 34t-34 79z" />
<glyph unicode="&#xd7;" horiz-adv-x="1220" d="M133 160l373 362l-373 363l115 114l362 -372l363 372l114 -114l-372 -363l372 -362l-114 -115l-363 373l-362 -373z" />
<glyph unicode="&#xd8;" horiz-adv-x="1617" d="M82 -20l192 227q-90 98 -141 228t-51 282q0 158 54 292t152.5 233t231.5 155.5t289 56.5q121 0 227.5 -34t194.5 -95l178 211l121 -82l-191 -223q92 -98 144.5 -230.5t52.5 -283.5q0 -156 -54.5 -291t-152.5 -234.5t-230 -155.5t-290 -56q-121 0 -229.5 34.5t-196.5 96.5 l-182 -213zM266 717q0 -109 34 -204t93 -169l721 846q-63 43 -141 66.5t-164 23.5q-156 0 -278.5 -73.5t-193.5 -200.5t-71 -289zM500 248q63 -45 142 -69.5t167 -24.5q158 0 279.5 73.5t192.5 200.5t71 289q0 111 -34 207t-95 170z" />
<glyph unicode="&#xd9;" horiz-adv-x="1282" d="M154 471v963h174v-963q0 -147 79.5 -237.5t233.5 -90.5t233.5 90.5t79.5 237.5v963h174v-963q0 -141 -60 -253t-168.5 -175t-258.5 -63q-147 0 -257 63t-170 175t-60 253zM375 1884l153 82l308 -328l-93 -61z" />
<glyph unicode="&#xda;" horiz-adv-x="1282" d="M154 471v963h174v-963q0 -147 79.5 -237.5t233.5 -90.5t233.5 90.5t79.5 237.5v963h174v-963q0 -141 -60 -253t-168.5 -175t-258.5 -63q-147 0 -257 63t-170 175t-60 253zM446 1638l308 328l153 -82l-368 -307z" />
<glyph unicode="&#xdb;" horiz-adv-x="1282" d="M154 471v963h174v-963q0 -147 79.5 -237.5t233.5 -90.5t233.5 90.5t79.5 237.5v963h174v-963q0 -141 -60 -253t-168.5 -175t-258.5 -63q-147 0 -257 63t-170 175t-60 253zM313 1659l328 287l328 -287l-103 -82l-225 195l-225 -195z" />
<glyph unicode="&#xdc;" horiz-adv-x="1282" d="M154 471v963h174v-963q0 -147 79.5 -237.5t233.5 -90.5t233.5 90.5t79.5 237.5v963h174v-963q0 -141 -60 -253t-168.5 -175t-258.5 -63q-147 0 -257 63t-170 175t-60 253zM324 1690q0 47 33.5 79.5t78.5 32.5q47 0 80 -32.5t33 -79.5q0 -45 -33 -79t-80 -34 q-45 0 -78.5 34t-33.5 79zM733 1690q0 47 34 79.5t79 32.5q47 0 79.5 -32.5t32.5 -79.5q0 -45 -32.5 -79t-79.5 -34q-45 0 -79 34t-34 79z" />
<glyph unicode="&#xdd;" horiz-adv-x="1148" d="M10 1434h195l368 -664l371 664h195l-477 -816v-618h-175v616zM381 1638l307 328l152 -82l-369 -307z" />
<glyph unicode="&#xde;" horiz-adv-x="1126" d="M164 0v1434h174v-287h215q139 0 248.5 -52.5t174 -148.5t64.5 -229q0 -131 -64.5 -228.5t-174 -149.5t-248.5 -52h-215v-287h-174zM338 451h215q139 0 226 67.5t87 198.5q0 133 -87 199.5t-226 66.5h-215v-532z" />
<glyph unicode="&#xdf;" horiz-adv-x="1157" d="M147 -4v1249q0 111 56.5 197t160 135t242.5 49q166 0 271.5 -73.5t105.5 -237.5q0 -84 -22.5 -142.5t-56.5 -101.5t-67.5 -80t-56 -77t-22.5 -91q0 -43 34.5 -73.5t85 -61.5t100.5 -70.5t85 -98t35 -146.5q0 -111 -53.5 -201t-142.5 -143.5t-202 -53.5q-94 0 -169.5 39 t-131.5 101l101 123q47 -47 100 -77t113 -30q92 0 152.5 65.5t60.5 153.5q0 70 -35 116t-87 83t-104.5 72.5t-87 84t-34.5 117.5q0 72 34.5 126.5t81.5 104.5t82 108.5t35 137.5q0 68 -33 106t-85 54.5t-113 16.5q-117 0 -193 -63.5t-76 -209.5l2 -1208h-166z" />
<glyph unicode="&#xe0;" horiz-adv-x="993" d="M61 256q0 111 53.5 183.5t144.5 109.5t204 37q82 0 143.5 -20.5t100.5 -47.5v158q0 72 -60.5 107.5t-138.5 35.5q-100 0 -173 -36.5t-108 -61.5l-80 125q53 39 143.5 78t217.5 39q162 0 262 -75t100 -212v-676h-163v135q-43 -76 -129 -115.5t-193 -39.5 q-145 0 -234.5 73.5t-89.5 202.5zM180 1393l154 82l307 -328l-92 -62zM227 276q0 -152 199 -151q123 0 202 56.5t79 187.5v37q-104 55 -236 55q-125 0 -184.5 -49.5t-59.5 -135.5z" />
<glyph unicode="&#xe1;" horiz-adv-x="993" d="M61 256q0 111 53.5 183.5t144.5 109.5t204 37q82 0 143.5 -20.5t100.5 -47.5v158q0 72 -60.5 107.5t-138.5 35.5q-100 0 -173 -36.5t-108 -61.5l-80 125q53 39 143.5 78t217.5 39q162 0 262 -75t100 -212v-676h-163v135q-43 -76 -129 -115.5t-193 -39.5 q-145 0 -234.5 73.5t-89.5 202.5zM227 276q0 -152 199 -151q123 0 202 56.5t79 187.5v37q-104 55 -236 55q-125 0 -184.5 -49.5t-59.5 -135.5zM375 1147l307 328l154 -82l-369 -308z" />
<glyph unicode="&#xe2;" horiz-adv-x="993" d="M61 256q0 111 53.5 183.5t144.5 109.5t204 37q82 0 143.5 -20.5t100.5 -47.5v158q0 72 -60.5 107.5t-138.5 35.5q-100 0 -173 -36.5t-108 -61.5l-80 125q53 39 143.5 78t217.5 39q162 0 262 -75t100 -212v-676h-163v135q-43 -76 -129 -115.5t-193 -39.5 q-145 0 -234.5 73.5t-89.5 202.5zM180 1167l328 287l328 -287l-103 -82l-225 195l-225 -195zM227 276q0 -152 199 -151q123 0 202 56.5t79 187.5v37q-104 55 -236 55q-125 0 -184.5 -49.5t-59.5 -135.5z" />
<glyph unicode="&#xe3;" horiz-adv-x="993" d="M61 256q0 111 53.5 183.5t144.5 109.5t204 37q82 0 143.5 -20.5t100.5 -47.5v158q0 72 -60.5 107.5t-138.5 35.5q-100 0 -173 -36.5t-108 -61.5l-80 125q53 39 143.5 78t217.5 39q162 0 262 -75t100 -212v-676h-163v135q-43 -76 -129 -115.5t-193 -39.5 q-145 0 -234.5 73.5t-89.5 202.5zM170 1161q16 76 79.5 122t133.5 46q49 0 81 -14.5t55.5 -33.5t50 -33.5t67.5 -14.5q53 0 115 98l94 -88q-25 -57 -82 -103t-135 -46q-55 0 -94 24.5t-73 48t-81 23.5q-41 0 -63.5 -19.5t-30.5 -44t-8 -41.5zM227 276q0 -152 199 -151 q123 0 202 56.5t79 187.5v37q-104 55 -236 55q-125 0 -184.5 -49.5t-59.5 -135.5z" />
<glyph unicode="&#xe4;" horiz-adv-x="993" d="M61 256q0 111 53.5 183.5t144.5 109.5t204 37q82 0 143.5 -20.5t100.5 -47.5v158q0 72 -60.5 107.5t-138.5 35.5q-100 0 -173 -36.5t-108 -61.5l-80 125q53 39 143.5 78t217.5 39q162 0 262 -75t100 -212v-676h-163v135q-43 -76 -129 -115.5t-193 -39.5 q-145 0 -234.5 73.5t-89.5 202.5zM190 1198q0 47 34 80t79 33q47 0 80 -33t33 -80q0 -45 -33 -79t-80 -34q-45 0 -79 34t-34 79zM227 276q0 -152 199 -151q123 0 202 56.5t79 187.5v37q-104 55 -236 55q-125 0 -184.5 -49.5t-59.5 -135.5zM600 1198q0 47 34 80t79 33 q47 0 79.5 -33t32.5 -80q0 -45 -32.5 -79t-79.5 -34q-45 0 -79 34t-34 79z" />
<glyph unicode="&#xe5;" horiz-adv-x="993" d="M61 256q0 111 53.5 183.5t144.5 109.5t204 37q82 0 143.5 -20.5t100.5 -47.5v158q0 72 -60.5 107.5t-138.5 35.5q-100 0 -173 -36.5t-108 -61.5l-80 125q53 39 143.5 78t217.5 39q162 0 262 -75t100 -212v-676h-163v135q-43 -76 -129 -115.5t-193 -39.5 q-145 0 -234.5 73.5t-89.5 202.5zM227 276q0 -152 199 -151q123 0 202 56.5t79 187.5v37q-104 55 -236 55q-125 0 -184.5 -49.5t-59.5 -135.5zM299 1290q0 92 64.5 148.5t144.5 56.5t144.5 -56.5t64.5 -148.5t-64.5 -148.5t-144.5 -56.5t-144.5 56.5t-64.5 148.5zM403 1290 q0 -51 33 -79.5t72 -28.5t71.5 28.5t32.5 79.5t-32.5 80t-71.5 29t-72 -29t-33 -80z" />
<glyph unicode="&#xe6;" horiz-adv-x="1689" d="M61 256q0 98 51.5 172t141.5 116t209 42q63 0 119.5 -14.5t124.5 -49.5v92q0 98 -51.5 151.5t-147.5 53.5q-70 0 -144.5 -25.5t-136.5 -72.5l-80 125q158 117 361 117q131 0 212 -52.5t103 -152.5q57 96 155.5 150.5t215.5 54.5q125 0 220 -61.5t149.5 -170t54.5 -252.5 q0 -33 -4 -49h-740q8 -141 87 -219t213 -78q193 0 294 170l134 -84q-156 -240 -449 -239q-131 0 -217 51t-143 166q-29 -100 -126.5 -158.5t-240.5 -58.5q-168 0 -266.5 75.5t-98.5 200.5zM227 276q0 -78 48.5 -114.5t150.5 -36.5q123 0 191.5 50t95.5 157l-4 74 q-109 55 -238 55q-244 0 -244 -185zM879 569h563q-8 115 -81 182.5t-192 67.5q-117 0 -193.5 -66.5t-96.5 -183.5z" />
<glyph unicode="&#xe7;" horiz-adv-x="978" d="M61 471q0 143 64.5 254t175.5 174.5t248 63.5q96 0 187 -32t141 -89v-205q-33 70 -123 121t-205 51q-92 0 -165 -43t-115 -120t-42 -175t42 -174t115 -120t165 -44q115 0 205 51.5t123 120.5v-205q-47 -55 -130 -85.5t-176 -34.5l-49 -89h19q51 0 99 -37.5t48 -113.5 q0 -94 -66.5 -143.5t-150.5 -49.5q-57 0 -99 17.5t-85 60.5l69 82q29 -25 52.5 -37t62.5 -12q53 0 77.5 22.5t24.5 59.5q0 74 -102 74q-14 0 -50 -7.5t-69 -29.5l109 211q-117 18 -207 84.5t-141.5 169t-51.5 229.5z" />
<glyph unicode="&#xe8;" horiz-adv-x="1054" d="M72 471q0 27 2 51.5t6 48.5q20 117 81.5 205t159 137.5t218.5 49.5q133 0 233 -59.5t155.5 -167t55.5 -257.5v-24.5t-2 -24.5h-741q10 -143 90 -220t209 -77q102 0 174.5 47t120.5 123l133 -84q-47 -72 -104.5 -126t-139.5 -83.5t-205 -29.5q-127 0 -228.5 63t-159.5 175 t-58 253zM244 569h561q-12 111 -77.5 180.5t-188.5 69.5q-115 0 -199 -66.5t-96 -183.5zM252 1413l154 82l307 -328l-92 -61z" />
<glyph unicode="&#xe9;" horiz-adv-x="1054" d="M72 471q0 27 2 51.5t6 48.5q20 117 81.5 205t159 137.5t218.5 49.5q133 0 233 -59.5t155.5 -167t55.5 -257.5v-24.5t-2 -24.5h-741q10 -143 90 -220t209 -77q102 0 174.5 47t120.5 123l133 -84q-47 -72 -104.5 -126t-139.5 -83.5t-205 -29.5q-127 0 -228.5 63t-159.5 175 t-58 253zM244 569h561q-12 111 -77.5 180.5t-188.5 69.5q-115 0 -199 -66.5t-96 -183.5zM406 1167l307 328l153 -82l-368 -307z" />
<glyph unicode="&#xea;" horiz-adv-x="1054" d="M72 471q0 27 2 51.5t6 48.5q20 117 81.5 205t159 137.5t218.5 49.5q133 0 233 -59.5t155.5 -167t55.5 -257.5v-24.5t-2 -24.5h-741q10 -143 90 -220t209 -77q102 0 174.5 47t120.5 123l133 -84q-47 -72 -104.5 -126t-139.5 -83.5t-205 -29.5q-127 0 -228.5 63t-159.5 175 t-58 253zM211 1167l328 287l327 -287l-102 -82l-225 195l-226 -195zM244 569h561q-12 111 -77.5 180.5t-188.5 69.5q-115 0 -199 -66.5t-96 -183.5z" />
<glyph unicode="&#xeb;" horiz-adv-x="1054" d="M72 471q0 27 2 51.5t6 48.5q20 117 81.5 205t159 137.5t218.5 49.5q133 0 233 -59.5t155.5 -167t55.5 -257.5v-24.5t-2 -24.5h-741q10 -143 90 -220t209 -77q102 0 174.5 47t120.5 123l133 -84q-47 -72 -104.5 -126t-139.5 -83.5t-205 -29.5q-127 0 -228.5 63t-159.5 175 t-58 253zM221 1198q0 47 34 80t79 33q47 0 79.5 -33t32.5 -80q0 -45 -32.5 -79t-79.5 -34q-45 0 -79 34t-34 79zM244 569h561q-12 111 -77.5 180.5t-188.5 69.5q-115 0 -199 -66.5t-96 -183.5zM631 1198q0 47 33.5 80t78.5 33q47 0 80 -33t33 -80q0 -45 -32.5 -79t-80.5 -34 q-45 0 -78.5 34t-33.5 79z" />
<glyph unicode="&#xec;" horiz-adv-x="532" d="M-61 1434l153 82l307 -328l-92 -62zM184 0v942h164v-942h-164z" />
<glyph unicode="&#xed;" horiz-adv-x="532" d="M133 1188l307 328l154 -82l-369 -308zM184 0v942h164v-942h-164z" />
<glyph unicode="&#xee;" horiz-adv-x="532" d="M-61 1188l327 287l328 -287l-102 -82l-226 194l-225 -194zM184 0v942h164v-942h-164z" />
<glyph unicode="&#xef;" horiz-adv-x="532" d="M-51 1260q0 47 33.5 79.5t78.5 32.5q47 0 80 -32.5t33 -79.5q0 -45 -32.5 -79t-80.5 -34q-45 0 -78.5 34t-33.5 79zM184 0v942h164v-942h-164zM358 1260q0 47 34 79.5t79 32.5q47 0 80 -32.5t33 -79.5q0 -45 -33 -79t-80 -34q-45 0 -79 34t-34 79z" />
<glyph unicode="&#xf0;" horiz-adv-x="1179" d="M102 471q0 135 55.5 239.5t150.5 165t218 60.5t256 -66q-68 123 -176 248l-229 -88l-37 96l190 74q-76 80 -176 170l99 115q123 -123 219 -232l241 93l37 -97l-207 -80q174 -207 254 -376.5t80 -321.5q0 -143 -62.5 -254t-172 -174t-252.5 -63q-141 0 -252 63t-173.5 174 t-62.5 254zM268 471q0 -96 41 -172t114 -119t167 -43t166.5 43t113.5 119t41 172q0 98 -42 174t-114.5 120t-164.5 44t-165 -44t-115 -120t-42 -174z" />
<glyph unicode="&#xf1;" horiz-adv-x="1075" d="M154 0v942h163v-127q49 68 122 108t159 40q145 0 234.5 -93.5t89.5 -275.5v-594h-164v573q0 236 -201 236q-106 0 -173 -66.5t-67 -169.5v-573h-163zM201 1161q16 76 79.5 122t133.5 46q49 0 80.5 -14.5t55 -33.5t50.5 -33.5t68 -14.5q53 0 114 98l95 -88 q-25 -57 -82.5 -103t-135.5 -46q-55 0 -94 24.5t-72.5 48t-80.5 23.5q-41 0 -63.5 -19.5t-31 -44t-8.5 -41.5z" />
<glyph unicode="&#xf2;" horiz-adv-x="1118" d="M72 471q0 143 64.5 254t175 174.5t247.5 63.5q139 0 249 -63.5t174.5 -174.5t64.5 -254q0 -141 -64.5 -253t-174.5 -175t-249 -63q-137 0 -247.5 63t-175 175t-64.5 253zM231 1434l154 82l307 -328l-92 -62zM238 471q0 -98 42 -174t114.5 -120t164.5 -44t165 44t115 120 t42 174t-42 175t-115 120t-165 43t-164.5 -43t-114.5 -120t-42 -175z" />
<glyph unicode="&#xf3;" horiz-adv-x="1118" d="M72 471q0 143 64.5 254t175 174.5t247.5 63.5q139 0 249 -63.5t174.5 -174.5t64.5 -254q0 -141 -64.5 -253t-174.5 -175t-249 -63q-137 0 -247.5 63t-175 175t-64.5 253zM238 471q0 -98 42 -174t114.5 -120t164.5 -44t165 44t115 120t42 174t-42 175t-115 120t-165 43 t-164.5 -43t-114.5 -120t-42 -175zM426 1188l307 328l154 -82l-369 -308z" />
<glyph unicode="&#xf4;" horiz-adv-x="1118" d="M72 471q0 143 64.5 254t175 174.5t247.5 63.5q139 0 249 -63.5t174.5 -174.5t64.5 -254q0 -141 -64.5 -253t-174.5 -175t-249 -63q-137 0 -247.5 63t-175 175t-64.5 253zM231 1208l328 287l328 -287l-103 -82l-225 195l-225 -195zM238 471q0 -98 42 -174t114.5 -120 t164.5 -44t165 44t115 120t42 174t-42 175t-115 120t-165 43t-164.5 -43t-114.5 -120t-42 -175z" />
<glyph unicode="&#xf5;" horiz-adv-x="1118" d="M72 471q0 143 64.5 254t175 174.5t247.5 63.5q139 0 249 -63.5t174.5 -174.5t64.5 -254q0 -141 -64.5 -253t-174.5 -175t-249 -63q-137 0 -247.5 63t-175 175t-64.5 253zM221 1161q16 76 80 122t133 46q49 0 81 -14.5t55.5 -33.5t50 -33.5t67.5 -14.5q53 0 115 98l94 -88 q-25 -57 -82 -103t-135 -46q-55 0 -94 24.5t-73 48t-81 23.5q-41 0 -63.5 -19.5t-30.5 -44t-8 -41.5zM238 471q0 -98 42 -174t114.5 -120t164.5 -44t165 44t115 120t42 174t-42 175t-115 120t-165 43t-164.5 -43t-114.5 -120t-42 -175z" />
<glyph unicode="&#xf6;" horiz-adv-x="1118" d="M72 471q0 143 64.5 254t175 174.5t247.5 63.5q139 0 249 -63.5t174.5 -174.5t64.5 -254q0 -141 -64.5 -253t-174.5 -175t-249 -63q-137 0 -247.5 63t-175 175t-64.5 253zM238 471q0 -98 42 -174t114.5 -120t164.5 -44t165 44t115 120t42 174t-42 175t-115 120t-165 43 t-164.5 -43t-114.5 -120t-42 -175zM242 1260q0 47 33.5 79.5t78.5 32.5q47 0 80 -32.5t33 -79.5q0 -45 -33 -79t-80 -34q-45 0 -78.5 34t-33.5 79zM651 1260q0 47 34 79.5t79 32.5q47 0 80 -32.5t33 -79.5q0 -45 -33 -79t-80 -34q-45 0 -79 34t-34 79z" />
<glyph unicode="&#xf7;" horiz-adv-x="1275" d="M123 461v164h1024v-164h-1024zM522 143q0 47 34 80t79 33q47 0 80 -33t33 -80q0 -45 -33 -78.5t-80 -33.5q-45 0 -79 33.5t-34 78.5zM522 922q0 47 34 79.5t79 32.5q47 0 80 -32.5t33 -79.5q0 -45 -33 -79t-80 -34q-45 0 -79 34t-34 79z" />
<glyph unicode="&#xf8;" horiz-adv-x="1118" d="M72 471q0 143 64.5 254t175 174.5t247.5 63.5t248 -64l94 125l92 -41l-106 -141q76 -66 118 -161t42 -210q0 -141 -64.5 -253t-174.5 -175t-249 -63q-143 0 -260 69l-104 -139l-93 41l119 160q-70 66 -109.5 157.5t-39.5 202.5zM238 471q0 -70 21.5 -128t57.5 -101 l396 530q-70 37 -154 37q-92 0 -164.5 -43t-114.5 -120t-42 -175zM393 178q74 -45 166 -45t165 44t115 120t42 174q0 74 -23.5 135.5t-66.5 104.5z" />
<glyph unicode="&#xf9;" horiz-adv-x="1075" d="M154 348v594h163v-573q0 -236 201 -236q109 0 174.5 67.5t65.5 168.5v573h164v-942h-164v127q-49 -68 -122 -107.5t-159 -39.5q-145 0 -234 93t-89 275zM291 1434l155 82l308 -328l-95 -62z" />
<glyph unicode="&#xfa;" horiz-adv-x="1075" d="M154 348v594h163v-573q0 -236 201 -236q109 0 174.5 67.5t65.5 168.5v573h164v-942h-164v127q-49 -68 -122 -107.5t-159 -39.5q-145 0 -234 93t-89 275zM324 1188l307 328l151 -82l-368 -308z" />
<glyph unicode="&#xfb;" horiz-adv-x="1075" d="M154 348v594h163v-573q0 -236 201 -236q109 0 174.5 67.5t65.5 168.5v573h164v-942h-164v127q-49 -68 -122 -107.5t-159 -39.5q-145 0 -234 93t-89 275zM209 1208l328 287l327 -287l-102 -82l-225 195l-226 -195z" />
<glyph unicode="&#xfc;" horiz-adv-x="1075" d="M154 348v594h163v-573q0 -236 201 -236q109 0 174.5 67.5t65.5 168.5v573h164v-942h-164v127q-49 -68 -122 -107.5t-159 -39.5q-145 0 -234 93t-89 275zM221 1239q0 47 33 80t78 33q47 0 80.5 -33t33.5 -80q0 -45 -33.5 -79t-80.5 -34q-45 0 -78 34t-33 79zM631 1239 q0 47 32.5 80t77.5 33q47 0 81 -33t34 -80q0 -45 -34 -79t-81 -34q-45 0 -77.5 34t-32.5 79z" />
<glyph unicode="&#xfd;" horiz-adv-x="901" d="M0 942h195l264 -649l258 649h184l-614 -1393h-185l258 584zM256 1188l307 328l154 -82l-369 -308z" />
<glyph unicode="&#xfe;" horiz-adv-x="1167" d="M143 -451v2048h164v-817q51 88 134 135.5t188 47.5q129 0 234.5 -59.5t169 -169t63.5 -263.5q0 -152 -63.5 -262.5t-169 -169.5t-234.5 -59q-104 0 -187.5 47t-134.5 135v-613h-164zM307 471q0 -109 45 -184.5t115 -114.5t141 -39q88 0 161 39t117 114.5t44 184.5 t-44 184.5t-117 114.5t-161 39q-72 0 -141.5 -39t-114.5 -114.5t-45 -184.5z" />
<glyph unicode="&#xff;" horiz-adv-x="901" d="M0 942h195l264 -649l258 649h184l-614 -1393h-185l258 584zM133 1198q0 47 34 80t79 33q47 0 79.5 -33t32.5 -80q0 -45 -32.5 -79t-79.5 -34q-45 0 -79 34t-34 79zM543 1198q0 47 33.5 80t78.5 33q47 0 80 -33t33 -80q0 -45 -33 -79t-80 -34q-45 0 -78.5 34t-33.5 79z " />
<glyph unicode="&#x152;" horiz-adv-x="2017" d="M82 717q0 215 92 375.5t254 251t371 90.5h1075v-164h-645v-410h604v-164h-604v-532h647v-164h-1077q-207 0 -370 90t-255 251t-92 376zM256 717q0 -166 68.5 -291t191.5 -193.5t283 -68.5h256v1106h-256q-162 0 -284 -68.5t-190.5 -192.5t-68.5 -292z" />
<glyph unicode="&#x153;" horiz-adv-x="1843" d="M72 471q0 154 63.5 263.5t170 169t233.5 59.5q141 0 240.5 -73t142.5 -204q53 127 164.5 202t261.5 75q113 0 209 -59.5t155.5 -167t59.5 -257.5v-24.5t-3 -24.5h-741q10 -143 90 -220t209 -77q102 0 175 47t120 123l133 -84q-70 -106 -173 -172.5t-255 -66.5 q-139 0 -245.5 74.5t-159.5 199.5q-43 -129 -142.5 -201.5t-240.5 -72.5q-127 0 -233.5 59t-170 169.5t-63.5 262.5zM238 471q0 -109 44 -184.5t117.5 -114.5t159.5 -39q72 0 136.5 39t104.5 114.5t40 184.5t-40 184.5t-104.5 114.5t-136.5 39q-86 0 -159.5 -39 t-117.5 -114.5t-44 -184.5zM1032 569h561q-12 111 -77.5 180.5t-188.5 69.5q-115 0 -199 -66.5t-96 -183.5z" />
<glyph unicode="&#x178;" horiz-adv-x="1148" d="M10 1434h195l368 -664l371 664h195l-477 -816v-618h-175v616zM258 1690q0 47 33 79.5t78 32.5q47 0 80.5 -32.5t33.5 -79.5q0 -45 -33.5 -79t-80.5 -34q-45 0 -78 34t-33 79zM668 1690q0 47 32.5 79.5t77.5 32.5q47 0 81 -32.5t34 -79.5q0 -45 -34 -79t-81 -34 q-45 0 -77.5 34t-32.5 79z" />
<glyph unicode="&#x2c6;" horiz-adv-x="983" d="M164 1208l328 287l327 -287l-102 -82l-225 195l-226 -195z" />
<glyph unicode="&#x2dc;" horiz-adv-x="1085" d="M205 1280q16 76 79.5 122t133.5 46q49 0 80.5 -14.5t55.5 -34t50.5 -33.5t67.5 -14q53 0 114 98l95 -88q-25 -57 -82.5 -103.5t-134.5 -46.5q-55 0 -94.5 25t-73 48.5t-80.5 23.5q-41 0 -63.5 -19.5t-31 -44t-8.5 -41.5z" />
<glyph unicode="&#x2000;" horiz-adv-x="1008" />
<glyph unicode="&#x2001;" horiz-adv-x="2017" />
<glyph unicode="&#x2002;" horiz-adv-x="1008" />
<glyph unicode="&#x2003;" horiz-adv-x="2017" />
<glyph unicode="&#x2004;" horiz-adv-x="672" />
<glyph unicode="&#x2005;" horiz-adv-x="504" />
<glyph unicode="&#x2006;" horiz-adv-x="336" />
<glyph unicode="&#x2007;" horiz-adv-x="336" />
<glyph unicode="&#x2008;" horiz-adv-x="252" />
<glyph unicode="&#x2009;" horiz-adv-x="403" />
<glyph unicode="&#x200a;" horiz-adv-x="112" />
<glyph unicode="&#x2010;" horiz-adv-x="430" d="M10 410v153h410v-153h-410z" />
<glyph unicode="&#x2011;" horiz-adv-x="430" d="M10 410v153h410v-153h-410z" />
<glyph unicode="&#x2012;" horiz-adv-x="430" d="M10 410v153h410v-153h-410z" />
<glyph unicode="&#x2013;" horiz-adv-x="1515" d="M143 410v153h1229v-153h-1229z" />
<glyph unicode="&#x2014;" horiz-adv-x="1822" d="M143 410v153h1536v-153h-1536z" />
<glyph unicode="&#x2018;" horiz-adv-x="563" d="M143 963l205 471h113l-123 -471h-195z" />
<glyph unicode="&#x2019;" horiz-adv-x="563" d="M102 963l123 471h195l-205 -471h-113z" />
<glyph unicode="&#x201a;" horiz-adv-x="563" d="M123 -307l123 471h194l-204 -471h-113z" />
<glyph unicode="&#x201c;" horiz-adv-x="972" d="M143 963l205 471h113l-123 -471h-195zM553 963l205 471h112l-122 -471h-195z" />
<glyph unicode="&#x201d;" horiz-adv-x="972" d="M102 963l123 471h195l-205 -471h-113zM512 963l123 471h194l-204 -471h-113z" />
<glyph unicode="&#x201e;" horiz-adv-x="972" d="M102 -307l123 471h195l-205 -471h-113zM512 -307l123 471h194l-204 -471h-113z" />
<glyph unicode="&#x2022;" d="M195 850q0 47 33.5 80t78.5 33q47 0 80 -33t33 -80q0 -45 -33 -79t-80 -34q-45 0 -78.5 34t-33.5 79z" />
<glyph unicode="&#x2026;" horiz-adv-x="1843" d="M195 82q0 47 33.5 80t78.5 33q47 0 80 -33t33 -80q0 -45 -33 -79t-80 -34q-45 0 -78.5 34t-33.5 79zM809 82q0 47 34 80t79 33q47 0 79.5 -33t32.5 -80q0 -45 -32.5 -79t-79.5 -34q-45 0 -79 34t-34 79zM1423 82q0 47 34 80t79 33q47 0 80 -33t33 -80q0 -45 -33 -79 t-80 -34q-45 0 -79 34t-34 79z" />
<glyph unicode="&#x202f;" horiz-adv-x="403" />
<glyph unicode="&#x2039;" horiz-adv-x="716" d="M82 522l389 482l102 -93l-307 -381l307 -397l-102 -92z" />
<glyph unicode="&#x203a;" horiz-adv-x="716" d="M143 133l308 381l-308 397l103 93l389 -482l-389 -481z" />
<glyph unicode="&#x205f;" horiz-adv-x="504" />
<glyph unicode="&#x20ac;" horiz-adv-x="1187" d="M31 588v98h112v31q0 59 7 117h-119v98h135q37 156 121 273.5t203.5 183t267.5 65.5q84 0 160.5 -21.5t146.5 -62.5v-207q-131 127 -307 127q-152 0 -260.5 -98t-153.5 -260h713v-98h-731q-8 -57 -9 -117v-31h687v-98h-676q18 -133 77.5 -232.5t149.5 -156t203 -56.5 q176 0 307 127v-207q-70 -39 -146.5 -61t-160.5 -22q-160 0 -289 76.5t-212 214t-105 317.5h-121z" />
<glyph unicode="&#x2122;" horiz-adv-x="1361" d="M66 1352v82h456v-82h-184v-635h-88v635h-184zM549 717l86 751l287 -518l286 518l86 -751h-86l-53 481l-233 -416l-234 416l-53 -481h-86z" />
<glyph unicode="&#x25fc;" horiz-adv-x="942" d="M0 0v942h942v-942h-942z" />
</font>
</defs>
</svg>
