<?xml version="1.0" standalone="no"?>
<!DOCTYPE svg PUBLIC "-//W3C//DTD SVG 1.1//EN" "http://www.w3.org/Graphics/SVG/1.1/DTD/svg11.dtd" >
<svg xmlns="http://www.w3.org/2000/svg" xmlns:xlink="http://www.w3.org/1999/xlink" version="1.1">
<metadata></metadata>
<defs>
<font id="fira_sansregular" horiz-adv-x="1024" >
<font-face units-per-em="2048" ascent="1638" descent="-410" />
<missing-glyph horiz-adv-x="542" />
<glyph unicode="&#xfb01;" horiz-adv-x="1177" />
<glyph unicode="&#xfb02;" horiz-adv-x="1212" />
<glyph horiz-adv-x="0" />
<glyph unicode="&#xd;" horiz-adv-x="542" />
<glyph unicode=" "  horiz-adv-x="542" />
<glyph unicode="&#x09;" horiz-adv-x="542" />
<glyph unicode="&#xa0;" horiz-adv-x="542" />
<glyph unicode="!" horiz-adv-x="493" d="M104 119q0 59 41 100t101 41q61 0 102 -41t41 -100t-41 -101.5t-102 -42.5q-59 0 -100.5 42t-41.5 102zM139 1411h209l-20 -940h-166z" />
<glyph unicode="&#x22;" horiz-adv-x="817" d="M123 1411h203l-31 -537h-141zM492 1411h203l-31 -537h-141z" />
<glyph unicode="#" horiz-adv-x="1060" d="M31 334v141h151l58 440h-134v144h152l41 311h160l-41 -311h315l41 311h160l-41 -311h137v-144h-156l-57 -440h137v-141h-157l-43 -334h-160l43 334h-315l-43 -334h-160l43 334h-131zM342 475h315l58 440h-316z" />
<glyph unicode="$" horiz-adv-x="1087" d="M51 154l111 120q147 -143 352 -143q129 0 212 63.5t83 180.5q0 68 -25.5 112.5t-89 79.5t-182.5 72q-211 66 -308.5 155t-97.5 240q0 143 100.5 239.5t264.5 115.5v299h164v-302q98 -10 177 -48t151 -105l-109 -119q-70 66 -144.5 94.5t-162.5 28.5q-109 0 -177.5 -50 t-68.5 -145q0 -59 24.5 -99t88 -73.5t186.5 -72.5q129 -39 215 -86t138.5 -127t52.5 -203q0 -156 -98.5 -262.5t-272.5 -134.5v-301h-164v294q-252 12 -420 177z" />
<glyph unicode="%" horiz-adv-x="1691" d="M92 1044q0 158 93.5 252.5t238.5 94.5q147 0 240.5 -94.5t93.5 -252.5t-93.5 -252t-240.5 -94q-145 0 -238.5 94.5t-93.5 251.5zM258 1044q0 -94 38 -156.5t128 -62.5q166 0 166 219q0 94 -37 157t-129 63q-90 0 -128 -61.5t-38 -158.5zM307 23l948 1433l131 -86 l-948 -1433zM934 322q0 158 93 252t241 94q147 0 239 -94.5t92 -251.5q0 -158 -92 -252.5t-239 -94.5t-240.5 94.5t-93.5 252.5zM1102 322q0 -94 38 -157t128 -63q166 0 166 220q0 94 -37 155.5t-129 61.5q-90 0 -128 -60.5t-38 -156.5z" />
<glyph unicode="&#x26;" horiz-adv-x="1492" d="M166 358q0 127 71.5 222.5t213.5 185.5q-102 98 -150.5 176t-48.5 176q0 139 97 228.5t269 89.5q111 0 196 -40t132 -112t47 -160q0 -121 -76.5 -208t-211.5 -166l360 -340q82 166 123 346l176 -51q-72 -238 -182 -404l229 -215l-135 -111l-199 193 q-88 -96 -198.5 -144.5t-253.5 -48.5q-135 0 -238.5 47.5t-162 134.5t-58.5 201zM358 365q0 -113 79 -176.5t208 -63.5q96 0 174 37t150 110l-410 392q-102 -68 -151.5 -138.5t-49.5 -160.5zM436 1120q0 -74 39 -132t123 -138q104 63 157.5 125.5t53.5 138.5q0 86 -51 134 t-137 48t-135.5 -49t-49.5 -127z" />
<glyph unicode="'" horiz-adv-x="448" d="M123 1411h203l-31 -537h-141z" />
<glyph unicode="(" horiz-adv-x="663" d="M82 717q0 227 50 400t123 297t208 317l119 -82q-106 -158 -169 -282t-98.5 -281.5t-35.5 -368.5q0 -209 35.5 -366.5t98 -283.5t169.5 -282l-119 -82q-135 193 -208 316.5t-123 296.5t-50 401z" />
<glyph unicode=")" horiz-adv-x="663" d="M82 -215q106 156 168.5 282t98.5 283.5t36 366.5q0 211 -36 368.5t-98.5 281.5t-168.5 282l119 82q135 -193 207.5 -317t123 -297t50.5 -400t-50.5 -400.5t-123 -297t-207.5 -316.5z" />
<glyph unicode="*" horiz-adv-x="899" d="M41 1149l55 168l291 -125l-31 321h185l-31 -323l291 129l57 -170l-313 -68l213 -237l-148 -109l-161 275l-160 -275l-148 107l211 239z" />
<glyph unicode="+" horiz-adv-x="1021" d="M127 600v156h297v307h172v-307h299v-156h-299v-305h-172v305h-297z" />
<glyph unicode="," horiz-adv-x="491" d="M78 -340l82 340q-27 20 -42.5 51t-15.5 68q0 59 41 100t101 41q61 0 102 -41t41 -100q0 -63 -37 -146l-137 -313h-135z" />
<glyph unicode="-" horiz-adv-x="825" d="M123 561v160h579v-160h-579z" />
<glyph unicode="." horiz-adv-x="491" d="M102 119q0 59 41 100t101 41q61 0 102 -41t41 -100t-41 -101.5t-102 -42.5q-59 0 -100.5 42t-41.5 102z" />
<glyph unicode="/" horiz-adv-x="1064" d="M215 -174l475 1827l160 -37l-473 -1829z" />
<glyph unicode="0" horiz-adv-x="1142" d="M113 684q0 344 115.5 525.5t342.5 181.5q228 0 343.5 -181.5t115.5 -525.5t-115.5 -526.5t-343.5 -182.5q-227 0 -342.5 182.5t-115.5 526.5zM309 684q0 -295 64.5 -427t197.5 -132q131 0 197 132t66 427q0 293 -66 425t-197 132q-133 0 -197.5 -131t-64.5 -426z" />
<glyph unicode="1" horiz-adv-x="886" d="M72 1108l424 262h166v-1370h-189v1169l-319 -194z" />
<glyph unicode="2" horiz-adv-x="1013" d="M51 1184q84 104 186.5 155.5t229.5 51.5q123 0 216 -49.5t144.5 -134.5t51.5 -191q0 -125 -56.5 -239.5t-173.5 -248t-354 -370.5h616l-22 -158h-809v150q274 285 389 416.5t164 230t49 211.5q0 106 -61.5 166.5t-163.5 60.5q-84 0 -147.5 -35t-135.5 -115z" />
<glyph unicode="3" horiz-adv-x="1021" d="M31 160l112 104q68 -70 138.5 -102.5t154.5 -32.5q129 0 203 72.5t74 195.5q0 135 -70 190.5t-203 55.5h-102l22 145h70q106 0 177 63.5t71 178.5q0 96 -61.5 152.5t-165.5 56.5q-80 0 -146.5 -28.5t-136.5 -94.5l-98 113q174 162 391 162q127 0 218 -47.5t139 -127 t48 -174.5q0 -125 -72.5 -205.5t-193.5 -109.5q137 -12 223 -98t86 -234q0 -119 -57 -215t-163.5 -150.5t-246.5 -54.5q-125 0 -229 46.5t-182 138.5z" />
<glyph unicode="4" horiz-adv-x="1089" d="M82 338v135l412 918l157 -66l-370 -838h389l16 369h164v-369h178v-149h-178v-338h-182v338h-586z" />
<glyph unicode="5" horiz-adv-x="1026" d="M53 150l111 108q66 -66 135.5 -97.5t157.5 -31.5q131 0 205.5 82t74.5 231q0 150 -67.5 217.5t-182.5 67.5q-53 0 -98 -11t-96 -36h-148v690h742l-27 -147h-534v-404q104 53 219 53q176 0 282.5 -115.5t106.5 -318.5q0 -135 -59.5 -240.5t-167 -164t-248.5 -58.5 q-125 0 -223.5 44t-182.5 131z" />
<glyph unicode="6" horiz-adv-x="1091" d="M113 643q0 223 62.5 392t179 262.5t276.5 93.5q156 0 282 -84l-73 -125q-96 59 -211 59q-147 0 -233.5 -141.5t-94.5 -378.5q127 180 330 180q104 0 190 -49t137.5 -147.5t51.5 -239.5q0 -145 -58.5 -257t-158 -172.5t-220.5 -60.5q-240 0 -350 177.5t-110 490.5z M303 563q6 -225 70.5 -331.5t199.5 -106.5q119 0 182.5 90t63.5 244q0 293 -221 293q-90 0 -166 -50.5t-129 -138.5z" />
<glyph unicode="7" horiz-adv-x="909" d="M51 1217v153h797v-141l-512 -1249l-172 57l493 1180h-606z" />
<glyph unicode="8" horiz-adv-x="1128" d="M92 362q0 127 68.5 213.5t201.5 143.5q-109 55 -160.5 134t-51.5 185q0 111 58 191t153.5 121t203.5 41q106 0 201.5 -39t155 -118t59.5 -190q0 -102 -57.5 -175.5t-175.5 -133.5q288 -116 288 -368q0 -113 -60.5 -202t-169 -139.5t-245.5 -50.5q-139 0 -245.5 49.5 t-165 137.5t-58.5 200zM289 362q0 -113 73.5 -175t200.5 -62t202 65.5t75 174.5q0 74 -29 124t-92.5 87.5t-177.5 76.5l-52 19q-102 -49 -151 -124t-49 -186zM334 1036q0 -98 60.5 -149t193.5 -94l35 -13q92 53 133 112.5t41 145.5q0 96 -60.5 153.5t-171.5 57.5 q-106 0 -168.5 -55t-62.5 -158z" />
<glyph unicode="9" horiz-adv-x="1075" d="M92 938q0 139 59.5 241.5t159 157t219.5 54.5q218 0 330.5 -142.5t112.5 -390.5q0 -281 -76 -451.5t-231.5 -272t-421.5 -179.5l-43 141q274 78 420.5 211t156.5 355q-47 -74 -127 -119t-180 -45q-106 0 -192 54t-136.5 153.5t-50.5 232.5zM283 934q0 -143 61.5 -216 t165.5 -73q161 0 272 170q4 227 -56 326.5t-191 99.5q-121 0 -186.5 -80t-65.5 -227z" />
<glyph unicode=":" horiz-adv-x="491" d="M102 119q0 59 41 100t101 41q61 0 102 -41t41 -100t-41 -101.5t-102 -42.5q-59 0 -100.5 42t-41.5 102zM102 873q0 59 41 100t101 41q61 0 102 -41t41 -100t-41 -101.5t-102 -42.5q-59 0 -100.5 42t-41.5 102z" />
<glyph unicode=";" horiz-adv-x="491" d="M78 -340l82 340q-27 20 -42.5 51t-15.5 68q0 59 41 100t101 41q61 0 102 -41t41 -100q0 -63 -37 -146l-137 -313h-135zM102 873q0 59 41 100t101 41q61 0 102 -41t41 -100t-41 -101.5t-102 -42.5q-59 0 -100.5 42t-41.5 102z" />
<glyph unicode="&#x3c;" d="M102 586v192l752 350l68 -155l-670 -291l670 -295l-68 -151z" />
<glyph unicode="=" d="M127 401v158h770v-158h-770zM127 797v158h770v-158h-770z" />
<glyph unicode="&#x3e;" d="M102 387l670 295l-670 291l68 155l752 -350v-192l-752 -350z" />
<glyph unicode="?" horiz-adv-x="940" d="M61 1233q172 203 426 203q123 0 212 -44t134.5 -118t45.5 -158q0 -80 -28 -136t-67 -91t-104 -82q-86 -59 -129 -109.5t-43 -134.5v-92h-186v102q0 88 29.5 149.5t70.5 98.5t108 84q78 51 115 92t37 107q0 84 -55.5 130t-151.5 46q-164 0 -285 -147zM279 119 q0 59 40.5 100t100.5 41q61 0 102 -41t41 -100t-41 -101.5t-102 -42.5q-59 0 -100 42t-41 102z" />
<glyph unicode="@" horiz-adv-x="2088" d="M143 492q0 266 118 481t331 339t485 124q275 0 471.5 -109.5t297 -294t100.5 -403.5q0 -266 -102.5 -438.5t-301.5 -172.5q-115 0 -179.5 63.5t-82.5 147.5q-39 -90 -111.5 -148t-183.5 -58q-164 0 -259 122.5t-95 327.5q0 258 123 396.5t323 138.5q86 0 162 -18.5 t160 -63.5v-531q0 -127 34.5 -179t104.5 -52q217 0 217 461q0 199 -78 346t-229.5 228t-370.5 81q-225 0 -394 -101.5t-259 -280.5t-90 -406t87 -402.5t255 -273t401 -97.5q195 0 393 70l52 -145q-115 -41 -216.5 -60.5t-230.5 -19.5q-274 0 -485 113.5t-329 324.5t-118 490 zM815 473q0 -154 49 -233.5t144 -79.5q153 0 221 176v506q-68 31 -146 30q-268 0 -268 -399z" />
<glyph unicode="A" horiz-adv-x="1173" d="M12 0l453 1411h246l450 -1411h-205l-106 354h-535l-106 -354h-197zM362 512h441l-219 737z" />
<glyph unicode="B" horiz-adv-x="1245" d="M205 0v1411h334q268 0 410.5 -88t142.5 -268q0 -123 -77 -205t-188 -105q146 -24 236 -102t90 -242q0 -401 -559 -401h-389zM399 156h195q172 0 263 51t91 194q0 139 -88 201t-229 62h-232v-508zM399 813h213q123 0 202 59.5t79 167.5q0 123 -83 170t-251 47h-160v-444z " />
<glyph unicode="C" horiz-adv-x="1146" d="M113 707q0 231 77.5 396t211 249t296.5 84q127 0 214 -33t178 -107l-107 -125q-129 104 -272 105q-176 0 -284 -135t-108 -434q0 -291 106.5 -429.5t283.5 -138.5q90 0 157.5 31t143.5 86l96 -123q-66 -68 -168 -113t-236 -45q-172 0 -306 85t-208.5 250t-74.5 397z" />
<glyph unicode="D" horiz-adv-x="1318" d="M205 0v1411h295q319 0 512.5 -148.5t193.5 -549.5q0 -391 -193.5 -552t-469.5 -161h-338zM399 154h158q197 0 319.5 120.5t122.5 438.5q0 223 -63.5 343t-161.5 159.5t-231 39.5h-144v-1101z" />
<glyph unicode="E" horiz-adv-x="1095" d="M205 0v1411h764l-23 -156h-547v-460h475v-156h-475v-483h586v-156h-780z" />
<glyph unicode="F" horiz-adv-x="1005" d="M205 0v1411h749l-22 -156h-533v-481h461v-153h-461v-621h-194z" />
<glyph unicode="G" horiz-adv-x="1292" d="M113 707q0 229 83 394t223 250t306 85q133 0 230.5 -38t193.5 -118l-115 -119q-76 61 -145.5 88t-163.5 27q-109 0 -200 -58.5t-148.5 -186.5t-57.5 -324q0 -297 97.5 -434.5t288.5 -137.5q156 0 268 64v426h-250l-23 157h465v-682q-219 -125 -460 -125 q-279 0 -435.5 186.5t-156.5 545.5z" />
<glyph unicode="H" horiz-adv-x="1392" d="M205 0v1411h194v-590h594v590h195v-1411h-195v662h-594v-662h-194z" />
<glyph unicode="I" horiz-adv-x="604" d="M205 0v1411h194v-1411h-194z" />
<glyph unicode="J" horiz-adv-x="624" d="M10 -139q94 37 141.5 80t66 104t18.5 160v1206h194v-1214q0 -209 -91 -313.5t-278 -164.5z" />
<glyph unicode="K" horiz-adv-x="1206" d="M205 0v1411h194v-1411h-194zM410 754l536 657h221l-534 -645l573 -766h-239z" />
<glyph unicode="L" horiz-adv-x="1019" d="M205 0v1411h194v-1241h580l-23 -170h-751z" />
<glyph unicode="M" horiz-adv-x="1593" d="M127 0l117 1411h262l297 -1026l282 1026h265l116 -1411h-188l-49 637q-31 375 -35 575l-305 -1052h-182l-322 1054q0 -256 -27 -591l-47 -623h-184z" />
<glyph unicode="N" horiz-adv-x="1398" d="M205 0v1411h254l579 -1200q-6 53 -16 186t-10 244v770h182v-1411h-260l-574 1198q12 -141 19.5 -261t7.5 -290v-647h-182z" />
<glyph unicode="O" horiz-adv-x="1417" d="M113 702q0 227 74.5 393.5t209.5 253.5t312 87q178 0 312 -85t209 -249t75 -397q0 -229 -75 -393.5t-209 -250.5t-312 -86t-312.5 84t-209 248t-74.5 395zM319 702q0 -293 103.5 -430t286.5 -137q389 0 389 570q0 571 -389 571q-185 0 -287.5 -139.5t-102.5 -434.5z" />
<glyph unicode="P" horiz-adv-x="1189" d="M205 0v1411h370q263 0 406 -109.5t143 -326.5q0 -231 -149.5 -344t-396.5 -113h-179v-518h-194zM399 672h170q170 0 259.5 65.5t89.5 235.5q0 152 -89.5 219.5t-255.5 67.5h-174v-588z" />
<glyph unicode="Q" horiz-adv-x="1415" d="M113 702q0 227 74.5 393.5t209.5 253.5t312 87q178 0 312 -85t209 -249t75 -397q0 -248 -82 -394.5t-242 -230.5q113 0 205 -34t178 -93l-127 -164q-123 109 -233.5 150t-298.5 41q-176 0 -309.5 82.5t-208 245.5t-74.5 394zM319 702q0 -292 103.5 -429.5t286.5 -137.5 q389 0 389 570q0 571 -389 571q-184 0 -287 -139.5t-103 -434.5z" />
<glyph unicode="R" horiz-adv-x="1239" d="M205 0v1411h370q264 0 400.5 -100.5t136.5 -298.5q0 -147 -75.5 -239.5t-229.5 -139.5l381 -633h-232l-338 598h-219v-598h-194zM399 748h197q154 0 231.5 62t77.5 202q0 131 -78.5 189.5t-253.5 58.5h-174v-512z" />
<glyph unicode="S" horiz-adv-x="1116" d="M51 158l107 118q86 -70 174 -105.5t196 -35.5q131 0 217 64.5t86 187.5q0 70 -26.5 116t-91 83t-187.5 73q-217 66 -317 158t-100 250q0 106 56 190t157.5 131.5t230.5 47.5q141 0 241.5 -40t194.5 -124l-106 -119q-80 63 -157 93t-165 30q-111 0 -182.5 -51t-71.5 -150 q0 -61 24.5 -103t91 -77t193.5 -74q133 -41 221.5 -88t142.5 -130t54 -210q0 -123 -60.5 -217t-174 -147.5t-269.5 -53.5q-293 0 -479 183z" />
<glyph unicode="T" horiz-adv-x="1058" d="M31 1245v166h1007l-20 -166h-391v-1245h-195v1245h-401z" />
<glyph unicode="U" horiz-adv-x="1355" d="M184 453v958h195v-944q0 -164 73.5 -246t223.5 -82q152 0 225.5 81t73.5 247v944h196v-958q0 -141 -58 -249t-170 -168.5t-267 -60.5q-236 0 -364 130.5t-128 347.5z" />
<glyph unicode="V" horiz-adv-x="1138" d="M12 1411h209l354 -1200l355 1200h196l-450 -1411h-209z" />
<glyph unicode="W" horiz-adv-x="1691" d="M51 1411h191l227 -1241l272 1241h207l279 -1241l235 1241h178l-286 -1411h-250l-260 1182l-262 -1182h-244z" />
<glyph unicode="X" horiz-adv-x="1105" d="M10 0l424 752l-387 659h221l285 -530l287 530h209l-383 -649l430 -762h-222l-325 625l-330 -625h-209z" />
<glyph unicode="Y" horiz-adv-x="1126" d="M10 1411h215l344 -698l344 698h203l-454 -868v-543h-197v541z" />
<glyph unicode="Z" horiz-adv-x="1069" d="M61 0v156l705 1091h-631v164h842v-158l-698 -1087h698l-23 -166h-893z" />
<glyph unicode="[" horiz-adv-x="659" d="M133 -238v1909h424v-158h-246v-1595h246v-156h-424z" />
<glyph unicode="\" horiz-adv-x="1064" d="M215 1616l160 37l475 -1827l-162 -39z" />
<glyph unicode="]" horiz-adv-x="659" d="M102 -82h246v1595h-246v158h424v-1909h-424v156z" />
<glyph unicode="^" horiz-adv-x="1105" d="M82 1079l387 641h168l387 -641h-201l-272 477l-270 -477h-199z" />
<glyph unicode="_" horiz-adv-x="1064" d="M35 -129h995v-162h-995v162z" />
<glyph unicode="`" horiz-adv-x="614" d="M61 1483l84 157l408 -233l-58 -100z" />
<glyph unicode="a" horiz-adv-x="1114" d="M92 301q0 172 124 264t351 92h166v80q0 115 -55 164t-170 49q-119 0 -291 -57l-47 137q201 74 373 74q190 0 284.5 -93t94.5 -266v-493q0 -66 22.5 -97.5t67.5 -48.5l-43 -131q-84 10 -135.5 47t-75.5 115q-109 -162 -322 -162q-160 0 -252 90.5t-92 235.5zM293 311 q0 -96 47 -145t139 -49q162 0 254 168v247h-141q-299 0 -299 -221z" />
<glyph unicode="b" horiz-adv-x="1216" d="M195 0v1513l188 23v-592q117 160 305 160q184 0 293 -148.5t109 -414.5q0 -168 -51.5 -296t-147.5 -199t-225 -71q-170 0 -287 144l-19 -119h-165zM383 270q43 -68 105.5 -106.5t132.5 -38.5q124 0 195 101.5t71 314.5q0 219 -65.5 316t-186.5 97q-143 0 -252 -168v-516z " />
<glyph unicode="c" horiz-adv-x="978" d="M117 530q0 172 57 301.5t162.5 201t251.5 71.5q96 0 176 -27.5t154 -89.5l-91 -119q-57 41 -111 60.5t-120 19.5q-131 0 -204 -104.5t-73 -308.5q0 -205 72 -302.5t205 -97.5q63 0 116.5 19.5t118.5 62.5l87 -123q-147 -119 -330 -119q-219 0 -345 147.5t-126 407.5z" />
<glyph unicode="d" horiz-adv-x="1224" d="M127 535q0 166 51 294.5t147.5 201.5t225.5 73q166 0 291 -133v565l188 -23v-1513h-166l-18 150q-53 -82 -133 -128.5t-178 -46.5q-193 0 -300.5 152t-107.5 408zM330 539q0 -209 63.5 -311.5t181.5 -102.5q87 0 148 40t119 120v528q-53 70 -113.5 105.5t-136.5 35.5 q-125 0 -193.5 -104.5t-68.5 -310.5z" />
<glyph unicode="e" horiz-adv-x="1116" d="M117 528q0 168 54 298t155.5 204t238.5 74q215 0 330 -141.5t115 -391.5q0 -47 -4 -96h-689q12 -178 90 -262t201 -84q78 0 143.5 22.5t137.5 71.5l82 -112q-172 -135 -377 -136q-225 0 -351 147.5t-126 405.5zM317 614h506v13q0 160 -63.5 243.5t-190.5 83.5 q-231 0 -252 -340z" />
<glyph unicode="f" horiz-adv-x="686" d="M20 934v145h193v148q0 139 89 224t249 85q74 0 132 -13.5t126 -41.5l-59 -138q-92 41 -189 41q-86 0 -123 -37.5t-37 -117.5v-150h263l-21 -145h-242v-934h-188v934h-193z" />
<glyph unicode="g" horiz-adv-x="1064" d="M51 -109h170q0 -66 24.5 -103.5t88 -57t180.5 -19.5q170 0 242.5 42t72.5 126q0 76 -57 115t-160 39h-170q-137 0 -207.5 58.5t-70.5 146.5q0 53 30.5 102t88.5 88q-94 49 -138.5 122t-44.5 177q0 109 54.5 195t149.5 134t212 48h38q102 0 175 9q86 11 142.5 30.5 t138.5 56.5l55 -170q-61 -20 -135 -26.5t-180 -6.5q190 -86 190 -272q0 -162 -110.5 -264.5t-301.5 -102.5q-74 0 -137 21q-25 -16 -39 -44t-14 -56q0 -88 141 -89h172q109 0 193 -38.5t130 -106.5t46 -154q0 -158 -129 -242.5t-377 -84.5q-174 0 -275.5 35.5t-144.5 107.5 t-43 184zM293 727q0 -111 59.5 -177.5t167.5 -66.5q111 0 169.5 64.5t58.5 181.5q0 240 -232 240q-106 0 -164.5 -66.5t-58.5 -175.5z" />
<glyph unicode="h" horiz-adv-x="1200" d="M195 0v1511l188 21v-602q127 174 319 174q148 0 231 -88t83 -242v-774h-189v748q0 115 -44 161.5t-128 46.5t-149.5 -49t-122.5 -139v-768h-188z" />
<glyph unicode="i" horiz-adv-x="577" d="M155 1468q0 55 37 92t94 37q60 0 97 -36.5t37 -92.5q0 -55 -37 -91t-97 -36q-57 0 -94 36t-37 91zM195 0v1079h188v-1079h-188z" />
<glyph unicode="j" horiz-adv-x="573" d="M-18 -297q80 37 122.5 73t64 100.5t21.5 176.5v1026h189v-1013q0 -150 -37 -240t-107.5 -146.5t-197.5 -113.5zM153 1468q0 55 37 92t94 37q60 0 97 -36.5t37 -92.5q0 -55 -37 -91t-97 -36q-57 0 -94 36t-37 91z" />
<glyph unicode="k" horiz-adv-x="1048" d="M195 0v1513l188 23v-1536h-188zM395 590l398 489h211l-398 -477l443 -602h-226z" />
<glyph unicode="l" horiz-adv-x="600" d="M184 213v1300l189 23v-1319q0 -45 15 -65.5t52 -20.5q39 0 70 12l49 -131q-68 -37 -149 -37q-105 0 -165.5 62.5t-60.5 175.5z" />
<glyph unicode="m" horiz-adv-x="1755" d="M195 0v1079h161l17 -157q121 182 311 182q100 0 171 -51.5t101 -143.5q63 94 140.5 144.5t181.5 50.5q133 0 213 -89t80 -241v-774h-189v748q0 208 -150 208h-1q-80 0 -135.5 -46t-118.5 -144v-766h-189v748q0 208 -150 208h-1q-82 0 -137.5 -47t-116.5 -143v-766h-188z " />
<glyph unicode="n" horiz-adv-x="1200" d="M195 0v1079h161l17 -159q57 86 142 135t187 49q148 0 231 -88t83 -242v-774h-189v748q0 115 -43 161.5t-127 46.5q-86 0 -151.5 -49t-122.5 -141v-766h-188z" />
<glyph unicode="o" horiz-adv-x="1196" d="M117 539q0 168 57 296t166 198.5t260 70.5q227 0 353 -151.5t126 -411.5q0 -168 -57 -296t-165.5 -199t-258.5 -71q-227 0 -354 152t-127 412zM319 539q0 -412 279 -412t279 414q0 411 -276 411h-1h-1q-280 0 -280 -413z" />
<glyph unicode="p" horiz-adv-x="1216" d="M195 -436v1515h161l15 -145q59 82 143 126t176 44q207 0 303.5 -147.5t96.5 -415.5q0 -254 -111 -410t-313 -156q-180 0 -283 123v-512zM383 260q41 -63 102.5 -97t135.5 -34q266 0 266 412q0 413 -243 413h-1q-80 0 -145.5 -47t-114.5 -121v-526z" />
<glyph unicode="q" horiz-adv-x="1224" d="M127 535q0 166 51 294.5t147.5 201.5t225.5 73q172 0 303 -146l14 121h162v-1515l-188 22v557q-53 -80 -132 -124t-175 -44q-193 0 -300.5 152t-107.5 408zM330 539q0 -209 63.5 -311.5t181.5 -102.5q87 0 148 40t119 120v528q-53 70 -113.5 105.5t-136.5 35.5 q-125 0 -193.5 -104.5t-68.5 -310.5z" />
<glyph unicode="r" horiz-adv-x="790" d="M195 0v1079h161l19 -219q43 121 116.5 182.5t172.5 61.5q57 0 106 -12l-35 -185q-49 12 -94 13q-100 0 -161.5 -74t-96.5 -230v-616h-188z" />
<glyph unicode="s" horiz-adv-x="956" d="M51 117l101 114q137 -104 303 -104q106 0 168.5 44t62.5 120q0 55 -22.5 89t-78 59.5t-161.5 54.5q-172 45 -249 120.5t-77 192.5q0 84 50.5 152.5t139.5 106.5t199 38q111 0 199 -31t168 -92l-80 -119q-74 47 -140.5 69.5t-139.5 22.5q-92 0 -145.5 -37.5t-53.5 -103.5 t50 -102.5t181 -71.5q180 -45 269.5 -123t89.5 -213q0 -160 -124 -244t-302 -84q-246 0 -408 142z" />
<glyph unicode="t" horiz-adv-x="739" d="M18 934v145h189v244l188 23v-267h256l-20 -145h-236v-643q0 -84 30 -122t99 -38q63 0 144 43l71 -125q-106 -74 -241 -74q-137 0 -214 79t-77 229v651h-189z" />
<glyph unicode="u" horiz-adv-x="1191" d="M184 305v774h189v-753q0 -111 39 -157t127 -46q158 0 270 186v770h188v-1079h-161l-15 168q-61 -100 -141 -146.5t-195 -46.5q-141 0 -221 86t-80 244z" />
<glyph unicode="v" horiz-adv-x="1007" d="M20 1079h205l283 -911l280 911h199l-366 -1079h-228z" />
<glyph unicode="w" horiz-adv-x="1468" d="M41 1079h188l195 -948l213 948h211l203 -948l196 948h180l-245 -1079h-256l-189 909l-194 -909h-250z" />
<glyph unicode="x" horiz-adv-x="993" d="M10 0l377 569l-334 510h221l226 -395l227 395h213l-332 -501l375 -578h-227l-264 457l-269 -457h-213z" />
<glyph unicode="y" horiz-adv-x="1007" d="M20 1079h201l289 -942l283 942h194l-360 -1085q-63 -188 -177 -298t-325 -132l-21 147q106 18 170 53t102 89.5t70 146.5h-63z" />
<glyph unicode="z" horiz-adv-x="894" d="M51 0v141l561 779h-514v159h729v-143l-563 -778h570l-23 -158h-760z" />
<glyph unicode="{" horiz-adv-x="659" d="M51 637v156q80 0 112 36.5t32 122.5v455q0 164 83.5 234.5t288.5 70.5v-145q-104 0 -149 -32t-45 -108v-489q0 -104 -37 -150.5t-117 -72.5q82 -29 118 -72t36 -147v-490q0 -76 45 -107.5t149 -31.5v-146q-205 0 -288.5 71t-83.5 235v454q0 86 -32 121t-112 35z" />
<glyph unicode="|" horiz-adv-x="825" d="M328 -209v1862h170v-1862h-170z" />
<glyph unicode="}" horiz-adv-x="659" d="M92 -133q104 0 149.5 31.5t45.5 107.5v490q0 104 35.5 147t117.5 72q-80 27 -116.5 73t-36.5 150v489q0 76 -45 108t-150 32v145q205 0 289 -70.5t84 -234.5v-455q0 -86 31.5 -122.5t111.5 -36.5v-156q-80 0 -111.5 -35t-31.5 -121v-454q0 -164 -84 -235t-289 -71v146z " />
<glyph unicode="~" horiz-adv-x="999" d="M72 588q102 199 280 198q57 0 100.5 -18t100.5 -55q41 -27 66.5 -39t52.5 -12q43 0 79.5 27.5t63.5 70.5l113 -62q-96 -186 -275 -186q-59 0 -103 19.5t-106 58.5q-37 25 -61.5 37t-48.5 12q-80 0 -148 -111z" />
<glyph unicode="&#xa1;" horiz-adv-x="493" d="M104 870q0 59 41 101.5t103 42.5q59 0 100 -42t41 -102q0 -59 -41 -100t-100 -41q-61 0 -102.5 41t-41.5 100zM145 -414l21 920h166l22 -920h-209z" />
<glyph unicode="&#xa2;" horiz-adv-x="978" d="M117 530q0 236 105.5 388.5t289.5 179.5v303h162v-303q133 -18 244 -111l-91 -119q-57 41 -111 60.5t-120 19.5q-131 0 -204 -104.5t-73 -308.5q0 -205 72 -302.5t205 -97.5q63 0 116.5 19.5t118.5 62.5l87 -123q-115 -92 -244 -112v-297h-164v297q-184 25 -288.5 169 t-104.5 379z" />
<glyph unicode="&#xa3;" horiz-adv-x="1064" d="M82 0v150q72 27 106.5 56.5t48 77.5t13.5 136v239h-135v123h135v228q0 170 102.5 275.5t284.5 105.5q113 0 203 -42t164 -128l-123 -95q-49 57 -104.5 84t-131.5 27q-100 0 -154.5 -58.5t-54.5 -166.5v-230h426v-123h-426v-241q0 -105 -26.5 -162t-98.5 -98h656l-23 -158 h-862z" />
<glyph unicode="&#xa4;" horiz-adv-x="1146" d="M59 293l160 160q-74 109 -74 245q0 133 72 244l-158 164l113 113l160 -164q100 70 237 69q141 0 248 -67l162 162l108 -113l-155 -158q76 -106 76 -250q0 -141 -76 -252l155 -153l-112 -113l-160 156q-109 -66 -246 -66q-135 0 -241 72l-160 -162zM326 700 q0 -133 64.5 -206.5t184.5 -73.5q123 0 187.5 73.5t64.5 206.5t-64.5 207t-187.5 74q-121 0 -185 -75t-64 -206z" />
<glyph unicode="&#xa5;" horiz-adv-x="1097" d="M10 1370h209l336 -604l334 604h198l-391 -661h232v-127h-283v-185h283v-125h-283v-272h-192v272h-285v125h285v185h-285v127h233z" />
<glyph unicode="&#xa6;" horiz-adv-x="825" d="M328 -209v746h170v-746h-170zM328 907v746h170v-746h-170z" />
<glyph unicode="&#xa7;" horiz-adv-x="1091" d="M143 637q0 74 42 138.5t116 109.5q-55 37 -81.5 87t-26.5 120q0 137 106.5 215.5t275.5 78.5q199 0 351 -110l-72 -119q-68 43 -133.5 63.5t-147.5 20.5q-92 0 -143 -36t-51 -99q0 -49 19.5 -81t72.5 -60.5t158 -63.5q170 -57 244.5 -124.5t74.5 -176.5q0 -141 -155 -246 q110 -75 110 -200q0 -137 -110.5 -218t-288.5 -81q-199 0 -344 102l71 125q61 -41 128 -60.5t151 -19.5q90 0 147.5 35t57.5 98q0 49 -20.5 80t-73 57.5t-160.5 61.5q-170 55 -244 120.5t-74 182.5zM326 662q0 -74 40 -111t154 -74q88 -29 162 -61q41 37 63.5 78t22.5 79 q0 49 -18.5 81t-64.5 57.5t-138 58.5q-72 27 -137 55q-39 -39 -61.5 -82t-22.5 -81z" />
<glyph unicode="&#xa8;" horiz-adv-x="788" d="M61 1456q0 49 34 83t85 34q49 0 82.5 -34t33.5 -83t-33.5 -83t-82.5 -34q-51 0 -85 34t-34 83zM491 1456q0 49 34 83t83 34q51 0 85 -34t34 -83t-34 -83t-85 -34q-49 0 -83 34t-34 83z" />
<glyph unicode="&#xa9;" horiz-adv-x="1658" d="M188 889q0 184 86 330.5t233.5 229.5t323.5 83q177 0 323 -83t231 -229.5t85 -330.5t-85 -330.5t-231 -228.5t-323 -82q-176 0 -323.5 82t-233.5 228.5t-86 330.5zM313 889q0 -156 68 -276.5t185.5 -188.5t264.5 -68q145 0 263 68t186 188.5t68 276.5t-68 278.5 t-185.5 190t-263.5 67.5q-147 0 -264.5 -67.5t-185.5 -190.5t-68 -278zM502 891q0 123 45 211t120.5 133t168.5 45q73 0 128.5 -20.5t110.5 -61.5l-71 -96q-78 55 -160 55q-84 0 -135.5 -65.5t-51.5 -200.5q0 -129 50.5 -194.5t136.5 -65.5q51 0 91 15.5t81 47.5l65 -98 q-106 -94 -243 -94q-152 0 -244 102.5t-92 286.5z" />
<glyph unicode="&#xaa;" d="M133 805q0 131 101.5 200.5t287.5 69.5h119v49q0 80 -41 113t-129 33q-100 0 -231 -43l-45 127q160 57 307 57q322 0 321 -276v-349q0 -47 16.5 -69.5t51.5 -34.5l-39 -125q-72 8 -116 36t-66 85q-43 -61 -109.5 -92t-148.5 -31q-129 0 -204 68.5t-75 181.5zM145 0v158 h770v-158h-770zM326 815q0 -59 34.5 -92t98.5 -33q114 0 182 109v164h-98q-217 0 -217 -148z" />
<glyph unicode="&#xab;" horiz-adv-x="1177" d="M113 522v129l358 445l113 -78l-277 -430l277 -430l-113 -78zM594 522v129l358 445l113 -78l-277 -430l277 -430l-113 -78z" />
<glyph unicode="&#xac;" d="M127 582v157h770v-450h-170v293h-600z" />
<glyph unicode="&#xad;" horiz-adv-x="825" d="M123 561v160h579v-160h-579z" />
<glyph unicode="&#xae;" horiz-adv-x="1312" d="M137 1010q0 143 68.5 264t187.5 191.5t260 70.5q146 0 265.5 -70.5t188.5 -191.5t69 -264t-69 -263t-188.5 -190t-265.5 -70q-141 0 -260 70t-187.5 189.5t-68.5 263.5zM250 1010q0 -121 52 -217.5t144.5 -150.5t206.5 -54q119 0 212 54t145.5 150.5t52.5 217.5 t-52.5 218t-145.5 152.5t-212 55.5q-115 0 -207 -55.5t-144 -153t-52 -217.5zM467 735v565h160q250 0 250 -172q0 -59 -37 -99t-97 -58l152 -236h-137l-125 217h-49v-217h-117zM584 1042h61q111 0 111 86q0 43 -28 62.5t-87 19.5h-57v-168z" />
<glyph unicode="&#xaf;" horiz-adv-x="681" d="M61 1366v141h560v-141h-560z" />
<glyph unicode="&#xb0;" horiz-adv-x="1071" d="M113 1108q0 100 47 175t123.5 114t165.5 39q88 0 164.5 -39t123.5 -115t47 -176t-47 -175t-123.5 -113t-164.5 -38q-89 0 -165.5 39t-123.5 114t-47 175zM270 1108q0 -96 52.5 -148.5t126.5 -52.5q75 0 126.5 51.5t51.5 147.5t-51.5 148.5t-126.5 52.5 q-76 0 -127.5 -51.5t-51.5 -147.5z" />
<glyph unicode="&#xb1;" d="M127 0v158h770v-158h-770zM129 647v156h297v307h172v-307h299v-156h-299v-305h-172v305h-297z" />
<glyph unicode="&#xb2;" horiz-adv-x="819" d="M113 1388q113 139 286 139q131 0 208 -69.5t77 -175.5q0 -70 -34 -134.5t-109.5 -146.5t-223.5 -215h388l-17 -127h-551v119q172 166 246 244.5t105.5 134t31.5 112.5q0 61 -37 96t-96 35q-53 0 -92 -20.5t-82 -69.5z" />
<glyph unicode="&#xb3;" horiz-adv-x="819" d="M106 763l93 86q78 -84 184 -84q76 0 120 39t44 107q0 74 -42 105.5t-122 31.5h-70l19 115h47q66 0 106.5 33.5t40.5 95.5q0 53 -36.5 84t-98.5 31q-51 0 -94 -18.5t-86 -57.5l-82 90q119 106 274 106q132 0 206.5 -61.5t74.5 -153.5q0 -78 -47 -129t-129 -71 q90 -8 147.5 -61.5t57.5 -147.5q0 -113 -87 -187.5t-235 -74.5q-178 0 -285 122z" />
<glyph unicode="&#xb4;" horiz-adv-x="614" d="M61 1407l408 233l84 -157l-435 -176z" />
<glyph unicode="&#xb5;" horiz-adv-x="1204" d="M195 -436v1515h188v-760q0 -182 162 -182q164 0 264 197v745h188v-710q1 -205 54 -369l-177 -25q-23 53 -31.5 93.5t-17.5 105.5v2q-49 -86 -121.5 -143.5t-160.5 -57.5q-72 0 -118 24t-79 79q18 -57 26.5 -118.5t8.5 -156.5v-217z" />
<glyph unicode="&#xb6;" horiz-adv-x="1503" d="M184 995q0 199 135.5 307.5t368.5 108.5h529v-1825l-170 -26v1702h-234v-1676l-170 -26v1018q-231 12 -345 124.5t-114 292.5z" />
<glyph unicode="&#xb7;" horiz-adv-x="491" d="M102 637q0 59 41 100t101 41q61 0 102 -41t41 -100t-41 -101t-102 -42q-59 0 -100.5 42t-41.5 101z" />
<glyph unicode="&#xb8;" horiz-adv-x="563" d="M61 -444l51 106q61 -33 129 -33q47 0 75 19.5t28 62.5t-43 64.5t-139 21.5l28 236h121v-148q98 -8 144.5 -56t46.5 -118q0 -98 -72 -151.5t-182 -53.5q-57 0 -106.5 13.5t-80.5 36.5z" />
<glyph unicode="&#xb9;" horiz-adv-x="819" d="M133 1343l287 170h141v-854h-158v692l-200 -117z" />
<glyph unicode="&#xba;" d="M115 983q0 195 106.5 311.5t292.5 116.5q188 0 291.5 -113.5t103.5 -314.5q0 -195 -105.5 -311.5t-291.5 -116.5q-188 0 -292.5 114.5t-104.5 313.5zM127 0v158h770v-158h-770zM309 983q0 -287 203 -287t203 287q0 147 -50.5 217t-150.5 70q-205 0 -205 -287z" />
<glyph unicode="&#xbb;" horiz-adv-x="1159" d="M113 158l276 430l-276 430l112 78l359 -445v-129l-359 -442zM576 158l276 430l-276 430l112 78l359 -445v-129l-359 -442z" />
<glyph unicode="&#xbc;" horiz-adv-x="1908" d="M133 1241l287 170h141v-854h-158v692l-200 -116zM477 -100l834 1636l120 -59l-831 -1637zM1176 197v110l262 561l135 -51l-231 -498h217l14 216h140v-216h108v-122h-108v-197h-156v197h-381z" />
<glyph unicode="&#xbd;" horiz-adv-x="1908" d="M133 1241l287 170h141v-854h-158v692l-200 -116zM477 -100l834 1636l120 -59l-831 -1637zM1203 729q113 139 286 139q131 0 208 -69.5t77 -175.5q0 -70 -34 -134.5t-109.5 -146.5t-223.5 -215h388l-17 -127h-551v119q172 166 246 244.5t105.5 134t31.5 112.5q0 61 -37 96 t-96 35q-53 0 -92 -20.5t-82 -69.5z" />
<glyph unicode="&#xbe;" horiz-adv-x="1908" d="M106 662l93 86q78 -84 184 -84q76 0 120 38.5t44 106.5q0 74 -42 105.5t-122 31.5h-70l19 115h47q66 0 106.5 33.5t40.5 95.5q0 53 -36.5 84t-98.5 31q-51 0 -94 -18.5t-86 -57.5l-82 90q119 106 274 106q132 0 206.5 -61t74.5 -154q0 -78 -47 -129t-129 -71 q90 -8 147.5 -61.5t57.5 -147.5q0 -113 -87 -187.5t-235 -74.5q-178 0 -285 123zM477 -100l834 1636l120 -59l-831 -1637zM1176 197v110l262 561l135 -51l-231 -498h217l14 216h140v-216h108v-122h-108v-197h-156v197h-381z" />
<glyph unicode="&#xbf;" horiz-adv-x="940" d="M61 -121q0 82 28 138.5t69 91t106 79.5q84 57 126 105.5t42 128.5v84h186v-94q0 -86 -28.5 -145.5t-69.5 -95.5t-108 -81q-78 -49 -116 -91t-38 -108q0 -84 55.5 -130t151.5 -46q164 0 285 148l129 -101q-172 -203 -426 -202q-123 0 -212 44t-134.5 117.5t-45.5 157.5z M377 870q0 59 41 101.5t102 42.5q59 0 100.5 -42t41.5 -102q0 -59 -41 -100t-101 -41q-61 0 -102 41t-41 100z" />
<glyph unicode="&#xc0;" horiz-adv-x="1173" d="M12 0l453 1411h246l450 -1411h-205l-106 354h-535l-106 -354h-197zM321 1708l80 158l412 -219l-50 -101zM362 512h441l-219 737z" />
<glyph unicode="&#xc1;" horiz-adv-x="1173" d="M12 0l453 1411h246l450 -1411h-205l-106 354h-535l-106 -354h-197zM342 1647l410 219l82 -158l-443 -162zM362 512h441l-219 737z" />
<glyph unicode="&#xc2;" horiz-adv-x="1173" d="M12 0l453 1411h246l450 -1411h-205l-106 354h-535l-106 -354h-197zM246 1647l278 225h125l277 -225l-80 -93l-260 166l-258 -166zM362 512h441l-219 737z" />
<glyph unicode="&#xc3;" horiz-adv-x="1173" d="M12 0l453 1411h246l450 -1411h-205l-106 354h-535l-106 -354h-197zM246 1663q39 82 95 131t128 49q43 0 73.5 -15.5t69.5 -41.5q6 -4 25.5 -16.5t36 -18.5t32.5 -6q31 0 55.5 21.5t53.5 68.5l115 -57q-39 -86 -96.5 -131t-127.5 -45q-39 0 -70.5 14t-70.5 41 q-31 23 -52.5 33t-43.5 10q-33 0 -57.5 -22.5t-51.5 -71.5zM362 512h441l-219 737z" />
<glyph unicode="&#xc4;" horiz-adv-x="1173" d="M12 0l453 1411h246l450 -1411h-205l-106 354h-535l-106 -354h-197zM254 1714q0 49 34 83t85 34q49 0 82.5 -34t33.5 -83t-33.5 -83t-82.5 -34q-51 0 -85 34t-34 83zM362 512h441l-219 737zM684 1714q0 49 34 83t83 34q51 0 85 -34t34 -83t-34 -83t-85 -34q-49 0 -83 34 t-34 83z" />
<glyph unicode="&#xc5;" horiz-adv-x="1173" d="M12 0l453 1411h246l450 -1411h-205l-106 354h-535l-106 -354h-197zM355 1753q0 92 65.5 154.5t167.5 62.5t168 -62.5t66 -154.5t-66 -154.5t-168 -62.5t-167.5 62.5t-65.5 154.5zM362 512h441l-219 737zM480 1753q0 -53 28.5 -84t79.5 -31q49 0 79 31t30 84t-29 84 t-80 31t-79.5 -31t-28.5 -84z" />
<glyph unicode="&#xc6;" horiz-adv-x="1671" d="M-25 0l562 1411h940l-23 -156h-633l115 -462h522v-156h-483l121 -481h465v-156h-623l-82 354h-549l-133 -354h-199zM367 512h452l-172 743z" />
<glyph unicode="&#xc7;" horiz-adv-x="1146" d="M113 707q0 231 77.5 396t211 249t296.5 84q127 0 214 -33t178 -107l-107 -125q-129 104 -272 105q-176 0 -284 -135t-108 -434q0 -291 106.5 -429.5t283.5 -138.5q90 0 157.5 31t143.5 86l96 -123q-57 -59 -142 -101t-194 -52v-95q98 -8 144.5 -56t46.5 -118 q0 -98 -72 -151.5t-182 -53.5q-57 0 -106.5 13.5t-80.5 36.5l51 106q61 -33 129 -33q47 0 75 19.5t28 62.5t-43 64.5t-139 21.5l22 180q-158 14 -277.5 103.5t-186 248t-66.5 378.5z" />
<glyph unicode="&#xc8;" horiz-adv-x="1095" d="M205 0v1411h764l-23 -156h-547v-460h475v-156h-475v-483h586v-156h-780zM328 1708l80 158l412 -219l-50 -101z" />
<glyph unicode="&#xc9;" horiz-adv-x="1095" d="M205 0v1411h764l-23 -156h-547v-460h475v-156h-475v-483h586v-156h-780zM348 1647l410 219l82 -158l-443 -162z" />
<glyph unicode="&#xca;" horiz-adv-x="1095" d="M205 0v1411h764l-23 -156h-547v-460h475v-156h-475v-483h586v-156h-780zM252 1647l278 225h125l277 -225l-80 -93l-260 166l-258 -166z" />
<glyph unicode="&#xcb;" horiz-adv-x="1095" d="M205 0v1411h764l-23 -156h-547v-460h475v-156h-475v-483h586v-156h-780zM260 1714q0 49 34 83t85 34q49 0 82.5 -34t33.5 -83t-33.5 -83t-82.5 -34q-51 0 -85 34t-34 83zM690 1714q0 49 34 83t83 34q51 0 85 -34t34 -83t-34 -83t-85 -34q-49 0 -83 34t-34 83z" />
<glyph unicode="&#xcc;" horiz-adv-x="604" d="M35 1708l80 158l412 -219l-50 -101zM205 0v1411h194v-1411h-194z" />
<glyph unicode="&#xcd;" horiz-adv-x="604" d="M55 1647l410 219l82 -158l-443 -162zM205 0v1411h194v-1411h-194z" />
<glyph unicode="&#xce;" horiz-adv-x="604" d="M-41 1647l278 225h125l277 -225l-80 -93l-260 166l-258 -166zM205 0v1411h194v-1411h-194z" />
<glyph unicode="&#xcf;" horiz-adv-x="604" d="M-33 1714q0 49 34 83t85 34q49 0 82.5 -34t33.5 -83t-33.5 -83t-82.5 -34q-51 0 -85 34t-34 83zM205 0v1411h194v-1411h-194zM397 1714q0 49 34 83t83 34q51 0 85 -34t34 -83t-34 -83t-85 -34q-49 0 -83 34t-34 83z" />
<glyph unicode="&#xd0;" horiz-adv-x="1343" d="M41 651v144h188v616h295q320 0 513.5 -148.5t193.5 -549.5q0 -391 -193.5 -552t-470.5 -161h-338v651h-188zM424 154h158q196 0 319 120.5t123 438.5q0 223 -63.5 343t-162 159.5t-231.5 39.5h-143v-460h321v-144h-321v-497z" />
<glyph unicode="&#xd1;" horiz-adv-x="1398" d="M205 0v1411h254l579 -1200q-6 53 -16 186t-10 244v770h182v-1411h-260l-574 1198q12 -141 19.5 -261t7.5 -290v-647h-182zM381 1663q39 82 95 131t128 49q43 0 73.5 -15.5t69.5 -41.5q6 -4 25.5 -16.5t36 -18.5t32.5 -6q31 0 55.5 21.5t53.5 68.5l115 -57 q-39 -86 -96.5 -131t-127.5 -45q-39 0 -70.5 14t-70.5 41q-31 23 -52.5 33t-43.5 10q-33 0 -57.5 -22.5t-51.5 -71.5z" />
<glyph unicode="&#xd2;" horiz-adv-x="1417" d="M113 702q0 227 74.5 393.5t209.5 253.5t312 87q178 0 312 -85t209 -249t75 -397q0 -229 -75 -393.5t-209 -250.5t-312 -86t-312.5 84t-209 248t-74.5 395zM319 702q0 -293 103.5 -430t286.5 -137q389 0 389 570q0 571 -389 571q-185 0 -287.5 -139.5t-102.5 -434.5z M442 1708l80 158l412 -219l-50 -101z" />
<glyph unicode="&#xd3;" horiz-adv-x="1417" d="M113 702q0 227 74.5 393.5t209.5 253.5t312 87q178 0 312 -85t209 -249t75 -397q0 -229 -75 -393.5t-209 -250.5t-312 -86t-312.5 84t-209 248t-74.5 395zM319 702q0 -293 103.5 -430t286.5 -137q389 0 389 570q0 571 -389 571q-185 0 -287.5 -139.5t-102.5 -434.5z M463 1647l410 219l82 -158l-443 -162z" />
<glyph unicode="&#xd4;" horiz-adv-x="1417" d="M113 702q0 227 74.5 393.5t209.5 253.5t312 87q178 0 312 -85t209 -249t75 -397q0 -229 -75 -393.5t-209 -250.5t-312 -86t-312.5 84t-209 248t-74.5 395zM319 702q0 -293 103.5 -430t286.5 -137q389 0 389 570q0 571 -389 571q-185 0 -287.5 -139.5t-102.5 -434.5z M367 1647l278 225h125l277 -225l-80 -93l-260 166l-258 -166z" />
<glyph unicode="&#xd5;" horiz-adv-x="1417" d="M113 702q0 227 74.5 393.5t209.5 253.5t312 87q178 0 312 -85t209 -249t75 -397q0 -229 -75 -393.5t-209 -250.5t-312 -86t-312.5 84t-209 248t-74.5 395zM319 702q0 -293 103.5 -430t286.5 -137q389 0 389 570q0 571 -389 571q-185 0 -287.5 -139.5t-102.5 -434.5z M367 1663q39 82 95 131t128 49q43 0 73.5 -15.5t69.5 -41.5q6 -4 25.5 -16.5t36 -18.5t32.5 -6q31 0 55.5 21.5t53.5 68.5l115 -57q-39 -86 -96.5 -131t-127.5 -45q-39 0 -70.5 14t-70.5 41q-31 23 -52.5 33t-43.5 10q-33 0 -57.5 -22.5t-51.5 -71.5z" />
<glyph unicode="&#xd6;" horiz-adv-x="1417" d="M113 702q0 227 74.5 393.5t209.5 253.5t312 87q178 0 312 -85t209 -249t75 -397q0 -229 -75 -393.5t-209 -250.5t-312 -86t-312.5 84t-209 248t-74.5 395zM319 702q0 -293 103.5 -430t286.5 -137q389 0 389 570q0 571 -389 571q-185 0 -287.5 -139.5t-102.5 -434.5z M375 1714q0 49 34 83t85 34q49 0 82.5 -34t33.5 -83t-33.5 -83t-82.5 -34q-51 0 -85 34t-34 83zM805 1714q0 49 34 83t83 34q51 0 85 -34t34 -83t-34 -83t-85 -34q-49 0 -83 34t-34 83z" />
<glyph unicode="&#xd7;" d="M147 379l246 246l-246 254l115 116l246 -256l254 256l115 -116l-246 -246l246 -254l-115 -115l-246 254l-254 -254z" />
<glyph unicode="&#xd8;" horiz-adv-x="1417" d="M113 702q0 227 74.5 393.5t209.5 253.5t312 87q76 0 135 -15l76 256l161 -43l-86 -268q148 -80 229 -249t81 -412q0 -229 -75 -393.5t-209 -250.5t-312 -86q-74 0 -138 15l-71 -250l-162 43l82 262q-145 82 -226 249t-81 408zM319 702q0 -379 168 -503l324 1067 q-55 10 -102 10q-185 0 -287.5 -139.5t-102.5 -434.5zM606 145q51 -10 103 -10q389 1 389 570q0 203 -43 327.5t-129 184.5z" />
<glyph unicode="&#xd9;" horiz-adv-x="1355" d="M184 453v958h195v-944q0 -164 73.5 -246t223.5 -82q152 0 225.5 81t73.5 247v944h196v-958q0 -141 -58 -249t-170 -168.5t-267 -60.5q-236 0 -364 130.5t-128 347.5zM412 1708l80 158l412 -219l-50 -101z" />
<glyph unicode="&#xda;" horiz-adv-x="1355" d="M184 453v958h195v-944q0 -164 73.5 -246t223.5 -82q152 0 225.5 81t73.5 247v944h196v-958q0 -141 -58 -249t-170 -168.5t-267 -60.5q-236 0 -364 130.5t-128 347.5zM432 1647l410 219l82 -158l-443 -162z" />
<glyph unicode="&#xdb;" horiz-adv-x="1355" d="M184 453v958h195v-944q0 -164 73.5 -246t223.5 -82q152 0 225.5 81t73.5 247v944h196v-958q0 -141 -58 -249t-170 -168.5t-267 -60.5q-236 0 -364 130.5t-128 347.5zM336 1647l278 225h125l277 -225l-80 -93l-260 166l-258 -166z" />
<glyph unicode="&#xdc;" horiz-adv-x="1355" d="M184 453v958h195v-944q0 -164 73.5 -246t223.5 -82q152 0 225.5 81t73.5 247v944h196v-958q0 -141 -58 -249t-170 -168.5t-267 -60.5q-236 0 -364 130.5t-128 347.5zM344 1714q0 49 34 83t85 34q49 0 82.5 -34t33.5 -83t-33.5 -83t-82.5 -34q-51 0 -85 34t-34 83z M774 1714q0 49 34 83t83 34q51 0 85 -34t34 -83t-34 -83t-85 -34q-49 0 -83 34t-34 83z" />
<glyph unicode="&#xdd;" horiz-adv-x="1126" d="M10 1411h215l344 -698l344 698h203l-454 -868v-543h-197v541zM317 1647l410 219l82 -158l-443 -162z" />
<glyph unicode="&#xde;" horiz-adv-x="1189" d="M205 0v1411h194v-242h176q263 0 406 -110.5t143 -333.5q0 -238 -149.5 -351.5t-396.5 -113.5h-179v-260h-194zM399 414h170q172 0 260.5 67.5t88.5 241.5q0 158 -89.5 226.5t-255.5 68.5h-174v-604z" />
<glyph unicode="&#xdf;" horiz-adv-x="1214" d="M195 0v1104q0 205 107.5 318.5t303.5 113.5q113 0 196 -39t128 -105.5t45 -148.5q0 -84 -35 -133t-100 -102q-49 -41 -70.5 -68t-21.5 -66q0 -47 34.5 -81.5t106.5 -83.5q78 -53 126 -96.5t83 -113t35 -167.5q0 -106 -50.5 -187.5t-134.5 -125.5t-180 -44q-121 0 -209 48 l55 131q53 -27 136 -27q86 0 138 53t52 154q0 92 -48 149.5t-142 124.5q-88 63 -134.5 116.5t-46.5 135.5q0 68 29 107t88 88q55 45 82 82t27 96q0 76 -54.5 116t-136.5 40q-221 0 -221 -285v-1104h-188z" />
<glyph unicode="&#xe0;" horiz-adv-x="1114" d="M92 301q0 172 124 264t351 92h166v80q0 115 -55 164t-170 49q-119 0 -291 -57l-47 137q201 74 373 74q190 0 284.5 -93t94.5 -266v-493q0 -66 22.5 -97.5t67.5 -48.5l-43 -131q-84 10 -135.5 47t-75.5 115q-109 -162 -322 -162q-160 0 -252 90.5t-92 235.5zM293 311 q0 -96 47 -145t139 -49q162 0 254 168v247h-141q-299 0 -299 -221zM309 1483l84 157l408 -233l-58 -100z" />
<glyph unicode="&#xe1;" horiz-adv-x="1114" d="M92 301q0 172 124 264t351 92h166v80q0 115 -55 164t-170 49q-119 0 -291 -57l-47 137q201 74 373 74q190 0 284.5 -93t94.5 -266v-493q0 -66 22.5 -97.5t67.5 -48.5l-43 -131q-84 10 -135.5 47t-75.5 115q-109 -162 -322 -162q-160 0 -252 90.5t-92 235.5zM289 1407 l408 233l84 -157l-435 -176zM293 311q0 -96 47 -145t139 -49q162 0 254 168v247h-141q-299 0 -299 -221z" />
<glyph unicode="&#xe2;" horiz-adv-x="1114" d="M92 301q0 172 124 264t351 92h166v80q0 115 -55 164t-170 49q-119 0 -291 -57l-47 137q201 74 373 74q190 0 284.5 -93t94.5 -266v-493q0 -66 22.5 -97.5t67.5 -48.5l-43 -131q-84 10 -135.5 47t-75.5 115q-109 -162 -322 -162q-160 0 -252 90.5t-92 235.5zM195 1391 l276 231h125l279 -231l-82 -93l-258 172l-261 -172zM293 311q0 -96 47 -145t139 -49q162 0 254 168v247h-141q-299 0 -299 -221z" />
<glyph unicode="&#xe3;" horiz-adv-x="1114" d="M92 301q0 172 124 264t351 92h166v80q0 115 -55 164t-170 49q-119 0 -291 -57l-47 137q201 74 373 74q190 0 284.5 -93t94.5 -266v-493q0 -66 22.5 -97.5t67.5 -48.5l-43 -131q-84 10 -135.5 47t-75.5 115q-109 -162 -322 -162q-160 0 -252 90.5t-92 235.5zM193 1405 q39 82 95 131t128 49q43 0 73.5 -15.5t69.5 -41.5q6 -4 25.5 -16.5t36 -18.5t32.5 -6q31 0 55.5 21.5t53.5 68.5l115 -57q-39 -86 -96.5 -131.5t-127.5 -45.5q-39 0 -70.5 14.5t-70.5 41.5q-31 23 -52.5 33t-43.5 10q-33 0 -57.5 -22.5t-51.5 -71.5zM293 311q0 -96 47 -145 t139 -49q162 0 254 168v247h-141q-299 0 -299 -221z" />
<glyph unicode="&#xe4;" horiz-adv-x="1114" d="M92 301q0 172 124 264t351 92h166v80q0 115 -55 164t-170 49q-119 0 -291 -57l-47 137q201 74 373 74q190 0 284.5 -93t94.5 -266v-493q0 -66 22.5 -97.5t67.5 -48.5l-43 -131q-84 10 -135.5 47t-75.5 115q-109 -162 -322 -162q-160 0 -252 90.5t-92 235.5zM201 1456 q0 49 34 83t85 34q49 0 82.5 -34t33.5 -83t-33.5 -83t-82.5 -34q-51 0 -85 34t-34 83zM293 311q0 -96 47 -145t139 -49q162 0 254 168v247h-141q-299 0 -299 -221zM631 1456q0 49 34 83t83 34q51 0 85 -34t34 -83t-34 -83t-85 -34q-49 0 -83 34t-34 83z" />
<glyph unicode="&#xe5;" horiz-adv-x="1114" d="M92 301q0 172 124 264t351 92h166v80q0 115 -55 164t-170 49q-119 0 -291 -57l-47 137q201 74 373 74q190 0 284.5 -93t94.5 -266v-493q0 -66 22.5 -97.5t67.5 -48.5l-43 -131q-84 10 -135.5 47t-75.5 115q-109 -162 -322 -162q-160 0 -252 90.5t-92 235.5zM293 311 q0 -96 47 -145t139 -49q162 0 254 168v247h-141q-299 0 -299 -221zM301 1495q0 92 65.5 154.5t167.5 62.5t168 -62.5t66 -154.5t-66 -154.5t-168 -62.5t-167.5 62.5t-65.5 154.5zM426 1495q0 -53 28.5 -84t79.5 -31q49 0 79 31t30 84t-29 84t-80 31t-79.5 -31t-28.5 -84z " />
<glyph unicode="&#xe6;" horiz-adv-x="1738" d="M92 301q0 172 127 264t354 92h166v80q0 115 -55 164t-170 49q-119 0 -291 -57l-47 137q201 74 373 74q233 0 321 -172q117 172 326 172t322.5 -141.5t113.5 -391.5q0 -47 -4 -96h-688q12 -178 90 -262t201 -84q78 0 143.5 22.5t136.5 71.5l82 -112q-172 -135 -376 -136 q-129 0 -228.5 51.5t-161.5 147.5q-74 -106 -166 -152.5t-219 -46.5q-162 0 -256 90.5t-94 235.5zM299 311q0 -96 47 -145t139 -49q86 0 155 45t130 143q-31 98 -31 221v6h-141q-299 0 -299 -221zM940 614h506v13q0 160 -63.5 243.5t-190.5 83.5q-231 0 -252 -340z" />
<glyph unicode="&#xe7;" horiz-adv-x="978" d="M117 530q0 172 57 301.5t162.5 201t251.5 71.5q96 0 176 -27.5t154 -89.5l-91 -119q-57 41 -111 60.5t-120 19.5q-131 0 -204 -104.5t-73 -308.5q0 -205 72 -302.5t205 -97.5q63 0 116.5 19.5t118.5 62.5l87 -123q-129 -105 -287 -117v-92q98 -8 144 -56t46 -118 q0 -98 -71.5 -151.5t-182.5 -53.5q-57 0 -106 13.5t-80 36.5l51 106q61 -33 129 -33q47 0 75 19.5t28 62.5t-43 64.5t-140 21.5l23 185q-182 29 -284.5 172t-102.5 376z" />
<glyph unicode="&#xe8;" horiz-adv-x="1116" d="M117 528q0 168 54 298t155.5 204t238.5 74q215 0 330 -141.5t115 -391.5q0 -47 -4 -96h-689q12 -178 90 -262t201 -84q78 0 143.5 22.5t137.5 71.5l82 -112q-172 -135 -377 -136q-225 0 -351 147.5t-126 405.5zM317 614h506v13q0 160 -63.5 243.5t-190.5 83.5 q-231 0 -252 -340zM346 1483l84 157l408 -233l-58 -100z" />
<glyph unicode="&#xe9;" horiz-adv-x="1116" d="M117 528q0 168 54 298t155.5 204t238.5 74q215 0 330 -141.5t115 -391.5q0 -47 -4 -96h-689q12 -178 90 -262t201 -84q78 0 143.5 22.5t137.5 71.5l82 -112q-172 -135 -377 -136q-225 0 -351 147.5t-126 405.5zM317 614h506v13q0 160 -63.5 243.5t-190.5 83.5 q-231 0 -252 -340zM326 1407l408 233l84 -157l-435 -176z" />
<glyph unicode="&#xea;" horiz-adv-x="1116" d="M117 528q0 168 54 298t155.5 204t238.5 74q215 0 330 -141.5t115 -391.5q0 -47 -4 -96h-689q12 -178 90 -262t201 -84q78 0 143.5 22.5t137.5 71.5l82 -112q-172 -135 -377 -136q-225 0 -351 147.5t-126 405.5zM232 1391l276 231h125l279 -231l-82 -93l-258 172 l-261 -172zM317 614h506v13q0 160 -63.5 243.5t-190.5 83.5q-231 0 -252 -340z" />
<glyph unicode="&#xeb;" horiz-adv-x="1116" d="M117 528q0 168 54 298t155.5 204t238.5 74q215 0 330 -141.5t115 -391.5q0 -47 -4 -96h-689q12 -178 90 -262t201 -84q78 0 143.5 22.5t137.5 71.5l82 -112q-172 -135 -377 -136q-225 0 -351 147.5t-126 405.5zM238 1456q0 49 34 83t85 34q49 0 82.5 -34t33.5 -83 t-33.5 -83t-82.5 -34q-51 0 -85 34t-34 83zM317 614h506v13q0 160 -63.5 243.5t-190.5 83.5q-231 0 -252 -340zM668 1456q0 49 34 83t83 34q51 0 85 -34t34 -83t-34 -83t-85 -34q-49 0 -83 34t-34 83z" />
<glyph unicode="&#xec;" horiz-adv-x="577" d="M63 1483l84 157l408 -233l-58 -100zM195 0v1079h188v-1079h-188z" />
<glyph unicode="&#xed;" horiz-adv-x="577" d="M43 1407l408 233l84 -157l-435 -176zM195 0v1079h188v-1079h-188z" />
<glyph unicode="&#xee;" horiz-adv-x="577" d="M-51 1391l276 231h125l279 -231l-82 -93l-258 172l-261 -172zM195 0v1079h188v-1079h-188z" />
<glyph unicode="&#xef;" horiz-adv-x="577" d="M-45 1456q0 49 34 83t85 34q49 0 82.5 -34t33.5 -83t-33.5 -83t-82.5 -34q-51 0 -85 34t-34 83zM195 0v1079h188v-1079h-188zM385 1456q0 49 34 83t83 34q51 0 85 -34t34 -83t-34 -83t-85 -34q-49 0 -83 34t-34 83z" />
<glyph unicode="&#xf0;" horiz-adv-x="1167" d="M117 481q0 127 46 240t139 182.5t226 69.5q186 0 301 -137q-25 129 -83 228t-160 179l-148 -143l-129 65l152 154q-106 49 -232 74l41 143q174 -35 305 -98l144 151l110 -96l-129 -133q185 -139 262.5 -335t77.5 -482q0 -170 -59 -298t-165.5 -199t-246.5 -71 q-127 0 -230 59.5t-162.5 174.5t-59.5 272zM309 489q0 -176 70 -270t188 -94q129 0 206 108.5t77 311.5q0 43 -4 121q-53 80 -124 119.5t-165 39.5q-248 0 -248 -336z" />
<glyph unicode="&#xf1;" horiz-adv-x="1200" d="M195 0v1079h161l17 -159q57 86 142 135t187 49q148 0 231 -88t83 -242v-774h-189v748q0 115 -43 161.5t-127 46.5q-86 0 -151.5 -49t-122.5 -141v-766h-188zM269 1405q39 82 95 131t128 49q43 0 73.5 -15.5t69.5 -41.5q6 -4 25.5 -16.5t36 -18.5t32.5 -6q31 0 55.5 21.5 t53.5 68.5l115 -57q-39 -86 -96.5 -131.5t-127.5 -45.5q-39 0 -70.5 14.5t-70.5 41.5q-31 23 -52.5 33t-43.5 10q-33 0 -57.5 -22.5t-51.5 -71.5z" />
<glyph unicode="&#xf2;" horiz-adv-x="1196" d="M117 539q0 168 57 296t166 198.5t260 70.5q227 0 353 -151.5t126 -411.5q0 -168 -57 -296t-165.5 -199t-258.5 -71q-227 0 -354 152t-127 412zM319 539q0 -412 279 -412t279 414q0 412 -277 411q-281 1 -281 -413zM373 1483l84 157l408 -233l-58 -100z" />
<glyph unicode="&#xf3;" horiz-adv-x="1196" d="M117 539q0 168 57 296t166 198.5t260 70.5q227 0 353 -151.5t126 -411.5q0 -168 -57 -296t-165.5 -199t-258.5 -71q-227 0 -354 152t-127 412zM319 539q0 -412 279 -412t279 414q0 412 -277 411q-281 1 -281 -413zM352 1407l408 233l84 -157l-435 -176z" />
<glyph unicode="&#xf4;" horiz-adv-x="1196" d="M117 539q0 168 57 296t166 198.5t260 70.5q227 0 353 -151.5t126 -411.5q0 -168 -57 -296t-165.5 -199t-258.5 -71q-227 0 -354 152t-127 412zM258 1391l276 231h125l279 -231l-82 -93l-258 172l-261 -172zM319 539q0 -412 279 -412t279 414q0 412 -277 411 q-281 1 -281 -413z" />
<glyph unicode="&#xf5;" horiz-adv-x="1196" d="M117 539q0 168 57 296t166 198.5t260 70.5q227 0 353 -151.5t126 -411.5q0 -168 -57 -296t-165.5 -199t-258.5 -71q-227 0 -354 152t-127 412zM256 1405q39 82 95 131t128 49q43 0 73.5 -15.5t69.5 -41.5q6 -4 25.5 -16.5t36 -18.5t32.5 -6q31 0 55.5 21.5t53.5 68.5 l115 -57q-39 -86 -96.5 -131.5t-127.5 -45.5q-39 0 -70.5 14.5t-70.5 41.5q-31 23 -52.5 33t-43.5 10q-33 0 -57.5 -22.5t-51.5 -71.5zM319 539q0 -412 279 -412t279 414q0 412 -277 411q-281 1 -281 -413z" />
<glyph unicode="&#xf6;" horiz-adv-x="1196" d="M117 539q0 168 57 296t166 198.5t260 70.5q227 0 353 -151.5t126 -411.5q0 -168 -57 -296t-165.5 -199t-258.5 -71q-227 0 -354 152t-127 412zM264 1456q0 49 34 83t85 34q49 0 82.5 -34t33.5 -83t-33.5 -83t-82.5 -34q-51 0 -85 34t-34 83zM319 539q0 -412 279 -412 t279 414q0 412 -277 411q-281 1 -281 -413zM694 1456q0 49 34 83t83 34q51 0 85 -34t34 -83t-34 -83t-85 -34q-49 0 -83 34t-34 83z" />
<glyph unicode="&#xf7;" d="M127 602v158h770v-158h-770zM370 215q0 59 41 100t101 41q61 0 102 -41t41 -100t-41 -101.5t-102 -42.5q-59 0 -100.5 42t-41.5 102zM370 1151q0 59 41 100t101 41q61 0 102 -41t41 -100t-41 -101.5t-102 -42.5q-59 0 -100.5 42t-41.5 102z" />
<glyph unicode="&#xf8;" horiz-adv-x="1196" d="M117 539q0 168 57 296t166 198.5t260 70.5q49 0 105 -10l79 249l154 -45l-86 -258q111 -67 169 -195t58 -304q0 -168 -57 -296t-165.5 -199t-258.5 -71q-49 0 -104 11l-80 -252l-154 45l86 260q-111 68 -170 197t-59 303zM319 539q0 -264 99 -357l254 764q-35 6 -72 6 q-281 1 -281 -413zM528 133q31 -6 70 -6q279 0 279 414q0 137 -24 223t-73 131z" />
<glyph unicode="&#xf9;" horiz-adv-x="1191" d="M184 305v774h189v-753q0 -111 39 -157t127 -46q158 0 270 186v770h188v-1079h-161l-15 168q-61 -100 -141 -146.5t-195 -46.5q-141 0 -221 86t-80 244zM367 1483l84 157l408 -233l-58 -100z" />
<glyph unicode="&#xfa;" horiz-adv-x="1191" d="M184 305v774h189v-753q0 -111 39 -157t127 -46q158 0 270 186v770h188v-1079h-161l-15 168q-61 -100 -141 -146.5t-195 -46.5q-141 0 -221 86t-80 244zM346 1407l408 233l84 -157l-435 -176z" />
<glyph unicode="&#xfb;" horiz-adv-x="1191" d="M184 305v774h189v-753q0 -111 39 -157t127 -46q158 0 270 186v770h188v-1079h-161l-15 168q-61 -100 -141 -146.5t-195 -46.5q-141 0 -221 86t-80 244zM252 1391l276 231h125l279 -231l-82 -93l-258 172l-261 -172z" />
<glyph unicode="&#xfc;" horiz-adv-x="1191" d="M184 305v774h189v-753q0 -111 39 -157t127 -46q158 0 270 186v770h188v-1079h-161l-15 168q-61 -100 -141 -146.5t-195 -46.5q-141 0 -221 86t-80 244zM258 1456q0 49 34 83t85 34q49 0 82.5 -34t33.5 -83t-33.5 -83t-82.5 -34q-51 0 -85 34t-34 83zM688 1456q0 49 34 83 t83 34q51 0 85 -34t34 -83t-34 -83t-85 -34q-49 0 -83 34t-34 83z" />
<glyph unicode="&#xfd;" horiz-adv-x="1007" d="M20 1079h201l289 -942l283 942h194l-360 -1085q-63 -188 -177 -298t-325 -132l-21 147q106 18 170 53t102 89.5t70 146.5h-63zM258 1407l408 233l84 -157l-435 -176z" />
<glyph unicode="&#xfe;" horiz-adv-x="1216" d="M195 -436v1949l188 23v-588q57 76 137 116t170 40q207 0 303.5 -147.5t96.5 -415.5q0 -254 -111 -410t-313 -156q-180 0 -283 123v-504zM383 260q41 -63 102.5 -97t135.5 -34q266 0 266 412q0 414 -244 413q-80 0 -145.5 -47t-114.5 -121v-526z" />
<glyph unicode="&#xff;" horiz-adv-x="1007" d="M20 1079h201l289 -942l283 942h194l-360 -1085q-63 -188 -177 -298t-325 -132l-21 147q106 18 170 53t102 89.5t70 146.5h-63zM170 1456q0 49 34 83t85 34q49 0 82.5 -34t33.5 -83t-33.5 -83t-82.5 -34q-51 0 -85 34t-34 83zM600 1456q0 49 34 83t83 34q51 0 85 -34 t34 -83t-34 -83t-85 -34q-49 0 -83 34t-34 83z" />
<glyph unicode="&#x152;" horiz-adv-x="1837" d="M113 702q0 227 73.5 393.5t202.5 253.5t293 87q82 0 158 -25h870l-22 -156h-611q78 -78 125 -195.5t58 -264.5h356v-156h-354q-10 -152 -60.5 -275.5t-138.5 -207.5h663v-156h-895q-70 -25 -149 -25q-164 0 -293 84t-202.5 248t-73.5 395zM319 702q0 -290 100.5 -428.5 t268.5 -138.5q172 0 270.5 137.5t98.5 432.5q0 293 -97.5 432t-271.5 139q-170 0 -269.5 -140.5t-99.5 -433.5z" />
<glyph unicode="&#x153;" horiz-adv-x="1875" d="M117 539q0 168 57 296t166 198.5t260 70.5q258 0 379 -217q121 217 356 217q209 0 321.5 -141.5t112.5 -391.5q0 -47 -4 -96h-688q12 -178 90 -262t201 -84q78 0 143.5 22.5t137.5 71.5l82 -112q-172 -135 -377 -136q-256 0 -379 224q-127 -223 -377 -224 q-227 0 -354 152t-127 412zM319 539q0 -412 279 -412t279 414q0 412 -277 411q-281 0 -281 -413zM1077 614h506v13q0 160 -62.5 243.5t-181.5 83.5q-242 0 -262 -340z" />
<glyph unicode="&#x178;" horiz-adv-x="1126" d="M10 1411h215l344 -698l344 698h203l-454 -868v-543h-197v541zM229 1714q0 49 34 83t85 34q49 0 82.5 -34t33.5 -83t-33.5 -83t-82.5 -34q-51 0 -85 34t-34 83zM659 1714q0 49 34 83t83 34q51 0 85 -34t34 -83t-34 -83t-85 -34q-49 0 -83 34t-34 83z" />
<glyph unicode="&#x2c6;" horiz-adv-x="802" d="M62 1391l276 231h125l279 -231l-82 -93l-258 172l-261 -172z" />
<glyph unicode="&#x2dc;" horiz-adv-x="806" d="M62 1405q39 82 95 131t128 49q43 0 73.5 -15.5t69.5 -41.5q6 -4 25.5 -16.5t36 -18.5t32.5 -6q31 0 55.5 21.5t53.5 68.5l115 -57q-39 -86 -96.5 -131.5t-127.5 -45.5q-39 0 -70.5 14.5t-70.5 41.5q-31 23 -52.5 33t-43.5 10q-33 0 -57.5 -22.5t-51.5 -71.5z" />
<glyph unicode="&#x2000;" horiz-adv-x="985" />
<glyph unicode="&#x2001;" horiz-adv-x="1970" />
<glyph unicode="&#x2002;" horiz-adv-x="985" />
<glyph unicode="&#x2003;" horiz-adv-x="1970" />
<glyph unicode="&#x2004;" horiz-adv-x="656" />
<glyph unicode="&#x2005;" horiz-adv-x="492" />
<glyph unicode="&#x2006;" horiz-adv-x="328" />
<glyph unicode="&#x2007;" horiz-adv-x="328" />
<glyph unicode="&#x2008;" horiz-adv-x="246" />
<glyph unicode="&#x2009;" horiz-adv-x="394" />
<glyph unicode="&#x200a;" horiz-adv-x="109" />
<glyph unicode="&#x2010;" horiz-adv-x="825" d="M123 561v160h579v-160h-579z" />
<glyph unicode="&#x2011;" horiz-adv-x="825" d="M123 561v160h579v-160h-579z" />
<glyph unicode="&#x2012;" horiz-adv-x="825" d="M123 561v160h579v-160h-579z" />
<glyph unicode="&#x2013;" horiz-adv-x="1064" d="M66 561v160h933v-160h-933z" />
<glyph unicode="&#x2014;" horiz-adv-x="1617" d="M66 561v160h1486v-160h-1486z" />
<glyph unicode="&#x2018;" horiz-adv-x="466" d="M90 1133q0 25 7 50t28 68l137 291h123l-82 -307q53 -41 53 -102q0 -53 -40 -91t-93 -38q-55 0 -94 37.5t-39 91.5z" />
<glyph unicode="&#x2019;" horiz-adv-x="466" d="M82 1004l82 307q-53 41 -53 102q0 53 39.5 91t93.5 38q55 0 94 -38t39 -91q0 -25 -7.5 -50.5t-27.5 -68.5l-137 -290h-123z" />
<glyph unicode="&#x201a;" horiz-adv-x="466" d="M82 -319l82 307q-53 41 -53 102q0 53 39.5 91t93.5 38q55 0 94 -38t39 -91q0 -25 -7.5 -50.5t-27.5 -68.5l-137 -290h-123z" />
<glyph unicode="&#x201c;" horiz-adv-x="831" d="M90 1133q0 25 7 50t28 68l137 291h123l-82 -307q53 -41 53 -102q0 -53 -40 -91t-93 -38q-55 0 -94 37.5t-39 91.5zM455 1133q0 25 7 50t27 68l138 291h123l-82 -307q53 -41 53 -102q0 -53 -40 -91t-93 -38q-56 0 -94.5 37.5t-38.5 91.5z" />
<glyph unicode="&#x201d;" horiz-adv-x="831" d="M82 1004l82 307q-53 41 -53 102q0 53 39.5 91t93.5 38q55 0 94 -38t39 -91q0 -25 -7.5 -50.5t-27.5 -68.5l-137 -290h-123zM447 1004l82 307q-53 41 -53 102q0 53 39.5 91t93.5 38q55 0 94 -38t39 -91q0 -25 -7.5 -50.5t-27.5 -68.5l-137 -290h-123z" />
<glyph unicode="&#x201e;" horiz-adv-x="831" d="M82 -319l82 307q-53 41 -53 102q0 53 39.5 91t93.5 38q55 0 94 -38t39 -91q0 -25 -7.5 -50.5t-27.5 -68.5l-137 -290h-123zM447 -319l82 307q-53 41 -53 102q0 53 39.5 91t93.5 38q55 0 94 -38t39 -91q0 -25 -7.5 -50.5t-27.5 -68.5l-137 -290h-123z" />
<glyph unicode="&#x2022;" horiz-adv-x="663" d="M102 700q0 98 65.5 164t164.5 66q98 0 163.5 -66.5t65.5 -165.5q0 -98 -65.5 -163.5t-163.5 -65.5t-164 66.5t-66 164.5z" />
<glyph unicode="&#x2026;" horiz-adv-x="1511" d="M102 119q0 59 41 100t101 41q61 0 102 -41t41 -100t-41 -101.5t-102 -42.5q-59 0 -100.5 42t-41.5 102zM612 119q0 59 41 100t101 41q61 0 102 -41t41 -100t-41 -101.5t-102 -42.5q-59 0 -100.5 42t-41.5 102zM1122 119q0 59 41 100t101 41q61 0 102 -41t41 -100 t-41 -101.5t-102 -42.5q-59 0 -100.5 42t-41.5 102z" />
<glyph unicode="&#x202f;" horiz-adv-x="394" />
<glyph unicode="&#x2039;" horiz-adv-x="696" d="M113 522v129l358 445l113 -78l-277 -430l277 -430l-113 -78z" />
<glyph unicode="&#x203a;" horiz-adv-x="696" d="M113 158l276 430l-276 430l112 78l359 -445v-129l-359 -442z" />
<glyph unicode="&#x205f;" horiz-adv-x="492" />
<glyph unicode="&#x20ac;" horiz-adv-x="1179" d="M51 473l31 125h143v184h-174l31 127h151q49 229 188.5 355.5t334.5 126.5q203 0 372 -115l-73 -129q-78 47 -143.5 67.5t-147.5 20.5q-252 0 -326 -326h523l-31 -127h-504v-184h465l-29 -125h-430q27 -178 109 -259t235 -81q80 0 146.5 22.5t140.5 61.5v-164 q-78 -37 -151.5 -57.5t-163.5 -20.5q-211 0 -343.5 127t-173.5 371h-180z" />
<glyph unicode="&#x2122;" horiz-adv-x="1806" d="M72 1280v131h690l-25 -131h-248v-670h-157v670h-260zM807 610l33 801h215l186 -559l170 559h221l31 -801h-154l-18 432q-2 47 -2 113q0 57 6 121h-2l-184 -582h-138l-202 578h-2q6 -68 6 -144l-2 -86l-17 -432h-147z" />
<glyph unicode="&#x25fc;" horiz-adv-x="1075" d="M0 0v1075h1075v-1075h-1075z" />
<glyph unicode="&#xfb03;" horiz-adv-x="1761" d="M20 934v145h173v127q0 141 91 225.5t265 84.5q84 0 153.5 -16.5t157.5 -55.5q98 92 289 92q86 0 156.5 -18.5t142.5 -55.5l-66 -131q-106 51 -227 51q-109 0 -149.5 -38.5t-40.5 -120.5v-144h602v-1079h-189v934h-413v-934h-189v934h-395v-934h-188v934h-173zM381 1079 h395v142q0 55 12 100q-61 23 -113 33t-114 10q-100 0 -140 -37t-40 -119v-129z" />
<glyph unicode="&#xfb04;" horiz-adv-x="1796" d="M20 934v145h173v127q0 141 91 225.5t265 84.5q84 0 153.5 -16.5t157.5 -55.5q96 92 273 92q70 0 126 -10t123 -31l187 25v-1303q0 -43 15 -64.5t52 -21.5q39 0 70 12l49 -131q-76 -37 -160 -37q-104 0 -159.5 60.5t-55.5 177.5v1137q-63 18 -116.5 26t-118.5 8 q-100 0 -140 -36.5t-40 -118.5v-150h262l-21 -145h-241v-934h-189v934h-395v-934h-188v934h-173zM381 1079h395v148q0 51 12 94q-61 23 -113 33t-114 10q-100 0 -140 -37t-40 -119v-129z" />
</font>
</defs>
</svg>
