<?xml version="1.0" standalone="no"?>
<!DOCTYPE svg PUBLIC "-//W3C//DTD SVG 1.1//EN" "http://www.w3.org/Graphics/SVG/1.1/DTD/svg11.dtd" >
<svg xmlns="http://www.w3.org/2000/svg" xmlns:xlink="http://www.w3.org/1999/xlink" version="1.1">
<metadata></metadata>
<defs>
<font id="fira_sansmedium" horiz-adv-x="1415" >
<font-face units-per-em="2048" ascent="1638" descent="-410" />
<missing-glyph horiz-adv-x="512" />
<glyph unicode="&#xfb01;" horiz-adv-x="1204" />
<glyph unicode="&#xfb02;" horiz-adv-x="1255" />
<glyph horiz-adv-x="0" />
<glyph unicode="&#xd;" horiz-adv-x="512" />
<glyph unicode=" "  horiz-adv-x="512" />
<glyph unicode="&#x09;" horiz-adv-x="512" />
<glyph unicode="&#xa0;" horiz-adv-x="512" />
<glyph unicode="!" horiz-adv-x="493" d="M80 135q0 70 48 118t118 48q69 0 117.5 -48t48.5 -118q0 -68 -48.5 -117t-117.5 -49q-70 0 -118 49.5t-48 116.5zM102 1415h283l-31 -915h-219z" />
<glyph unicode="&#x22;" horiz-adv-x="862" d="M109 1415h251l-34 -555h-181zM502 1415h251l-34 -555h-181z" />
<glyph unicode="#" horiz-adv-x="1103" d="M31 311v181h145l55 415h-125v183h150l37 288h219l-39 -288h256l39 288h219l-39 -288h125v-183h-147l-56 -415h127v-181h-151l-41 -311h-219l41 311h-256l-41 -311h-217l41 311h-123zM395 492h256l56 415h-256z" />
<glyph unicode="$" horiz-adv-x="1107" d="M35 164l139 153q150 -139 346 -139q113 0 182.5 53.5t69.5 149.5q0 59 -23.5 98t-81 70t-165.5 63q-219 66 -315.5 162t-96.5 248q0 150 103.5 249t273.5 122v301h201v-301q102 -14 183 -54.5t153 -107.5l-134 -150q-68 61 -141.5 90t-159.5 29q-94 0 -152.5 -42 t-58.5 -120q0 -51 24 -84.5t83 -63.5t174 -65q203 -63 303 -157.5t100 -272.5q0 -157 -98 -264.5t-276 -140.5v-314h-201v304q-262 16 -432 184z" />
<glyph unicode="%" horiz-adv-x="1728" d="M76 1044q0 106 46 188.5t125 126.5t177 44t178 -44t126 -126t46 -189q0 -106 -46 -188t-126 -126t-178 -44t-177 44t-125 126t-46 188zM276 1044q0 -84 34 -139t114 -55q147 0 147 194q0 195 -147 195q-80 0 -114 -54.5t-34 -140.5zM307 35l948 1431l170 -108l-950 -1432 zM954 328q0 106 46.5 188t126 126t178.5 44q98 0 178 -44t125 -126t45 -188t-45 -188.5t-125 -126.5t-178 -44t-178 44t-126.5 126t-46.5 189zM1157 328q0 -84 34 -139.5t114 -55.5q147 0 147 195t-147 194q-80 0 -114 -54t-34 -140z" />
<glyph unicode="&#x26;" horiz-adv-x="1527" d="M141 360q0 125 70 218.5t213 185.5q-106 104 -152.5 180t-46.5 172q0 90 46 165t137.5 120t222.5 45q123 0 216 -41t143 -113.5t50 -165.5q0 -121 -72.5 -210t-205.5 -173l315 -297q68 147 109 320l227 -68q-76 -229 -186 -391l239 -217l-211 -121l-178 172 q-184 -172 -450 -172q-143 0 -253 48.5t-171.5 137.5t-61.5 205zM416 373q0 -96 68.5 -152.5t183.5 -56.5q80 0 144.5 27.5t125.5 80.5l-365 351q-81 -56 -119 -115t-38 -135zM479 1116q0 -61 32 -111.5t105 -121.5q86 55 129 109.5t43 123.5q0 70 -41.5 111t-113.5 41 t-113 -41t-41 -111z" />
<glyph unicode="'" horiz-adv-x="471" d="M109 1415h251l-34 -555h-181z" />
<glyph unicode="(" horiz-adv-x="663" d="M57 717q0 227 51.5 404t128 307.5t209.5 316.5l168 -113q-152 -217 -220 -420.5t-68 -494.5q0 -289 68.5 -494t219.5 -422l-168 -112q-133 186 -209.5 316t-128 307t-51.5 405z" />
<glyph unicode=")" horiz-adv-x="663" d="M51 -199q150 217 219.5 422t69.5 494t-69.5 492.5t-219.5 422.5l166 113q133 -184 210 -315.5t128 -307.5t51 -405t-51 -405.5t-128 -307.5t-210 -315z" />
<glyph unicode="*" horiz-adv-x="909" d="M27 1120l71 217l275 -129l-37 310h237l-36 -310l272 131l74 -219l-301 -57l211 -221l-191 -140l-147 267l-146 -267l-190 138l207 225z" />
<glyph unicode="+" horiz-adv-x="1056" d="M113 575v207h303v314h225v-314h305v-207h-305v-313h-225v313h-303z" />
<glyph unicode="," horiz-adv-x="491" d="M66 -352l84 352q-70 47 -70 137q0 70 47 117t117 47q71 0 119.5 -47t48.5 -119q0 -39 -12.5 -80t-41.5 -104l-133 -303h-159z" />
<glyph unicode="-" horiz-adv-x="829" d="M106 537v208h619v-208h-619z" />
<glyph unicode="." horiz-adv-x="491" d="M80 135q0 70 47 118t117 48q69 0 118.5 -48t49.5 -118q0 -68 -49.5 -117t-118.5 -49q-68 0 -116 49.5t-48 116.5z" />
<glyph unicode="/" horiz-adv-x="1064" d="M180 -168l479 1831l226 -51l-477 -1833z" />
<glyph unicode="0" horiz-adv-x="1173" d="M92 688q0 346 126 530.5t368 184.5q241 0 367 -184.5t126 -530.5q0 -348 -126 -533.5t-367 -185.5q-242 0 -368 185.5t-126 533.5zM362 688q0 -283 53.5 -401.5t170.5 -118.5t170 117.5t53 402.5q0 283 -53.5 399.5t-169.5 116.5q-117 0 -170.5 -117.5t-53.5 -398.5z" />
<glyph unicode="1" horiz-adv-x="921" d="M47 1104l449 274h231v-1378h-258v1114l-307 -186z" />
<glyph unicode="2" horiz-adv-x="1038" d="M31 1178q174 225 446 225q139 0 240.5 -51.5t155 -139.5t53.5 -196q0 -117 -50.5 -224.5t-167 -238.5t-341.5 -346h589l-28 -207h-858v193q262 266 375.5 394t161.5 219t48 189q0 94 -54 147.5t-144 53.5q-80 0 -140.5 -34t-126.5 -111z" />
<glyph unicode="3" horiz-adv-x="1044" d="M10 168l146 139q70 -70 137 -101.5t149 -31.5q111 0 177.5 62.5t66.5 169.5q0 119 -62.5 170t-185.5 51h-108l30 186h74q100 0 160.5 55.5t60.5 153.5q0 84 -55 132t-147 48q-80 0 -145.5 -29.5t-131.5 -91.5l-133 146q186 176 432 176q137 0 236.5 -47t149.5 -127 t50 -176q0 -125 -71.5 -208t-196.5 -116q137 -12 225 -98t88 -238q0 -119 -60 -215t-173 -152.5t-266 -56.5q-283 0 -447 199z" />
<glyph unicode="4" horiz-adv-x="1126" d="M68 315v181l401 909l223 -84l-352 -805h315l27 346h227v-346h166v-201h-166v-315h-256v315h-585z" />
<glyph unicode="5" horiz-adv-x="1064" d="M39 164l149 139q119 -131 279 -131q117 0 183.5 71.5t66.5 205.5q0 256 -221 256q-47 0 -88 -11.5t-91 -36.5h-186v721h799l-31 -194h-516v-342q102 51 209 51q115 0 205 -53.5t140 -153.5t50 -237q0 -141 -63.5 -250t-180 -169.5t-270.5 -60.5q-137 0 -242.5 50.5 t-191.5 144.5z" />
<glyph unicode="6" horiz-adv-x="1126" d="M92 637q0 229 68.5 402t196.5 268.5t300 95.5q170 0 301 -88l-98 -162q-94 55 -198 55q-131 0 -210 -117.5t-90 -324.5q125 152 310 152q108 0 197 -52.5t140.5 -154t51.5 -242.5q0 -143 -59.5 -257t-167 -178.5t-244.5 -64.5q-254 0 -376 178.5t-122 489.5zM365 586 q4 -223 56 -322.5t169 -99.5q102 0 154.5 81t52.5 220q0 141 -48.5 201.5t-140.5 60.5q-70 0 -132 -38t-111 -103z" />
<glyph unicode="7" horiz-adv-x="935" d="M37 1176v202h852v-184l-510 -1221l-240 78l479 1125h-581z" />
<glyph unicode="8" horiz-adv-x="1161" d="M76 367q0 238 262 348q-207 113 -207 325q0 109 60.5 192t164 127t226.5 44q125 0 227 -41t162.5 -121t60.5 -190q0 -195 -227 -312q282 -126 282 -368q0 -113 -63 -204t-179 -144.5t-270 -53.5q-152 0 -264 52.5t-173.5 142.5t-61.5 203zM340 375q0 -98 65.5 -154.5 t176.5 -56.5q112 0 175.5 57.5t63.5 149.5q0 94 -55 148t-197 106l-63 22q-166 -88 -166 -272zM385 1036q0 -82 49 -130t158 -87l39 -14q80 49 113.5 103.5t33.5 129.5q0 84 -51 132.5t-145 48.5q-93 0 -145 -47.5t-52 -135.5z" />
<glyph unicode="9" horiz-adv-x="1114" d="M72 936q0 141 63.5 246.5t173 163t242.5 57.5q233 0 358 -144.5t125 -390.5q0 -281 -84 -460t-258 -285.5t-461 -173.5l-55 186q270 72 410.5 185.5t167.5 310.5q-113 -143 -295 -144q-106 0 -195.5 54.5t-140.5 157t-51 237.5zM334 940q0 -135 54 -198.5t142 -63.5 q140 0 236 141q2 211 -48 300t-167 89q-102 0 -159.5 -69.5t-57.5 -198.5z" />
<glyph unicode=":" horiz-adv-x="491" d="M80 135q0 70 47 118t117 48q69 0 118.5 -48t49.5 -118q0 -68 -49.5 -117t-118.5 -49q-68 0 -116 49.5t-48 116.5zM80 864q0 70 47 118t117 48q69 0 118.5 -48t49.5 -118q0 -68 -49.5 -117t-118.5 -49q-68 0 -116 49.5t-48 116.5z" />
<glyph unicode=";" horiz-adv-x="491" d="M66 -352l84 352q-70 47 -70 137q0 70 47 117t117 47q71 0 119.5 -47t48.5 -119q0 -39 -12.5 -80t-41.5 -104l-133 -303h-159zM80 864q0 70 47 118t117 48q69 0 118.5 -48t49.5 -118q0 -68 -49.5 -117t-118.5 -49q-68 0 -116 49.5t-48 116.5z" />
<glyph unicode="&#x3c;" horiz-adv-x="1044" d="M86 559v244l788 354l87 -194l-658 -281l658 -276l-87 -199z" />
<glyph unicode="=" horiz-adv-x="1044" d="M113 366v209h821v-209h-821zM113 780v209h821v-209h-821z" />
<glyph unicode="&#x3e;" horiz-adv-x="1044" d="M86 406l655 276l-655 281l86 194l789 -354v-244l-789 -352z" />
<glyph unicode="?" horiz-adv-x="964" d="M45 1235q178 211 453 211q135 0 230 -45t144.5 -121t49.5 -166q0 -82 -29 -140.5t-70 -95t-106 -81.5q-84 -55 -125 -102.5t-41 -125.5v-69h-244v80q0 92 30 156.5t71 102.5t106 83q70 47 101.5 81.5t31.5 90.5q0 68 -46 105.5t-126 37.5q-145 0 -260 -135zM268 135 q0 70 47 118t117 48t119 -48t49 -118q0 -68 -49 -117t-119 -49q-68 0 -116 49.5t-48 116.5z" />
<glyph unicode="@" horiz-adv-x="2088" d="M119 494q0 270 121.5 487t341 341t495.5 124q279 0 480.5 -110.5t307 -295t105.5 -401.5q0 -178 -50 -320.5t-147.5 -224.5t-230.5 -82q-115 0 -181.5 62.5t-86.5 148.5q-39 -90 -113 -147.5t-180 -57.5q-176 0 -270.5 125t-94.5 332q0 256 124 400.5t339 144.5 q176 0 340 -88v-516q0 -127 28 -177.5t87 -50.5q92 0 141 105.5t49 341.5q0 289 -163.5 450.5t-483.5 161.5q-221 0 -381.5 -96t-245.5 -267t-85 -390q0 -223 82.5 -390t243.5 -258.5t388 -91.5q197 0 398 72l65 -188q-223 -84 -465 -84q-287 0 -504 115.5t-335.5 328.5 t-118.5 496zM858 475q0 -145 38 -213.5t118 -68.5q69 0 112 40.5t66 96.5v491q-55 25 -117 25q-106 0 -161.5 -89t-55.5 -282z" />
<glyph unicode="A" horiz-adv-x="1193" d="M-10 0l440 1415h334l438 -1415h-287l-88 328h-469l-88 -328h-280zM412 532h360l-180 676z" />
<glyph unicode="B" horiz-adv-x="1255" d="M166 0v1415h371q585 0 585 -359q0 -126 -75.5 -205t-186.5 -101q146 -27 235 -105t89 -237q0 -221 -156 -314.5t-436 -93.5h-426zM436 203h158q149 0 228 45t79 170q0 121 -74.5 174t-203.5 53h-187v-442zM436 834h166q113 0 178.5 50t65.5 148q0 102 -68.5 143.5 t-214.5 41.5h-127v-383z" />
<glyph unicode="C" horiz-adv-x="1163" d="M88 711q0 231 81 397t221 252t317 86q129 0 225 -37t188 -113l-137 -159q-125 100 -262 100q-158 0 -253 -127t-95 -399q0 -266 94 -395.5t254 -129.5q84 0 149.5 30t139.5 85l127 -160q-72 -74 -181.5 -123t-244.5 -49q-184 0 -325.5 86t-219.5 253t-78 403z" />
<glyph unicode="D" horiz-adv-x="1327" d="M166 0v1415h348q330 0 527.5 -149.5t197.5 -550.5q0 -393 -194.5 -554t-493.5 -161h-385zM436 203h133q180 0 282.5 111.5t102.5 400.5q0 201 -52 310.5t-137 148t-204 38.5h-125v-1009z" />
<glyph unicode="E" horiz-adv-x="1085" d="M166 0v1415h821l-29 -201h-522v-395h455v-201h-455v-415h559v-203h-829z" />
<glyph unicode="F" horiz-adv-x="1001" d="M166 0v1415h801l-29 -201h-502v-423h436v-201h-436v-590h-270z" />
<glyph unicode="G" horiz-adv-x="1306" d="M88 709q0 231 87 398t234.5 253t327.5 86q140 0 247.5 -42t203.5 -124l-146 -152q-76 59 -142 86t-155 27q-164 0 -268 -131t-104 -401q0 -283 83 -408t253 -125q129 0 225 55v369h-213l-29 201h508v-692q-229 -139 -487 -140q-303 0 -464 188.5t-161 551.5z" />
<glyph unicode="H" horiz-adv-x="1376" d="M166 0v1415h270v-567h504v567h272v-1415h-272v633h-504v-633h-270z" />
<glyph unicode="I" horiz-adv-x="602" d="M166 0v1415h270v-1415h-270z" />
<glyph unicode="J" horiz-adv-x="638" d="M-6 -123q90 35 136 79t62.5 104.5t16.5 156.5v1198h272v-1208q0 -227 -107.5 -343t-307.5 -181z" />
<glyph unicode="K" horiz-adv-x="1255" d="M166 0v1415h270v-1415h-270zM449 756l489 659h293l-490 -641l529 -774h-322z" />
<glyph unicode="L" horiz-adv-x="1036" d="M166 0v1415h270v-1194h568l-31 -221h-807z" />
<glyph unicode="M" horiz-adv-x="1601" d="M94 0l113 1415h348l252 -991l237 991h353l110 -1415h-264l-37 592q-18 317 -18 504v73l-258 -1015h-256l-275 1017q4 -135 4 -204q0 -186 -12 -383l-35 -584h-262z" />
<glyph unicode="N" horiz-adv-x="1376" d="M166 0v1415h342l493 -1147q-12 82 -24 216t-12 268v663h245v-1415h-350l-485 1145q18 -152 27.5 -274.5t9.5 -292.5v-578h-246z" />
<glyph unicode="O" d="M88 707q0 229 76 396t216 255t329 88q190 0 329.5 -86t214 -252t74.5 -399q0 -231 -75.5 -397.5t-215 -254.5t-327.5 -88q-190 0 -329.5 86t-215.5 252t-76 400zM373 707q0 -530 336 -531q164 0 248.5 127t84.5 406q0 276 -85 403t-248 127q-164 0 -250 -128t-86 -404z " />
<glyph unicode="P" horiz-adv-x="1210" d="M166 0v1415h418q272 0 422.5 -112.5t150.5 -337.5q0 -236 -151.5 -353.5t-403.5 -117.5h-166v-494h-270zM436 696h146q145 0 218.5 60.5t73.5 208.5q0 252 -292 252h-146v-521z" />
<glyph unicode="Q" d="M88 707q0 229 76 396t216 255t329 88q190 0 329.5 -86t214 -252t74.5 -399q0 -244 -87 -392.5t-243 -230.5q125 0 221.5 -33t182.5 -94l-168 -219q-119 121 -236.5 178t-302.5 57q-182 0 -319 85t-212 249t-75 398zM373 707q0 -531 336 -531q164 0 248.5 127t84.5 406 q0 276 -85 403t-248 127q-164 0 -250 -128t-86 -404z" />
<glyph unicode="R" horiz-adv-x="1251" d="M166 0v1415h422q561 0 561 -416q0 -141 -69.5 -233t-217.5 -150l371 -616h-311l-314 567h-172v-567h-270zM436 762h168q129 0 195.5 56t66.5 181q0 115 -68.5 167.5t-215.5 52.5h-146v-457z" />
<glyph unicode="S" horiz-adv-x="1146" d="M35 164l139 155q82 -70 170 -105.5t195 -35.5q117 0 188.5 55.5t71.5 155.5q0 61 -24.5 101t-84 72t-172.5 67q-225 70 -325.5 168t-100.5 258q0 117 61.5 205t171 137t248.5 49q150 0 260.5 -43t206.5 -131l-133 -154q-76 63 -152.5 92t-164.5 29q-98 0 -158.5 -44 t-60.5 -124q0 -53 23.5 -88t85 -65.5t182.5 -67.5q209 -66 314 -163t105 -284q0 -127 -64.5 -225t-185 -153.5t-286.5 -55.5q-162 0 -290 52.5t-220 142.5z" />
<glyph unicode="T" horiz-adv-x="1085" d="M25 1200v215h1050l-28 -215h-369v-1200h-272v1200h-381z" />
<glyph unicode="U" horiz-adv-x="1343" d="M145 463v952h271v-938q0 -150 62.5 -223.5t191.5 -73.5q131 0 193.5 74t62.5 223v938h272v-952q0 -143 -60.5 -255t-180 -175.5t-287.5 -63.5q-254 0 -389.5 134.5t-135.5 359.5z" />
<glyph unicode="V" horiz-adv-x="1155" d="M-10 1415h291l307 -1175l299 1175h276l-420 -1415h-321z" />
<glyph unicode="W" horiz-adv-x="1714" d="M35 1415h268l180 -1200l232 1200h286l228 -1200l196 1200h256l-260 -1415h-352l-215 1128l-221 -1128h-342z" />
<glyph unicode="X" horiz-adv-x="1150" d="M0 0l410 754l-377 661h301l239 -489l250 489h289l-379 -651l420 -764h-301l-283 580l-280 -580h-289z" />
<glyph unicode="Y" horiz-adv-x="1175" d="M-4 1415h299l299 -657l299 657h287l-455 -878v-537h-274v535z" />
<glyph unicode="Z" horiz-adv-x="1093" d="M47 0v207l666 993h-598v215h901v-209l-654 -985h660l-29 -221h-946z" />
<glyph unicode="[" horiz-adv-x="661" d="M98 -246v1925h490v-204h-242v-1518h242v-203h-490z" />
<glyph unicode="\" horiz-adv-x="1064" d="M180 1612l226 51l479 -1831l-228 -53z" />
<glyph unicode="]" horiz-adv-x="661" d="M74 -43h241v1520h-241v202h489v-1925h-489v203z" />
<glyph unicode="^" horiz-adv-x="1126" d="M57 1079l387 645h238l387 -645h-264l-244 439l-237 -439h-267z" />
<glyph unicode="_" horiz-adv-x="1064" d="M27 -113h1011v-211h-1011v211z" />
<glyph unicode="`" horiz-adv-x="659" d="M61 1475l106 204l431 -256l-76 -133z" />
<glyph unicode="a" horiz-adv-x="1118" d="M72 303q0 176 128 269.5t365 93.5h135v61q0 104 -48 146t-154 42q-119 0 -287 -57l-61 178q203 78 393 78q416 0 415 -373v-454q0 -64 19.5 -93.5t62.5 -46.5l-55 -174q-92 8 -150.5 45t-89.5 113q-55 -82 -138 -122t-185 -40q-162 0 -256 92.5t-94 241.5zM338 324 q0 -78 39 -121t115 -43q132 0 208 133v219h-108q-254 0 -254 -188z" />
<glyph unicode="b" horiz-adv-x="1220" d="M158 0v1518l262 28v-585q53 74 130 113.5t169 39.5q188 0 294.5 -150.5t106.5 -420.5q0 -168 -52 -298t-148.5 -203t-227.5 -73q-88 0 -160.5 37t-125.5 105l-17 -111h-231zM420 291q35 -59 87 -92t114 -33q106 0 165.5 91t59.5 286q0 205 -55.5 290t-155.5 85 q-125 0 -215 -148v-479z" />
<glyph unicode="c" horiz-adv-x="978" d="M88 532q0 172 61.5 304.5t176 205t268.5 72.5q106 0 191 -30.5t161 -96.5l-117 -158q-55 41 -106 59.5t-113 18.5q-243 0 -243 -367q0 -191 63.5 -274.5t179.5 -83.5q57 0 105.5 18.5t113.5 59.5l117 -166q-154 -125 -350 -125q-156 0 -270.5 68.5t-176 195.5t-61.5 299z " />
<glyph unicode="d" horiz-adv-x="1226" d="M98 541q0 166 53.5 296t152.5 203.5t231 73.5q156 0 272 -117v549l262 -28v-1518h-231l-19 137q-51 -78 -130 -123t-179 -45q-199 0 -305.5 153.5t-106.5 418.5zM375 543q0 -201 53 -288t156 -87q69 0 122.5 34t100.5 105v496q-47 57 -95 86t-112 29q-104 0 -164.5 -93.5 t-60.5 -281.5z" />
<glyph unicode="e" horiz-adv-x="1124" d="M88 535q0 166 57.5 298t166 206.5t257.5 74.5q227 0 352.5 -144.5t125.5 -402.5q-1 -20 -7 -106h-680q12 -158 82 -225.5t185 -67.5q72 0 135 23.5t135 72.5l109 -149q-180 -145 -402 -146q-248 0 -382 151.5t-134 414.5zM360 631h426v12q0 285 -211 285q-96 0 -150 -71 t-65 -226z" />
<glyph unicode="f" horiz-adv-x="710" d="M12 895v188h176v119q0 154 99.5 249t281.5 95q143 0 281 -63l-76 -176q-88 41 -178 41q-78 0 -111.5 -36t-33.5 -114v-115h260l-29 -188h-231v-895h-263v895h-176z" />
<glyph unicode="g" horiz-adv-x="1099" d="M31 -106h235q0 -57 21.5 -90t78 -49.5t162.5 -16.5q150 0 211.5 37t61.5 106q0 61 -47 95t-138 34h-163q-154 0 -232 59.5t-78 149.5q0 57 34 110.5t93 90.5q-98 51 -144 126t-46 179q0 117 57.5 205t158.5 136t232 48h40q145 0 238 26q105 29 228 95l66 -209 q-104 -37 -314 -37q100 -45 148.5 -111.5t48.5 -166.5q0 -106 -52 -188.5t-151.5 -129.5t-232.5 -47q-74 0 -129 16q-45 -31 -45 -79q0 -76 131 -76h166q119 0 208 -39t138 -109.5t49 -158.5q0 -164 -139.5 -255t-401.5 -91q-188 0 -295.5 38.5t-152.5 112.5t-45 189z M344 729q0 -98 51 -155.5t142 -57.5q94 0 143 56.5t49 158.5q0 205 -197 205q-88 0 -138 -56.5t-50 -150.5z" />
<glyph unicode="h" horiz-adv-x="1189" d="M158 0v1516l262 26v-588q131 160 315 160q144 0 225.5 -88t81.5 -242v-784h-262v743q0 96 -33.5 135.5t-99.5 39.5t-121 -42t-106 -120v-756h-262z" />
<glyph unicode="i" horiz-adv-x="577" d="M123 1473q0 68 46 113.5t118 45.5q73 0 119.5 -46t46.5 -113q0 -68 -46.5 -113t-119.5 -45q-72 0 -118 45t-46 113zM158 0v1083h262v-1083h-262z" />
<glyph unicode="j" horiz-adv-x="575" d="M-61 -254q80 37 125 73t68.5 97t23.5 164v1003h262v-987q0 -160 -46 -261t-130 -162.5t-219 -116.5zM121 1473q0 68 46 113.5t118 45.5q73 0 119.5 -46t46.5 -113q0 -68 -46.5 -113t-119.5 -45q-72 0 -118 45t-46 113z" />
<glyph unicode="k" horiz-adv-x="1093" d="M158 0v1518l262 28v-1546h-262zM430 592l363 491h276l-360 -477l395 -606h-301z" />
<glyph unicode="l" horiz-adv-x="604" d="M147 248v1270l263 28v-1290q0 -76 61 -76q31 0 61 10l56 -184q-82 -37 -174 -37q-125 0 -196 73t-71 206z" />
<glyph unicode="m" horiz-adv-x="1740" d="M158 0v1083h227l21 -141q123 172 313 172q94 0 162.5 -48t99.5 -134q66 88 144.5 135t181.5 47q131 0 208.5 -89t77.5 -241v-784h-262v743q0 174 -119 175q-63 0 -109 -40t-95 -124v-754h-263v743q0 174 -118 175q-66 0 -112 -40t-95 -124v-754h-262z" />
<glyph unicode="n" horiz-adv-x="1189" d="M158 0v1083h227l21 -141q133 172 329 172q146 0 226.5 -87t80.5 -243v-784h-262v743q0 96 -33.5 135.5t-99.5 39.5q-68 0 -122 -42t-105 -122v-754h-262z" />
<glyph unicode="o" horiz-adv-x="1196" d="M88 543q0 170 61.5 299t177 200.5t273.5 71.5q240 0 374 -152.5t134 -418.5q0 -170 -61.5 -300t-176 -202t-272.5 -72q-240 0 -375 152.5t-135 421.5zM365 543q0 -193 58 -284t175 -91t175 92t58 283q0 190 -58 281t-173 91h-1q-234 0 -234 -372z" />
<glyph unicode="p" horiz-adv-x="1220" d="M158 -446v1529h229l14 -133q63 82 145.5 123t172.5 41q205 0 303 -149.5t98 -419.5q0 -168 -50 -298t-147.5 -204t-230.5 -74q-172 0 -272 119v-506zM420 283q76 -113 198 -113q228 0 228 373q0 199 -51.5 287t-153.5 88q-66 0 -123 -40t-98 -108v-487z" />
<glyph unicode="q" horiz-adv-x="1226" d="M98 541q0 166 53.5 296t152.5 203.5t231 73.5q172 0 292 -137l15 106h227v-1529l-262 28v541q-113 -154 -297 -154q-199 0 -305.5 153.5t-106.5 418.5zM375 543q0 -201 53 -288t156 -87q69 0 122.5 34t100.5 105v496q-47 57 -95 86t-110 29q-106 0 -166.5 -93.5 t-60.5 -281.5z" />
<glyph unicode="r" horiz-adv-x="806" d="M158 0v1083h227l25 -213q39 117 112.5 179.5t169.5 62.5q60 0 109 -14l-45 -254q-49 12 -97 12q-96 0 -151 -68.5t-88 -209.5v-578h-262z" />
<glyph unicode="s" horiz-adv-x="974" d="M31 123l131 147q141 -106 295 -106q88 0 140 34.5t52 96.5q0 47 -19.5 74.5t-69.5 49t-157 52.5q-166 45 -243.5 126t-77.5 202q0 90 52 161.5t147.5 112.5t218.5 41q219 0 385 -129l-103 -154q-139 88 -272 89q-78 0 -121 -30t-43 -79q0 -37 18.5 -61.5t66.5 -46 t142 -48.5q176 -47 261.5 -124.5t85.5 -217.5q0 -162 -131.5 -253t-325.5 -91q-133 0 -242.5 41t-189.5 113z" />
<glyph unicode="t" horiz-adv-x="768" d="M10 895v188h170v240l262 31v-271h252l-26 -188h-226v-565q0 -80 28 -115t87 -35t129 39l92 -168q-57 -41 -127.5 -61.5t-144.5 -20.5q-160 2 -243 91.5t-83 263.5v571h-170z" />
<glyph unicode="u" horiz-adv-x="1181" d="M147 305v778h263v-745q0 -92 31.5 -131t101.5 -39q125 0 219 154v761h262v-1083h-227l-15 152q-59 -92 -140 -137.5t-191 -45.5q-145 0 -224.5 89t-79.5 247z" />
<glyph unicode="v" horiz-adv-x="1032" d="M4 1083h285l231 -872l238 872h270l-352 -1083h-314z" />
<glyph unicode="w" horiz-adv-x="1503" d="M25 1083h262l151 -890l189 890h268l172 -890l162 890h252l-236 -1083h-327l-164 850l-168 -850h-322z" />
<glyph unicode="x" horiz-adv-x="1024" d="M-6 0l360 571l-323 512h299l184 -368l182 368h285l-313 -503l362 -580h-303l-223 430l-221 -430h-289z" />
<glyph unicode="y" horiz-adv-x="1036" d="M4 1083h279l235 -909l246 909h270l-352 -1087q-66 -201 -199 -312.5t-364 -129.5l-27 190q106 16 171 46t104 79t71 131h-90z" />
<glyph unicode="z" horiz-adv-x="919" d="M37 0v188l526 691h-481v204h780v-188l-524 -690h534l-26 -205h-809z" />
<glyph unicode="{" horiz-adv-x="661" d="M35 608v215q78 0 107.5 37t29.5 127v408q0 115 38 184.5t128 103t252 33.5v-188q-96 0 -134 -30t-38 -101v-430q0 -119 -45 -172.5t-142 -79.5q96 -25 141.5 -78t45.5 -170v-430q0 -72 39 -101.5t133 -29.5v-189q-160 0 -251 35t-129 104.5t-38 182.5v407q0 90 -29.5 126 t-107.5 36z" />
<glyph unicode="|" horiz-adv-x="794" d="M276 -213v1870h242v-1870h-242z" />
<glyph unicode="}" horiz-adv-x="661" d="M72 -94q94 0 133 29.5t39 101.5v430q0 117 45 170t141 78q-96 27 -141 80t-45 172v430q0 72 -38 101.5t-134 29.5v188q161 0 251.5 -33.5t128 -103.5t37.5 -184v-408q0 -90 30 -127t110 -37v-215q-80 0 -110 -35.5t-30 -126.5v-407q0 -113 -37.5 -182.5t-129 -104.5 t-250.5 -35v189z" />
<glyph unicode="~" horiz-adv-x="1028" d="M51 584q117 231 307 231q63 0 110.5 -19.5t102.5 -54.5q39 -25 66 -37t55 -12q45 0 78 25.5t66 73.5l141 -76q-111 -223 -301 -223q-66 0 -114 19t-105 56q-39 25 -64.5 37t-52.5 12q-47 0 -79 -27.5t-64 -78.5z" />
<glyph unicode="&#xa1;" horiz-adv-x="493" d="M80 864q0 68 49 117t119 49q67 0 115.5 -49t48.5 -117q0 -70 -47.5 -118t-116.5 -48q-70 0 -119 48.5t-49 117.5zM106 -422l33 916h217l33 -916h-283z" />
<glyph unicode="&#xa2;" horiz-adv-x="978" d="M88 532q0 231 107.5 385t296.5 189v303h200v-301q139 -25 254 -121l-117 -158q-55 41 -106 59.5t-113 18.5q-244 0 -243 -370q0 -188 63.5 -271.5t179.5 -83.5q57 0 105.5 18.5t113.5 59.5l117 -166q-111 -92 -254 -117v-301h-203v301q-188 35 -294.5 181.5t-106.5 373.5 z" />
<glyph unicode="&#xa3;" horiz-adv-x="1087" d="M68 0v195q74 25 109.5 55.5t48 75.5t12.5 125v196h-138v148h138v202q0 180 108.5 293t304.5 113q127 0 223.5 -46t172.5 -143l-164 -122q-45 57 -94.5 82.5t-114.5 25.5q-88 0 -133 -52t-45 -151v-202h399v-148h-399v-188q0 -99 -27 -156t-102 -98h641l-31 -205h-909z " />
<glyph unicode="&#xa4;" horiz-adv-x="1146" d="M47 299l158 158q-70 104 -70 241q0 133 68 242l-156 162l129 129l160 -162q104 66 235 66q139 0 244 -64l160 160l127 -129l-156 -158q72 -106 72 -246q0 -139 -72 -245l156 -154l-129 -129l-160 156q-104 -63 -242 -64q-129 0 -237 66l-162 -158zM354 700 q0 -119 56.5 -185t164.5 -66q109 0 166.5 65.5t57.5 185.5q0 119 -57.5 184.5t-166.5 65.5t-165 -65.5t-56 -184.5z" />
<glyph unicode="&#xa5;" horiz-adv-x="1134" d="M-4 1378h283l294 -590l291 590h273l-375 -663h215v-150h-279v-164h279v-147h-279v-254h-262v254h-276v147h276v164h-276v150h213z" />
<glyph unicode="&#xa6;" horiz-adv-x="794" d="M276 -213v750h242v-750h-242zM276 907v750h242v-750h-242z" />
<glyph unicode="&#xa7;" horiz-adv-x="1110" d="M123 623q0 78 44 142t118 107q-57 41 -84 92.5t-27 122.5q0 141 113.5 226.5t300.5 85.5q215 0 375 -113l-91 -153q-131 80 -274 79q-84 0 -128 -29.5t-44 -82.5q0 -41 18.5 -67.5t69.5 -52.5t156 -58q164 -53 240.5 -123t76.5 -185q0 -78 -43 -141t-115 -108 q58 -43 84.5 -92.5t26.5 -118.5q0 -141 -117.5 -227.5t-312.5 -86.5q-209 0 -371 109l90 160q125 -78 275 -78q84 0 133 28.5t49 79.5q0 43 -18.5 68.5t-69.5 50.5t-160 59q-164 51 -239.5 118t-75.5 188zM360 659q0 -63 37 -96t140 -67l147 -56q33 33 50.5 70t17.5 70 q0 41 -17.5 69.5t-62.5 52t-131 54.5q-57 18 -119 43q-29 -33 -45.5 -71t-16.5 -69z" />
<glyph unicode="&#xa8;" horiz-adv-x="864" d="M59 1466q0 59 42 100.5t104 41.5q59 0 100 -41t41 -101q0 -59 -41 -100t-100 -41q-61 0 -103.5 41t-42.5 100zM514 1466q0 59 42 100.5t101 41.5q62 0 103 -41t41 -101q0 -59 -41 -100t-103 -41q-59 0 -101 41t-42 100z" />
<glyph unicode="&#xa9;" horiz-adv-x="1658" d="M160 887q0 190 90 342.5t243.5 237.5t337.5 85q185 0 337.5 -85t241.5 -237.5t89 -342.5t-89 -342t-241.5 -237t-337.5 -85q-184 0 -337.5 85t-243.5 236.5t-90 342.5zM319 887q0 -154 67 -273.5t183.5 -185.5t261.5 -66t261 66t182.5 185.5t66.5 273.5t-66.5 274.5 t-183 187t-260.5 66.5q-145 0 -261.5 -66.5t-183.5 -187.5t-67 -274zM487 889q0 123 46.5 213t125 137t177.5 47q143 0 254 -94l-86 -113q-37 29 -73 41.5t-79 12.5q-76 0 -122 -59.5t-46 -184.5q0 -123 44 -182.5t122 -59.5q49 0 88 15.5t80 48.5l80 -117 q-113 -102 -260 -102q-160 0 -255.5 104t-95.5 293z" />
<glyph unicode="&#xaa;" horiz-adv-x="1024" d="M113 803q0 133 104.5 204.5t298.5 71.5h94v35q0 72 -33.5 98.5t-117.5 26.5q-98 0 -228 -43l-57 160q166 59 324 59q182 0 267 -72.5t85 -216.5v-315q0 -47 14.5 -68.5t46.5 -31.5l-51 -160q-76 6 -125 32.5t-80 82.5q-86 -119 -260 -119q-129 0 -205.5 71.5t-76.5 184.5 zM125 0v209h807v-209h-807zM360 819q0 -47 28 -72.5t79 -25.5q90 0 143 76v145h-69q-180 0 -181 -123z" />
<glyph unicode="&#xab;" horiz-adv-x="1236" d="M92 500v170l375 450l160 -108l-271 -426l271 -428l-160 -107zM610 500v170l375 450l160 -108l-271 -426l271 -428l-160 -107z" />
<glyph unicode="&#xac;" horiz-adv-x="1058" d="M113 563v209h833v-514h-223v305h-610z" />
<glyph unicode="&#xad;" horiz-adv-x="829" d="M106 537v208h619v-208h-619z" />
<glyph unicode="&#xae;" horiz-adv-x="1308" d="M111 999q0 152 71.5 278t196.5 197.5t274 71.5q154 0 278 -71.5t195.5 -196.5t71.5 -279q0 -152 -70.5 -275.5t-195.5 -194t-279 -70.5q-152 0 -275.5 70.5t-195 194.5t-71.5 275zM250 999q0 -123 52 -218t143.5 -148t207.5 -53q119 0 211 53t143.5 148.5t51.5 217.5 q0 125 -51.5 221.5t-143.5 150.5t-211 54q-115 0 -207 -54t-144 -150.5t-52 -221.5zM453 727v571h165q262 0 263 -176q0 -57 -34 -97t-91 -60l151 -238h-153l-121 213h-47v-213h-133zM586 1047h59q100 0 100 77q0 74 -102 74h-57v-151z" />
<glyph unicode="&#xaf;" horiz-adv-x="718" d="M62 1354v186h596v-186h-596z" />
<glyph unicode="&#xb0;" horiz-adv-x="1069" d="M96 1108q0 102 50.5 179t130 118t169.5 41q92 0 173 -41t130.5 -118t49.5 -181q0 -102 -50.5 -179t-131 -118t-171.5 -41q-88 0 -168.5 41t-131 119t-50.5 180zM289 1108q0 -84 44 -132t113 -48q70 0 115 47t45 131t-45 132t-115 48t-113.5 -47t-43.5 -131z" />
<glyph unicode="&#xb1;" horiz-adv-x="1058" d="M115 677v207h303v314h225v-314h305v-207h-305v-313h-225v313h-303zM119 0v209h821v-209h-821z" />
<glyph unicode="&#xb2;" horiz-adv-x="819" d="M92 1384q119 150 307 150q144 0 226 -72t82 -180q0 -68 -31 -128.5t-105.5 -138t-218.5 -200.5h373l-20 -158h-582v145q164 154 237.5 231t104.5 128t31 102q0 53 -32 83t-85 30q-49 0 -87 -20.5t-79 -67.5z" />
<glyph unicode="&#xb3;" horiz-adv-x="819" d="M84 766l115 108q41 -43 84 -62.5t96 -19.5q66 0 104.5 32t38.5 91q0 63 -38 92t-111 29h-74l25 139h49q61 0 96 28.5t35 80.5q0 47 -33 72.5t-88 25.5q-90 0 -176 -74l-103 109q125 117 302 117q141 0 220 -62.5t79 -159.5q0 -76 -48.5 -128t-136.5 -72 q96 -8 155.5 -60.5t59.5 -148.5q0 -115 -92 -192t-252 -77q-193 0 -307 132z" />
<glyph unicode="&#xb4;" horiz-adv-x="659" d="M61 1423l430 256l107 -204l-463 -185z" />
<glyph unicode="&#xb5;" horiz-adv-x="1198" d="M158 -444v1527h262v-751q0 -152 129 -152q131 0 215 160v743h262v-712q0 -205 51 -371l-241 -31q-20 47 -30.5 86t-19.5 101q-45 -78 -108.5 -127t-138.5 -49q-66 0 -110 21.5t-79 72.5q31 -70 45.5 -131.5t14.5 -157.5v-203z" />
<glyph unicode="&#xb6;" horiz-adv-x="1562" d="M156 987q0 203 139 315.5t385 112.5h625v-1831l-232 -33v1674h-209v-1641l-231 -33v1006q-236 8 -356.5 125t-120.5 305z" />
<glyph unicode="&#xb7;" horiz-adv-x="491" d="M80 633q0 70 47 118t117 48q69 0 118.5 -48.5t49.5 -117.5q0 -68 -49.5 -117t-118.5 -49q-68 0 -116 49t-48 117z" />
<glyph unicode="&#xb8;" horiz-adv-x="614" d="M61 -461l64 129q61 -33 129 -33q100 0 100 70q0 41 -44 59.5t-142 18.5l30 250h152v-139q102 -10 152.5 -60.5t50.5 -128.5q0 -102 -78 -162.5t-203 -60.5q-63 0 -118.5 15.5t-92.5 41.5z" />
<glyph unicode="&#xb9;" horiz-adv-x="819" d="M104 1339l304 176h182v-858h-201v662l-194 -117z" />
<glyph unicode="&#xba;" horiz-adv-x="1024" d="M92 983q0 197 113.5 314.5t308.5 117.5q197 0 307.5 -114.5t110.5 -319.5q0 -197 -111.5 -315.5t-308.5 -118.5t-308.5 115.5t-111.5 320.5zM102 0v209h822v-209h-822zM344 983q0 -133 42 -195.5t126 -62.5q86 0 127 62.5t41 193.5q0 133 -41 194.5t-125 61.5 q-86 0 -128 -61.5t-42 -192.5z" />
<glyph unicode="&#xbb;" horiz-adv-x="1224" d="M92 158l268 428l-268 426l160 108l375 -450v-170l-375 -449zM600 158l268 428l-268 426l160 108l375 -450v-170l-375 -449z" />
<glyph unicode="&#xbc;" horiz-adv-x="1949" d="M104 1239l304 176h182v-858h-201v662l-194 -117zM477 -90l838 1636l157 -78l-837 -1636zM1196 184v138l256 555l172 -64l-218 -477h179l30 203h164v-203h103v-152h-103v-184h-194l-2 184h-387z" />
<glyph unicode="&#xbd;" horiz-adv-x="1949" d="M104 1239l304 176h182v-858h-201v662l-194 -117zM477 -90l838 1636l157 -78l-837 -1636zM1222 727q119 150 307 150q144 0 226 -72t82 -180q0 -68 -31 -128.5t-105.5 -138t-218.5 -200.5h373l-20 -158h-582v145q164 154 237.5 231t104.5 128t31 102q0 53 -32 83t-85 30 q-49 0 -87 -20.5t-79 -67.5z" />
<glyph unicode="&#xbe;" horiz-adv-x="1949" d="M84 666l115 108q41 -43 84 -62.5t96 -19.5q66 0 104.5 32t38.5 91q0 63 -38 92t-111 29h-74l25 139h49q61 0 96 29t35 80q0 47 -33 72.5t-88 25.5q-90 0 -176 -74l-103 109q125 117 302 117q141 0 220 -62.5t79 -159.5q0 -76 -48.5 -128t-136.5 -72q96 -8 155.5 -60.5 t59.5 -148.5q0 -115 -92 -191.5t-252 -76.5q-193 0 -307 131zM477 -90l838 1636l157 -78l-837 -1636zM1196 184v138l256 555l172 -64l-218 -477h179l30 203h164v-203h103v-152h-103v-184h-194l-2 184h-387z" />
<glyph unicode="&#xbf;" horiz-adv-x="964" d="M45 -117q0 82 28.5 140.5t68.5 94.5t108 83q84 55 124 101t40 120v72h245v-82q0 -92 -29.5 -154.5t-70.5 -100.5t-106 -81q-70 -45 -103 -81t-33 -91q0 -68 46.5 -106t125.5 -38q145 0 261 136l172 -134q-182 -211 -455 -211q-135 0 -230.5 45.5t-143.5 121t-48 165.5z M367 864q0 68 48 117t117 49q68 0 116 -49t48 -117q0 -70 -47 -118t-117 -48q-69 0 -117 48.5t-48 117.5z" />
<glyph unicode="&#xc0;" horiz-adv-x="1193" d="M-10 0l440 1415h334l438 -1415h-287l-88 328h-469l-88 -328h-280zM317 1712l102 205l435 -240l-68 -135zM412 532h360l-180 676z" />
<glyph unicode="&#xc1;" horiz-adv-x="1193" d="M-10 0l440 1415h334l438 -1415h-287l-88 328h-469l-88 -328h-280zM330 1677l434 240l103 -205l-469 -170zM412 532h360l-180 676z" />
<glyph unicode="&#xc2;" horiz-adv-x="1193" d="M-10 0l440 1415h334l438 -1415h-287l-88 328h-469l-88 -328h-280zM229 1663l285 248h164l285 -248l-101 -113l-266 168l-266 -168zM412 532h360l-180 676z" />
<glyph unicode="&#xc3;" horiz-adv-x="1193" d="M-10 0l440 1415h334l438 -1415h-287l-88 328h-469l-88 -328h-280zM231 1651q41 96 102.5 154.5t143.5 58.5q45 0 77 -14.5t75 -41.5q27 -20 46 -29.5t40 -9.5q31 0 55.5 20.5t52.5 68.5l140 -70q-41 -98 -104.5 -154.5t-141.5 -56.5q-43 0 -75 15.5t-73 41.5 q-31 20 -49 29.5t-39 9.5q-35 0 -58.5 -21.5t-49.5 -70.5zM412 532h360l-180 676z" />
<glyph unicode="&#xc4;" horiz-adv-x="1193" d="M-10 0l440 1415h334l438 -1415h-287l-88 328h-469l-88 -328h-280zM225 1724q0 59 42 100.5t104 41.5q59 0 100 -41t41 -101q0 -59 -41 -100t-100 -41q-61 0 -103.5 41t-42.5 100zM412 532h360l-180 676zM680 1724q0 59 42 100.5t101 41.5q62 0 103 -41t41 -101 q0 -59 -41 -100t-103 -41q-59 0 -101 41t-42 100z" />
<glyph unicode="&#xc5;" horiz-adv-x="1193" d="M-10 0l440 1415h334l438 -1415h-287l-88 328h-469l-88 -328h-280zM336 1759q0 104 73 175t189 71q117 0 189 -70.5t72 -175.5q0 -102 -73 -174t-188 -72q-117 0 -189.5 72t-72.5 174zM412 532h360l-180 676zM498 1759q0 -51 26.5 -78.5t73.5 -27.5q45 0 72 27.5t27 78.5 t-26.5 80t-72.5 29q-47 0 -73.5 -29t-26.5 -80z" />
<glyph unicode="&#xc6;" horiz-adv-x="1703" d="M-37 0l559 1415h1016l-31 -201h-589l90 -397h512v-201h-467l94 -413h471v-203h-694l-66 328h-491l-117 -328h-287zM438 532h379l-137 678z" />
<glyph unicode="&#xc7;" horiz-adv-x="1163" d="M88 711q0 231 81 397t221 252t317 86q129 0 225 -37t188 -113l-137 -159q-125 100 -262 100q-158 0 -253 -127t-95 -399q0 -266 94 -395.5t254 -129.5q84 0 149.5 30t139.5 85l127 -160q-64 -63 -155 -109t-204 -59v-79q102 -10 152.5 -60.5t50.5 -128.5 q0 -102 -78 -162.5t-203 -60.5q-63 0 -118.5 15.5t-92.5 41.5l64 129q61 -33 129 -33q100 0 100 70q0 41 -44 59.5t-142 18.5l25 192q-244 31 -388.5 221.5t-144.5 514.5z" />
<glyph unicode="&#xc8;" horiz-adv-x="1085" d="M166 0v1415h821l-29 -201h-522v-395h455v-201h-455v-415h559v-203h-829zM301 1712l102 205l435 -240l-68 -135z" />
<glyph unicode="&#xc9;" horiz-adv-x="1085" d="M166 0v1415h821l-29 -201h-522v-395h455v-201h-455v-415h559v-203h-829zM313 1677l434 240l103 -205l-469 -170z" />
<glyph unicode="&#xca;" horiz-adv-x="1085" d="M166 0v1415h821l-29 -201h-522v-395h455v-201h-455v-415h559v-203h-829zM213 1663l285 248h164l285 -248l-101 -113l-266 168l-266 -168z" />
<glyph unicode="&#xcb;" horiz-adv-x="1085" d="M166 0v1415h821l-29 -201h-522v-395h455v-201h-455v-415h559v-203h-829zM209 1724q0 59 42 100.5t104 41.5q59 0 100 -41t41 -101q0 -59 -41 -100t-100 -41q-61 0 -103.5 41t-42.5 100zM664 1724q0 59 42 100.5t101 41.5q62 0 103 -41t41 -101q0 -59 -41 -100t-103 -41 q-59 0 -101 41t-42 100z" />
<glyph unicode="&#xcc;" horiz-adv-x="602" d="M20 1712l102 205l435 -240l-68 -135zM166 0v1415h270v-1415h-270z" />
<glyph unicode="&#xcd;" horiz-adv-x="602" d="M33 1677l434 240l103 -205l-469 -170zM166 0v1415h270v-1415h-270z" />
<glyph unicode="&#xce;" horiz-adv-x="602" d="M-68 1663l285 248h164l285 -248l-101 -113l-266 168l-266 -168zM166 0v1415h270v-1415h-270z" />
<glyph unicode="&#xcf;" horiz-adv-x="602" d="M-72 1724q0 59 42 100.5t104 41.5q59 0 100 -41t41 -101q0 -59 -41 -100t-100 -41q-61 0 -103.5 41t-42.5 100zM166 0v1415h270v-1415h-270zM383 1724q0 59 42 100.5t101 41.5q62 0 103 -41t41 -101q0 -59 -41 -100t-103 -41q-59 0 -101 41t-42 100z" />
<glyph unicode="&#xd0;" horiz-adv-x="1353" d="M35 635v176h158v604h348q329 0 527 -149.5t198 -550.5q0 -393 -194.5 -554t-493.5 -161h-385v635h-158zM463 203h133q180 0 282.5 111.5t102.5 400.5q0 201 -52 310.5t-137 148t-204 38.5h-125v-401h297v-176h-297v-432z" />
<glyph unicode="&#xd1;" horiz-adv-x="1376" d="M166 0v1415h342l493 -1147q-12 82 -24 216t-12 268v663h245v-1415h-350l-485 1145q18 -152 27.5 -274.5t9.5 -292.5v-578h-246zM337 1651q41 96 102.5 154.5t143.5 58.5q45 0 77 -14.5t75 -41.5q27 -20 46 -29.5t40 -9.5q31 0 55.5 20.5t52.5 68.5l140 -70 q-41 -98 -104.5 -154.5t-141.5 -56.5q-43 0 -75 15.5t-73 41.5q-31 20 -49 29.5t-39 9.5q-35 0 -58.5 -21.5t-49.5 -70.5z" />
<glyph unicode="&#xd2;" d="M88 707q0 229 76 396t216 255t329 88q190 0 329.5 -86t214 -252t74.5 -399q0 -231 -75.5 -397.5t-215 -254.5t-327.5 -88q-190 0 -329.5 86t-215.5 252t-76 400zM373 707q0 -530 336 -531q164 0 248.5 127t84.5 406q0 276 -85 403t-248 127q-164 0 -250 -128t-86 -404z M428 1712l102 205l435 -240l-68 -135z" />
<glyph unicode="&#xd3;" d="M88 707q0 229 76 396t216 255t329 88q190 0 329.5 -86t214 -252t74.5 -399q0 -231 -75.5 -397.5t-215 -254.5t-327.5 -88q-190 0 -329.5 86t-215.5 252t-76 400zM373 707q0 -530 336 -531q164 0 248.5 127t84.5 406q0 276 -85 403t-248 127q-164 0 -250 -128t-86 -404z M440 1677l434 240l103 -205l-469 -170z" />
<glyph unicode="&#xd4;" d="M88 707q0 229 76 396t216 255t329 88q190 0 329.5 -86t214 -252t74.5 -399q0 -231 -75.5 -397.5t-215 -254.5t-327.5 -88q-190 0 -329.5 86t-215.5 252t-76 400zM340 1663l285 248h164l285 -248l-101 -113l-266 168l-266 -168zM373 707q0 -530 336 -531q164 0 248.5 127 t84.5 406q0 276 -85 403t-248 127q-164 0 -250 -128t-86 -404z" />
<glyph unicode="&#xd5;" d="M88 707q0 229 76 396t216 255t329 88q190 0 329.5 -86t214 -252t74.5 -399q0 -231 -75.5 -397.5t-215 -254.5t-327.5 -88q-190 0 -329.5 86t-215.5 252t-76 400zM342 1651q41 96 102.5 154.5t143.5 58.5q45 0 77 -14.5t75 -41.5q27 -20 46 -29.5t40 -9.5q31 0 55.5 20.5 t52.5 68.5l140 -70q-41 -98 -104.5 -154.5t-141.5 -56.5q-43 0 -75 15.5t-73 41.5q-31 20 -49 29.5t-39 9.5q-35 0 -58.5 -21.5t-49.5 -70.5zM373 707q0 -530 336 -531q164 0 248.5 127t84.5 406q0 276 -85 403t-248 127q-164 0 -250 -128t-86 -404z" />
<glyph unicode="&#xd6;" d="M88 707q0 229 76 396t216 255t329 88q190 0 329.5 -86t214 -252t74.5 -399q0 -231 -75.5 -397.5t-215 -254.5t-327.5 -88q-190 0 -329.5 86t-215.5 252t-76 400zM336 1724q0 59 42 100.5t104 41.5q59 0 100 -41t41 -101q0 -59 -41 -100t-100 -41q-61 0 -103.5 41 t-42.5 100zM373 707q0 -530 336 -531q164 0 248.5 127t84.5 406q0 276 -85 403t-248 127q-164 0 -250 -128t-86 -404zM791 1724q0 59 42 100.5t101 41.5q62 0 103 -41t41 -101q0 -59 -41 -100t-103 -41q-59 0 -101 41t-42 100z" />
<glyph unicode="&#xd7;" horiz-adv-x="1044" d="M129 385l242 238l-242 249l150 150l239 -252l248 252l149 -150l-241 -239l241 -248l-149 -149l-240 249l-247 -249z" />
<glyph unicode="&#xd8;" d="M88 707q0 229 76 396t216 255t329 88q66 0 114 -8l76 250l213 -58l-84 -264q143 -84 221 -252t78 -405q0 -231 -75.5 -397.5t-215 -254.5t-327.5 -88q-53 0 -119 11l-74 -248l-211 55l84 262q-145 86 -223 253t-78 405zM373 707q0 -340 119 -455l294 981q-37 6 -77 6 q-164 0 -250 -128t-86 -404zM629 182q37 -6 80 -6q163 0 248 127t85 406q0 180 -29.5 291.5t-90.5 166.5z" />
<glyph unicode="&#xd9;" horiz-adv-x="1343" d="M145 463v952h271v-938q0 -150 62.5 -223.5t191.5 -73.5q131 0 193.5 74t62.5 223v938h272v-952q0 -143 -60.5 -255t-180 -175.5t-287.5 -63.5q-254 0 -389.5 134.5t-135.5 359.5zM391 1712l102 205l435 -240l-68 -135z" />
<glyph unicode="&#xda;" horiz-adv-x="1343" d="M145 463v952h271v-938q0 -150 62.5 -223.5t191.5 -73.5q131 0 193.5 74t62.5 223v938h272v-952q0 -143 -60.5 -255t-180 -175.5t-287.5 -63.5q-254 0 -389.5 134.5t-135.5 359.5zM403 1677l434 240l103 -205l-469 -170z" />
<glyph unicode="&#xdb;" horiz-adv-x="1343" d="M145 463v952h271v-938q0 -150 62.5 -223.5t191.5 -73.5q131 0 193.5 74t62.5 223v938h272v-952q0 -143 -60.5 -255t-180 -175.5t-287.5 -63.5q-254 0 -389.5 134.5t-135.5 359.5zM303 1663l285 248h164l285 -248l-101 -113l-266 168l-266 -168z" />
<glyph unicode="&#xdc;" horiz-adv-x="1343" d="M145 463v952h271v-938q0 -150 62.5 -223.5t191.5 -73.5q131 0 193.5 74t62.5 223v938h272v-952q0 -143 -60.5 -255t-180 -175.5t-287.5 -63.5q-254 0 -389.5 134.5t-135.5 359.5zM299 1724q0 59 42 100.5t104 41.5q59 0 100 -41t41 -101q0 -59 -41 -100t-100 -41 q-61 0 -103.5 41t-42.5 100zM754 1724q0 59 42 100.5t101 41.5q62 0 103 -41t41 -101q0 -59 -41 -100t-103 -41q-59 0 -101 41t-42 100z" />
<glyph unicode="&#xdd;" horiz-adv-x="1175" d="M-4 1415h299l299 -657l299 657h287l-455 -878v-537h-274v535zM320 1677l434 240l103 -205l-469 -170z" />
<glyph unicode="&#xde;" horiz-adv-x="1210" d="M166 0v1415h270v-231h148q274 0 423.5 -114t149.5 -343q0 -242 -151.5 -361.5t-403.5 -119.5h-166v-246h-270zM436 449h146q145 0 218.5 62t73.5 216q0 135 -74.5 196.5t-217.5 61.5h-146v-536z" />
<glyph unicode="&#xdf;" horiz-adv-x="1228" d="M158 0v1098q0 213 116.5 330.5t333.5 117.5q123 0 213 -40t138.5 -108.5t48.5 -152.5q0 -80 -33 -128t-96 -105q-45 -39 -66.5 -68t-21.5 -65q0 -45 32.5 -78t102.5 -80q76 -53 125 -97t84.5 -116t35.5 -172q0 -111 -52 -195t-142 -128t-197 -44q-129 0 -227 51l78 181 q47 -27 119 -27q70 0 110.5 43t40.5 123q0 55 -22.5 98t-54 72t-91.5 74q-88 63 -132 117.5t-44 142.5q0 72 26.5 113.5t80.5 91.5q47 43 70.5 78.5t23.5 91.5q0 63 -43 99t-111 36q-184 0 -184 -252v-1102h-262z" />
<glyph unicode="&#xe0;" horiz-adv-x="1118" d="M72 303q0 176 128 269.5t365 93.5h135v61q0 104 -48 146t-154 42q-119 0 -287 -57l-61 178q203 78 393 78q416 0 415 -373v-454q0 -64 19.5 -93.5t62.5 -46.5l-55 -174q-92 8 -150.5 45t-89.5 113q-55 -82 -138 -122t-185 -40q-162 0 -256 92.5t-94 241.5zM297 1475 l106 204l431 -256l-76 -133zM338 324q0 -78 39 -121t115 -43q132 0 208 133v219h-108q-254 0 -254 -188z" />
<glyph unicode="&#xe1;" horiz-adv-x="1118" d="M72 303q0 176 128 269.5t365 93.5h135v61q0 104 -48 146t-154 42q-119 0 -287 -57l-61 178q203 78 393 78q416 0 415 -373v-454q0 -64 19.5 -93.5t62.5 -46.5l-55 -174q-92 8 -150.5 45t-89.5 113q-55 -82 -138 -122t-185 -40q-162 0 -256 92.5t-94 241.5zM270 1423 l430 256l107 -204l-463 -185zM338 324q0 -78 39 -121t115 -43q132 0 208 133v219h-108q-254 0 -254 -188z" />
<glyph unicode="&#xe2;" horiz-adv-x="1118" d="M72 303q0 176 128 269.5t365 93.5h135v61q0 104 -48 146t-154 42q-119 0 -287 -57l-61 178q203 78 393 78q416 0 415 -373v-454q0 -64 19.5 -93.5t62.5 -46.5l-55 -174q-92 8 -150.5 45t-89.5 113q-55 -82 -138 -122t-185 -40q-162 0 -256 92.5t-94 241.5zM178 1397 l283 258h166l285 -258l-101 -113l-266 180l-266 -180zM338 324q0 -78 39 -121t115 -43q132 0 208 133v219h-108q-254 0 -254 -188z" />
<glyph unicode="&#xe3;" horiz-adv-x="1118" d="M72 303q0 176 128 269.5t365 93.5h135v61q0 104 -48 146t-154 42q-119 0 -287 -57l-61 178q203 78 393 78q416 0 415 -373v-454q0 -64 19.5 -93.5t62.5 -46.5l-55 -174q-92 8 -150.5 45t-89.5 113q-55 -82 -138 -122t-185 -40q-162 0 -256 92.5t-94 241.5zM178 1393 q41 96 102.5 154.5t143.5 58.5q45 0 77 -14.5t75 -41.5q27 -20 46 -29.5t40 -9.5q31 0 55.5 20.5t52.5 67.5l140 -69q-41 -98 -104.5 -154.5t-141.5 -56.5q-43 0 -75 15.5t-73 41.5q-31 20 -49 29.5t-39 9.5q-35 0 -58.5 -21.5t-49.5 -70.5zM338 324q0 -78 39 -121t115 -43 q132 0 208 133v219h-108q-254 0 -254 -188z" />
<glyph unicode="&#xe4;" horiz-adv-x="1118" d="M72 303q0 176 128 269.5t365 93.5h135v61q0 104 -48 146t-154 42q-119 0 -287 -57l-61 178q203 78 393 78q416 0 415 -373v-454q0 -64 19.5 -93.5t62.5 -46.5l-55 -174q-92 8 -150.5 45t-89.5 113q-55 -82 -138 -122t-185 -40q-162 0 -256 92.5t-94 241.5zM172 1466 q0 59 42 100.5t104 41.5q59 0 100 -41t41 -101q0 -59 -41 -100t-100 -41q-61 0 -103.5 41t-42.5 100zM338 324q0 -78 39 -121t115 -43q132 0 208 133v219h-108q-254 0 -254 -188zM627 1466q0 59 42 100.5t101 41.5q62 0 103 -41t41 -101q0 -59 -41 -100t-103 -41 q-59 0 -101 41t-42 100z" />
<glyph unicode="&#xe5;" horiz-adv-x="1118" d="M72 303q0 176 128 269.5t365 93.5h135v61q0 104 -48 146t-154 42q-119 0 -287 -57l-61 178q203 78 393 78q416 0 415 -373v-454q0 -64 19.5 -93.5t62.5 -46.5l-55 -174q-92 8 -150.5 45t-89.5 113q-55 -82 -138 -122t-185 -40q-162 0 -256 92.5t-94 241.5zM282 1501 q0 104 73 175t189 71q117 0 189 -70.5t72 -175.5q0 -102 -73 -174t-188 -72q-117 0 -189.5 72t-72.5 174zM338 324q0 -78 39 -121t115 -43q132 0 208 133v219h-108q-254 0 -254 -188zM444 1501q0 -51 26.5 -78.5t73.5 -27.5q45 0 72 27.5t27 78.5t-26.5 80t-72.5 29 q-47 0 -73.5 -29t-26.5 -80z" />
<glyph unicode="&#xe6;" horiz-adv-x="1744" d="M72 303q0 176 130 269.5t371 93.5h138v61q0 102 -48.5 144t-154.5 42q-117 0 -289 -57l-59 180q203 78 391 78q229 0 330 -151q123 152 327 151q213 0 336 -145.5t123 -401.5q0 -63 -6 -106h-678q12 -158 81 -225.5t183 -67.5q72 0 135.5 22.5t135.5 73.5l110 -149 q-184 -145 -403 -146q-137 0 -241.5 49.5t-170.5 141.5q-72 -102 -167 -146.5t-218 -44.5q-164 0 -260 92.5t-96 241.5zM350 319q0 -78 39 -118.5t115 -40.5q71 0 127.5 39t107.5 118q-23 82 -26 183v8h-109q-254 0 -254 -189zM981 631h428v12q-4 285 -213 285 q-96 0 -149.5 -71t-65.5 -226z" />
<glyph unicode="&#xe7;" horiz-adv-x="978" d="M88 532q0 172 61.5 304.5t176 205t268.5 72.5q106 0 191 -30.5t161 -96.5l-117 -158q-55 41 -106 59.5t-113 18.5q-244 0 -243 -370q0 -188 63.5 -271.5t179.5 -83.5q57 0 105.5 18.5t113.5 59.5l117 -166q-133 -109 -297 -123v-77q102 -10 152.5 -60.5t50.5 -128.5 q0 -102 -78 -162.5t-203 -60.5q-63 0 -118.5 15.5t-92.5 41.5l64 129q61 -33 129 -33q100 0 100 70q0 41 -44 59.5t-142 18.5l25 194q-190 35 -297 181.5t-107 373.5z" />
<glyph unicode="&#xe8;" horiz-adv-x="1124" d="M88 535q0 166 57.5 298t166 206.5t257.5 74.5q227 0 352.5 -144.5t125.5 -402.5q-1 -20 -7 -106h-680q12 -158 82 -225.5t185 -67.5q72 0 135 23.5t135 72.5l109 -149q-180 -145 -402 -146q-248 0 -382 151.5t-134 414.5zM328 1475l106 204l431 -256l-76 -133zM360 631 h426v12q0 285 -211 285q-96 0 -150 -71t-65 -226z" />
<glyph unicode="&#xe9;" horiz-adv-x="1124" d="M88 535q0 166 57.5 298t166 206.5t257.5 74.5q227 0 352.5 -144.5t125.5 -402.5q-1 -20 -7 -106h-680q12 -158 82 -225.5t185 -67.5q72 0 135 23.5t135 72.5l109 -149q-180 -145 -402 -146q-248 0 -382 151.5t-134 414.5zM301 1423l430 256l107 -204l-463 -185zM360 631 h426v12q0 285 -211 285q-96 0 -150 -71t-65 -226z" />
<glyph unicode="&#xea;" horiz-adv-x="1124" d="M88 535q0 166 57.5 298t166 206.5t257.5 74.5q227 0 352.5 -144.5t125.5 -402.5q-1 -20 -7 -106h-680q12 -158 82 -225.5t185 -67.5q72 0 135 23.5t135 72.5l109 -149q-180 -145 -402 -146q-248 0 -382 151.5t-134 414.5zM209 1397l283 258h166l285 -258l-101 -113 l-266 180l-266 -180zM360 631h426v12q0 285 -211 285q-96 0 -150 -71t-65 -226z" />
<glyph unicode="&#xeb;" horiz-adv-x="1124" d="M88 535q0 166 57.5 298t166 206.5t257.5 74.5q227 0 352.5 -144.5t125.5 -402.5q-1 -20 -7 -106h-680q12 -158 82 -225.5t185 -67.5q72 0 135 23.5t135 72.5l109 -149q-180 -145 -402 -146q-248 0 -382 151.5t-134 414.5zM203 1466q0 59 42 100.5t104 41.5q59 0 100 -41 t41 -101q0 -59 -41 -100t-100 -41q-61 0 -103.5 41t-42.5 100zM360 631h426v12q0 285 -211 285q-96 0 -150 -71t-65 -226zM658 1466q0 59 42 100.5t101 41.5q62 0 103 -41t41 -101q0 -59 -41 -100t-103 -41q-59 0 -101 41t-42 100z" />
<glyph unicode="&#xec;" horiz-adv-x="577" d="M41 1475l106 204l431 -256l-76 -133zM158 0v1083h262v-1083h-262z" />
<glyph unicode="&#xed;" horiz-adv-x="577" d="M14 1423l430 256l107 -204l-463 -185zM158 0v1083h262v-1083h-262z" />
<glyph unicode="&#xee;" horiz-adv-x="577" d="M-78 1397l283 258h166l285 -258l-101 -113l-266 180l-266 -180zM158 0v1083h262v-1083h-262z" />
<glyph unicode="&#xef;" horiz-adv-x="577" d="M-84 1466q0 59 42 100.5t104 41.5q59 0 100 -41t41 -101q0 -59 -41 -100t-100 -41q-61 0 -103.5 41t-42.5 100zM158 0v1083h262v-1083h-262zM371 1466q0 59 42 100.5t101 41.5q62 0 103 -41t41 -101q0 -59 -41 -100t-103 -41q-59 0 -101 41t-42 100z" />
<glyph unicode="&#xf0;" horiz-adv-x="1177" d="M88 479q0 133 51 248t146.5 182.5t222.5 67.5q170 0 285 -115q-27 111 -80.5 196t-145.5 156l-127 -124l-170 79l131 140q-98 35 -206 55l53 180q166 -29 303 -86l145 156l142 -123l-123 -123q196 -143 279 -338.5t83 -474.5q0 -170 -60.5 -303t-174 -208t-267.5 -75 q-137 0 -247.5 60.5t-175 176.5t-64.5 273zM356 487q0 -160 58.5 -240.5t160.5 -80.5q113 0 174.5 93t61.5 276l-2 133q-90 119 -240 118q-213 0 -213 -299z" />
<glyph unicode="&#xf1;" horiz-adv-x="1189" d="M158 0v1083h227l21 -141q133 172 329 172q146 0 226.5 -87t80.5 -243v-784h-262v743q0 96 -33.5 135.5t-99.5 39.5q-68 0 -122 -42t-105 -122v-754h-262zM239 1393q41 96 102.5 154.5t143.5 58.5q45 0 77 -14.5t75 -41.5q27 -20 46 -29.5t40 -9.5q31 0 55.5 20.5 t52.5 67.5l140 -69q-41 -98 -104.5 -154.5t-141.5 -56.5q-43 0 -75 15.5t-73 41.5q-31 20 -49 29.5t-39 9.5q-35 0 -58.5 -21.5t-49.5 -70.5z" />
<glyph unicode="&#xf2;" horiz-adv-x="1196" d="M88 543q0 170 61.5 299t177 200.5t273.5 71.5q240 0 374 -152.5t134 -418.5q0 -170 -61.5 -300t-176 -202t-272.5 -72q-240 0 -375 152.5t-135 421.5zM350 1475l106 204l431 -256l-76 -133zM365 543q0 -193 58 -284t175 -91t175 92t58 283q0 190 -58 281t-173 91 q-235 1 -235 -372z" />
<glyph unicode="&#xf3;" horiz-adv-x="1196" d="M88 543q0 170 61.5 299t177 200.5t273.5 71.5q240 0 374 -152.5t134 -418.5q0 -170 -61.5 -300t-176 -202t-272.5 -72q-240 0 -375 152.5t-135 421.5zM324 1423l430 256l107 -204l-463 -185zM365 543q0 -193 58 -284t175 -91t175 92t58 283q0 190 -58 281t-173 91 q-235 1 -235 -372z" />
<glyph unicode="&#xf4;" horiz-adv-x="1196" d="M88 543q0 170 61.5 299t177 200.5t273.5 71.5q240 0 374 -152.5t134 -418.5q0 -170 -61.5 -300t-176 -202t-272.5 -72q-240 0 -375 152.5t-135 421.5zM231 1397l283 258h166l285 -258l-101 -113l-266 180l-266 -180zM365 543q0 -193 58 -284t175 -91t175 92t58 283 q0 190 -58 281t-173 91q-235 1 -235 -372z" />
<glyph unicode="&#xf5;" horiz-adv-x="1196" d="M88 543q0 170 61.5 299t177 200.5t273.5 71.5q240 0 374 -152.5t134 -418.5q0 -170 -61.5 -300t-176 -202t-272.5 -72q-240 0 -375 152.5t-135 421.5zM231 1393q41 96 102.5 154.5t143.5 58.5q45 0 77 -14.5t75 -41.5q27 -20 46 -29.5t40 -9.5q31 0 55.5 20.5t52.5 67.5 l140 -69q-41 -98 -104.5 -154.5t-141.5 -56.5q-43 0 -75 15.5t-73 41.5q-31 20 -49 29.5t-39 9.5q-35 0 -58.5 -21.5t-49.5 -70.5zM365 543q0 -193 58 -284t175 -91t175 92t58 283q0 190 -58 281t-173 91q-235 1 -235 -372z" />
<glyph unicode="&#xf6;" horiz-adv-x="1196" d="M88 543q0 170 61.5 299t177 200.5t273.5 71.5q240 0 374 -152.5t134 -418.5q0 -170 -61.5 -300t-176 -202t-272.5 -72q-240 0 -375 152.5t-135 421.5zM225 1466q0 59 42 100.5t104 41.5q59 0 100 -41t41 -101q0 -59 -41 -100t-100 -41q-61 0 -103.5 41t-42.5 100z M365 543q0 -193 58 -284t175 -91t175 92t58 283q0 190 -58 281t-173 91q-235 1 -235 -372zM680 1466q0 59 42 100.5t101 41.5q62 0 103 -41t41 -101q0 -59 -41 -100t-103 -41q-59 0 -101 41t-42 100z" />
<glyph unicode="&#xf7;" horiz-adv-x="1044" d="M113 575v209h821v-209h-821zM359 198q0 70 47 118t117 48q69 0 118.5 -48t49.5 -118q0 -68 -49.5 -117t-118.5 -49q-68 0 -116 49.5t-48 116.5zM359 1163q0 70 47 118t117 48q69 0 118.5 -48t49.5 -118q0 -68 -49.5 -117t-118.5 -49q-68 0 -116 49.5t-48 116.5z" />
<glyph unicode="&#xf8;" horiz-adv-x="1196" d="M88 543q0 170 61.5 299t177 200.5t273.5 71.5q43 0 84 -6l80 248l199 -60l-86 -254q112 -67 171.5 -196t59.5 -303q0 -170 -61.5 -300t-176 -202t-272.5 -72q-43 0 -84 6l-78 -247l-200 59l83 254q-111 70 -171 198t-60 304zM350 543q0 -121 17.5 -196t54.5 -118l227 684 q-14 2 -49 2q-250 1 -250 -372zM549 170q16 -2 49 -2q248 0 248 375q0 229 -72 311z" />
<glyph unicode="&#xf9;" horiz-adv-x="1181" d="M147 305v778h263v-745q0 -92 31.5 -131t101.5 -39q125 0 219 154v761h262v-1083h-227l-15 152q-59 -92 -140 -137.5t-191 -45.5q-145 0 -224.5 89t-79.5 247zM338 1475l106 204l431 -256l-76 -133z" />
<glyph unicode="&#xfa;" horiz-adv-x="1181" d="M147 305v778h263v-745q0 -92 31.5 -131t101.5 -39q125 0 219 154v761h262v-1083h-227l-15 152q-59 -92 -140 -137.5t-191 -45.5q-145 0 -224.5 89t-79.5 247zM311 1423l430 256l107 -204l-463 -185z" />
<glyph unicode="&#xfb;" horiz-adv-x="1181" d="M147 305v778h263v-745q0 -92 31.5 -131t101.5 -39q125 0 219 154v761h262v-1083h-227l-15 152q-59 -92 -140 -137.5t-191 -45.5q-145 0 -224.5 89t-79.5 247zM219 1397l283 258h166l285 -258l-101 -113l-266 180l-266 -180z" />
<glyph unicode="&#xfc;" horiz-adv-x="1181" d="M147 305v778h263v-745q0 -92 31.5 -131t101.5 -39q125 0 219 154v761h262v-1083h-227l-15 152q-59 -92 -140 -137.5t-191 -45.5q-145 0 -224.5 89t-79.5 247zM213 1466q0 59 42 100.5t104 41.5q59 0 100 -41t41 -101q0 -59 -41 -100t-100 -41q-61 0 -103.5 41t-42.5 100z M668 1466q0 59 42 100.5t101 41.5q62 0 103 -41t41 -101q0 -59 -41 -100t-103 -41q-59 0 -101 41t-42 100z" />
<glyph unicode="&#xfd;" horiz-adv-x="1036" d="M4 1083h279l235 -909l246 909h270l-352 -1087q-66 -201 -199 -312.5t-364 -129.5l-27 190q106 16 171 46t104 79t71 131h-90zM244 1423l430 256l107 -204l-463 -185z" />
<glyph unicode="&#xfe;" horiz-adv-x="1220" d="M158 -446v1964l262 28v-577q59 74 136 109.5t159 35.5q207 0 306 -149.5t99 -419.5q0 -168 -50 -298t-147.5 -204t-230.5 -74q-172 0 -272 119v-500zM420 283q76 -113 198 -113q228 0 228 373q0 201 -52.5 288t-156.5 87q-63 0 -119.5 -40t-97.5 -108v-487z" />
<glyph unicode="&#xff;" horiz-adv-x="1036" d="M4 1083h279l235 -909l246 909h270l-352 -1087q-66 -201 -199 -312.5t-364 -129.5l-27 190q106 16 171 46t104 79t71 131h-90zM145 1466q0 59 42 100.5t104 41.5q59 0 100 -41t41 -101q0 -59 -41 -100t-100 -41q-61 0 -103.5 41t-42.5 100zM600 1466q0 59 42 100.5 t101 41.5q62 0 103 -41t41 -101q0 -59 -41 -100t-103 -41q-59 0 -101 41t-42 100z" />
<glyph unicode="&#x152;" horiz-adv-x="1845" d="M88 707q0 229 75 396t208 255t307 88q100 0 182 -31h889l-31 -201h-590q129 -152 152 -395h373v-201h-371q-23 -256 -164 -415h637v-203h-903q-80 -31 -174 -31q-174 0 -308 86t-208 253t-74 399zM373 707q0 -275 84 -403t231 -128q313 0 313 533q0 530 -313 530 q-150 0 -232.5 -129t-82.5 -403z" />
<glyph unicode="&#x153;" horiz-adv-x="1865" d="M88 543q0 170 61.5 299t176 200.5t272.5 71.5q240 0 371 -182q129 182 350 182t345 -145.5t124 -401.5q0 -20 -6 -106h-678q12 -158 80.5 -225.5t183.5 -67.5q72 0 135.5 22.5t134.5 73.5l109 -149q-180 -145 -401 -146q-250 0 -379 189q-133 -188 -369 -189 q-240 0 -375 152.5t-135 421.5zM365 543q0 -193 58 -284t175 -91q233 0 233 375q0 373 -233 372q-233 0 -233 -372zM1102 631h428v12q-2 137 -52.5 211t-152.5 74q-100 0 -155.5 -70t-67.5 -227z" />
<glyph unicode="&#x178;" horiz-adv-x="1175" d="M-4 1415h299l299 -657l299 657h287l-455 -878v-537h-274v535zM215 1724q0 59 42 100.5t104 41.5q59 0 100 -41t41 -101q0 -59 -41 -100t-100 -41q-61 0 -103.5 41t-42.5 100zM670 1724q0 59 42 100.5t101 41.5q62 0 103 -41t41 -101q0 -59 -41 -100t-103 -41 q-59 0 -101 41t-42 100z" />
<glyph unicode="&#x2c6;" horiz-adv-x="856" d="M61 1397l283 258h166l285 -258l-101 -113l-266 180l-266 -180z" />
<glyph unicode="&#x2dc;" horiz-adv-x="854" d="M61 1393q41 96 102.5 154.5t143.5 58.5q45 0 77 -14.5t75 -41.5q27 -20 46 -29.5t40 -9.5q31 0 55.5 20.5t52.5 67.5l140 -69q-41 -98 -104.5 -154.5t-141.5 -56.5q-43 0 -75 15.5t-73 41.5q-31 20 -49 29.5t-39 9.5q-35 0 -58.5 -21.5t-49.5 -70.5z" />
<glyph unicode="&#x2000;" horiz-adv-x="1002" />
<glyph unicode="&#x2001;" horiz-adv-x="2005" />
<glyph unicode="&#x2002;" horiz-adv-x="1002" />
<glyph unicode="&#x2003;" horiz-adv-x="2005" />
<glyph unicode="&#x2004;" horiz-adv-x="668" />
<glyph unicode="&#x2005;" horiz-adv-x="501" />
<glyph unicode="&#x2006;" horiz-adv-x="334" />
<glyph unicode="&#x2007;" horiz-adv-x="334" />
<glyph unicode="&#x2008;" horiz-adv-x="250" />
<glyph unicode="&#x2009;" horiz-adv-x="401" />
<glyph unicode="&#x200a;" horiz-adv-x="111" />
<glyph unicode="&#x2010;" horiz-adv-x="829" d="M106 537v208h619v-208h-619z" />
<glyph unicode="&#x2011;" horiz-adv-x="829" d="M106 537v208h619v-208h-619z" />
<glyph unicode="&#x2012;" horiz-adv-x="829" d="M106 537v208h619v-208h-619z" />
<glyph unicode="&#x2013;" horiz-adv-x="1064" d="M53 537v208h959v-208h-959z" />
<glyph unicode="&#x2014;" horiz-adv-x="1624" d="M53 537v208h1518v-208h-1518z" />
<glyph unicode="&#x2018;" horiz-adv-x="483" d="M84 1118q0 33 10 68t37 92l133 278h148l-84 -315q66 -45 65 -123q0 -63 -45 -105t-110 -42q-66 0 -110 42t-44 105z" />
<glyph unicode="&#x2019;" horiz-adv-x="483" d="M72 970l84 316q-66 45 -66 123q0 63 45 105t111 42q65 0 109 -42t44 -105q0 -33 -10 -68t-37 -92l-133 -279h-147z" />
<glyph unicode="&#x201a;" horiz-adv-x="483" d="M72 -328l84 316q-66 45 -66 123q0 63 45 105t111 42q65 0 109 -42t44 -105q0 -33 -10 -68t-37 -92l-133 -279h-147z" />
<glyph unicode="&#x201c;" horiz-adv-x="878" d="M84 1118q0 33 10 68t37 92l133 278h148l-84 -315q66 -45 65 -123q0 -63 -45 -105t-110 -42q-66 0 -110 42t-44 105zM479 1118q0 33 10.5 68t36.5 92l133 278h148l-84 -315q66 -45 65 -123q0 -63 -45 -105t-110 -42q-66 0 -110 42t-44 105z" />
<glyph unicode="&#x201d;" horiz-adv-x="878" d="M72 970l84 316q-66 45 -66 123q0 63 45 105t111 42q65 0 109 -42t44 -105q0 -33 -10 -68t-37 -92l-133 -279h-147zM467 970l84 316q-66 45 -66 123q0 63 45 105t111 42q65 0 109 -42t44 -105q0 -33 -10 -68t-37 -92l-133 -279h-147z" />
<glyph unicode="&#x201e;" horiz-adv-x="878" d="M72 -328l84 316q-66 45 -66 123q0 63 45 105t111 42q65 0 109 -42t44 -105q0 -33 -10 -68t-37 -92l-133 -279h-147zM467 -328l84 316q-66 45 -66 123q0 63 45 105t111 42q65 0 109 -42t44 -105q0 -33 -10 -68t-37 -92l-133 -279h-147z" />
<glyph unicode="&#x2022;" horiz-adv-x="688" d="M86 700q0 111 73.5 184.5t184.5 73.5t184.5 -74.5t73.5 -185.5t-73.5 -184.5t-184.5 -73.5t-184.5 75t-73.5 185z" />
<glyph unicode="&#x2026;" horiz-adv-x="1499" d="M80 135q0 70 47 118t117 48q69 0 118.5 -48t49.5 -118q0 -68 -49.5 -117t-118.5 -49q-68 0 -116 49.5t-48 116.5zM584 135q0 70 47 118t117 48q69 0 118.5 -48t49.5 -118q0 -68 -49.5 -117t-118.5 -49q-68 0 -116 49.5t-48 116.5zM1088 135q0 70 47 118t117 48 q69 0 118.5 -48t49.5 -118q0 -68 -49.5 -117t-118.5 -49q-68 0 -116 49.5t-48 116.5z" />
<glyph unicode="&#x202f;" horiz-adv-x="401" />
<glyph unicode="&#x2039;" horiz-adv-x="718" d="M92 500v170l375 450l160 -108l-271 -426l271 -428l-160 -107z" />
<glyph unicode="&#x203a;" horiz-adv-x="718" d="M92 158l268 428l-268 426l160 108l375 -450v-170l-375 -449z" />
<glyph unicode="&#x205f;" horiz-adv-x="501" />
<glyph unicode="&#x20ac;" horiz-adv-x="1196" d="M35 461l37 147h133v164h-170l37 150h143q55 227 206.5 354t358.5 127q209 0 383 -117l-96 -166q-70 45 -133.5 64.5t-142.5 19.5q-111 0 -190 -69.5t-116 -212.5h510l-39 -150h-483v-164h449l-35 -147h-406q27 -150 106 -220.5t214 -70.5q139 0 293 86v-209 q-82 -39 -158 -58.5t-164 -19.5q-227 0 -371.5 127t-189.5 365h-176z" />
<glyph unicode="&#x2122;" horiz-adv-x="1832" d="M66 1253v162h710l-28 -162h-236v-645h-201v645h-245zM811 608l31 807h264l158 -532l143 532h272l31 -807h-194l-13 377q-2 37 -2 98q0 63 10 170h-2l-161 -561h-164l-180 557h-3q8 -90 9 -198v-66l-13 -377h-186z" />
<glyph unicode="&#x25fc;" horiz-adv-x="1085" d="M0 0v1085h1085v-1085h-1085z" />
<glyph unicode="&#xfb03;" horiz-adv-x="1798" d="M12 895v188h170v99q0 154 100.5 248t290.5 94q82 0 154 -16.5t156 -51.5q111 90 309 90q172 0 332 -78l-80 -174q-109 51 -230 52q-100 0 -138 -36t-38 -116v-111h602v-1083h-262v895h-340v-895h-262v895h-332v-895h-262v895h-170zM444 1083h332v115q0 55 12 100 q-98 33 -190 33q-86 0 -120 -32.5t-34 -108.5v-107z" />
<glyph unicode="&#xfb04;" horiz-adv-x="1849" d="M12 895v188h170v99q0 154 100.5 248t290.5 94q82 0 154 -16.5t156 -51.5q100 90 284 90q113 0 244 -39l244 27v-1270q0 -45 14 -64.5t47 -19.5q31 0 62 10l55 -184q-88 -37 -186 -37q-123 0 -188.5 71t-65.5 206v1075q-94 29 -195 29q-90 0 -125 -35t-35 -115v-117h232 l-29 -188h-203v-895h-262v895h-332v-895h-262v895h-170zM444 1083h332v119q0 51 12 96q-98 33 -190 33q-86 0 -120 -32.5t-34 -108.5v-107z" />
</font>
</defs>
</svg>
