<?xml version="1.0" standalone="no"?>
<!DOCTYPE svg PUBLIC "-//W3C//DTD SVG 1.1//EN" "http://www.w3.org/Graphics/SVG/1.1/DTD/svg11.dtd" >
<svg xmlns="http://www.w3.org/2000/svg" xmlns:xlink="http://www.w3.org/1999/xlink" version="1.1">
<metadata></metadata>
<defs>
<font id="fira_sanslight" horiz-adv-x="1097" >
<font-face units-per-em="2048" ascent="1638" descent="-410" />
<missing-glyph horiz-adv-x="571" />
<glyph unicode="&#xfb01;" horiz-adv-x="1153" />
<glyph unicode="&#xfb02;" horiz-adv-x="1193" />
<glyph horiz-adv-x="0" />
<glyph unicode="&#xd;" horiz-adv-x="571" />
<glyph unicode=" "  horiz-adv-x="571" />
<glyph unicode="&#x09;" horiz-adv-x="571" />
<glyph unicode="&#xa0;" horiz-adv-x="571" />
<glyph unicode="!" horiz-adv-x="491" d="M147 76q0 41 29 68.5t70 27.5q43 0 70.5 -27.5t27.5 -68.5t-27.5 -70t-70.5 -29q-41 0 -70 29t-29 70zM180 1403h127l-8 -957h-109z" />
<glyph unicode="&#x22;" horiz-adv-x="741" d="M145 1403h127l-18 -514h-90zM469 1403h127l-18 -514h-90z" />
<glyph unicode="#" horiz-adv-x="1030" d="M31 369v94h159l62 463h-146v96h158l45 340h107l-45 -340h374l46 340h106l-45 -340h147v-96h-159l-62 -463h146v-94h-158l-49 -369h-107l49 369h-374l-49 -369h-107l49 369h-147zM297 463h375l61 463h-375z" />
<glyph unicode="$" horiz-adv-x="1077" d="M80 147l72 76q74 -70 160.5 -106.5t199.5 -36.5q147 0 239.5 76.5t92.5 212.5q0 82 -30 135t-98.5 92t-195.5 78q-209 66 -298 148.5t-89 224.5q0 137 97.5 229t256.5 104v297h105v-297q104 -8 181 -45t151 -104l-72 -76q-72 68 -146.5 96.5t-170.5 28.5 q-125 0 -202 -61.5t-77 -167.5q0 -72 28.5 -118t95 -83t191.5 -74q135 -43 219 -90t130.5 -123t46.5 -190q0 -158 -101.5 -263.5t-273.5 -127.5v-291h-105v286q-240 8 -407 170z" />
<glyph unicode="%" horiz-adv-x="1624" d="M109 1051q0 152 83.5 242.5t223.5 90.5q137 0 221 -90t84 -241q0 -152 -83 -243t-222 -91q-137 0 -222 90t-85 242zM219 1051q0 -106 47 -176t150 -70q102 0 148 69.5t46 178.5q0 106 -46 175.5t-148 69.5q-103 0 -150 -69.5t-47 -177.5zM301 8l948 1432l88 -56 l-950 -1433zM903 309q0 154 83 244t222 90q138 0 223 -90t85 -240q0 -154 -84 -245t-224 -91q-135 0 -220 91.5t-85 240.5zM1014 309q0 -106 47 -176t147 -70q102 0 149.5 70t47.5 180q0 104 -47 174t-150 70q-100 0 -147 -69.5t-47 -178.5z" />
<glyph unicode="&#x26;" horiz-adv-x="1478" d="M184 350q0 131 74 226.5t221 181.5q-113 106 -160 181t-47 175q0 135 94.5 223t249.5 88q150 0 245 -85t95 -218q0 -117 -76.5 -202.5t-236.5 -174.5l420 -393q90 184 135 389l113 -32q-66 -246 -174 -428l254 -234l-88 -70l-230 216q-88 -104 -197.5 -160t-261.5 -56 q-121 0 -219 46.5t-154.5 131.5t-56.5 195zM307 354q0 -125 89 -201.5t229 -76.5q123 0 211 46t163 138l-448 432q-123 -74 -183.5 -154.5t-60.5 -183.5zM391 1116q0 -78 38 -140.5t144 -164.5q137 76 202 146.5t65 160.5q0 100 -62.5 157.5t-161.5 57.5 q-102 0 -163.5 -62.5t-61.5 -154.5z" />
<glyph unicode="'" horiz-adv-x="417" d="M145 1403h127l-18 -514h-90z" />
<glyph unicode="(" horiz-adv-x="663" d="M111 717q0 225 47 395t119.5 297t199.5 305l76 -49q-109 -162 -174.5 -288t-105.5 -287.5t-40 -372.5t40 -373t105.5 -288t174.5 -287l-76 -50q-127 178 -199.5 305.5t-119.5 297.5t-47 395z" />
<glyph unicode=")" horiz-adv-x="663" d="M111 -231q109 162 174 287.5t105 287.5t40 373t-40 372.5t-105.5 287.5t-173.5 288l75 49q127 -178 200 -305t120 -297t47 -395t-47 -395t-120 -297t-200 -306z" />
<glyph unicode="*" horiz-adv-x="892" d="M70 1192l34 106l302 -116l-19 325h117l-17 -325l299 116l37 -106l-311 -82l203 -250l-94 -69l-175 270l-174 -270l-94 67l203 250z" />
<glyph unicode="+" horiz-adv-x="1009" d="M141 627v102h308v311h112v-311h307v-102h-307v-312h-112v312h-308z" />
<glyph unicode="," horiz-adv-x="423" d="M78 -309l82 301q-23 12 -35 34.5t-12 49.5q0 41 28.5 68.5t69.5 27.5q43 0 70.5 -27.5t27.5 -68.5q0 -45 -30 -113l-115 -272h-86z" />
<glyph unicode="-" horiz-adv-x="821" d="M139 590v102h543v-102h-543z" />
<glyph unicode="." horiz-adv-x="423" d="M113 76q0 41 28.5 68.5t69.5 27.5q43 0 70.5 -27.5t27.5 -68.5q0 -43 -27.5 -71t-70.5 -28q-41 0 -69.5 29t-28.5 70z" />
<glyph unicode="/" horiz-adv-x="1064" d="M244 -178l475 1823l102 -27l-475 -1823z" />
<glyph unicode="0" horiz-adv-x="1126" d="M135 682q0 346 108.5 524t319.5 178t319.5 -179t108.5 -525q0 -344 -109.5 -523.5t-318.5 -179.5q-211 0 -319.5 179.5t-108.5 525.5zM258 682q0 -606 305 -606q150 0 226.5 147.5t76.5 456.5t-76.5 457.5t-226.5 148.5q-305 0 -305 -604z" />
<glyph unicode="1" horiz-adv-x="845" d="M88 1110l408 252h102v-1362h-119v1231l-336 -209z" />
<glyph unicode="2" horiz-adv-x="980" d="M68 1190q82 100 177 147t216 47q172 0 273.5 -100t101.5 -258q0 -133 -55.5 -250t-173.5 -256t-380 -416h645l-16 -104h-768v100q281 299 402.5 443.5t172 250t50.5 226.5t-71 192.5t-187 71.5q-94 0 -167 -39t-138 -117z" />
<glyph unicode="3" horiz-adv-x="995" d="M41 154l76 67q70 -76 144.5 -109.5t166.5 -33.5q147 0 231 84t84 221q0 287 -307 287h-90l16 96h66q117 0 199 70.5t82 201.5q0 113 -72 179.5t-191 66.5q-86 0 -157.5 -29.5t-145.5 -97.5l-63 74q82 78 172 115.5t201 37.5q114 0 199 -45t130 -121.5t45 -173.5 q0 -133 -74.5 -216t-193.5 -103q133 -6 220 -95t87 -245q0 -119 -53 -211t-152.5 -144.5t-228.5 -52.5q-238 0 -391 177z" />
<glyph unicode="4" horiz-adv-x="1060" d="M92 358v88l416 938l100 -41l-389 -886h469l14 399h103v-399h184v-99h-184v-358h-117v358h-596z" />
<glyph unicode="5" horiz-adv-x="997" d="M70 141l73 72q66 -70 139.5 -102.5t172.5 -32.5q145 0 229 97t84 265q0 164 -77 245t-208 81q-66 0 -116 -15.5t-111 -50.5h-94v662h686l-19 -98h-553v-465q113 63 234 63q176 0 279.5 -113.5t103.5 -310.5q0 -133 -54.5 -238.5t-153.5 -164t-230 -58.5q-227 0 -385 164z " />
<glyph unicode="6" horiz-adv-x="1073" d="M135 614q0 236 59.5 410t170 267t262.5 93q137 0 254 -79l-52 -82q-98 63 -204 63q-166 0 -264.5 -166t-104.5 -434q137 201 350 201q158 0 260.5 -109.5t102.5 -318.5q0 -145 -52.5 -255t-143.5 -168.5t-206 -58.5q-225 0 -328.5 173.5t-103.5 463.5zM256 563 q6 -238 80 -362.5t231 -124.5q135 0 208 103.5t73 275.5q0 170 -70.5 251.5t-187.5 81.5q-102 0 -187.5 -60t-146.5 -165z" />
<glyph unicode="7" horiz-adv-x="894" d="M61 1262v100h760v-92l-536 -1286l-111 36l524 1242h-637z" />
<glyph unicode="8" horiz-adv-x="1101" d="M109 352q0 262 292 379q-121 55 -177 128t-56 185q0 104 53 182.5t141.5 118t188.5 39.5t188 -38.5t142.5 -114.5t54.5 -184q0 -106 -59.5 -183.5t-186.5 -142.5q158 -64 230.5 -149t72.5 -218q0 -113 -56 -197.5t-157.5 -132t-232.5 -47.5t-230.5 47.5t-153.5 132.5 t-54 195zM233 352q0 -131 86.5 -202.5t229.5 -71.5q145 0 232 72.5t87 203.5q0 82 -30.5 136.5t-94 94.5t-178.5 83l-69 26q-137 -53 -200 -136t-63 -206zM287 1042q0 -98 56 -155.5t196 -108.5l63 -22q115 61 165 126.5t50 159.5q0 117 -72.5 182.5t-193.5 65.5 q-117 0 -190.5 -65.5t-73.5 -182.5z" />
<glyph unicode="9" horiz-adv-x="1060" d="M109 938q0 135 54 236.5t148.5 155.5t210.5 54q207 0 310.5 -144t103.5 -404q0 -264 -76 -432t-222 -268.5t-386 -174.5l-31 92q283 86 431.5 235.5t162.5 409.5q-61 -90 -147 -140t-189 -50q-106 0 -190 52t-132 149.5t-48 228.5zM231 936q0 -158 73 -244t196 -86 q96 0 173 52.5t142 152.5q2 244 -67.5 359.5t-221.5 115.5q-137 0 -216 -91t-79 -259z" />
<glyph unicode=":" horiz-adv-x="423" d="M113 76q0 41 28.5 68.5t69.5 27.5q43 0 70.5 -27.5t27.5 -68.5q0 -43 -27.5 -71t-70.5 -28q-41 0 -69.5 29t-28.5 70zM113 875q0 41 28.5 68.5t69.5 27.5q43 0 70.5 -27.5t27.5 -68.5q0 -43 -27.5 -71t-70.5 -28q-41 0 -69.5 29t-28.5 70z" />
<glyph unicode=";" horiz-adv-x="423" d="M78 -309l82 301q-23 12 -35 34.5t-12 49.5q0 41 28.5 68.5t69.5 27.5q43 0 70.5 -27.5t27.5 -68.5q0 -45 -30 -113l-115 -272h-86zM113 875q0 41 28.5 68.5t69.5 27.5q43 0 70.5 -27.5t27.5 -68.5q0 -43 -27.5 -71t-70.5 -28q-41 0 -69.5 29t-28.5 70z" />
<glyph unicode="&#x3c;" horiz-adv-x="1017" d="M131 627v110l713 346l43 -100l-651 -301l651 -307l-43 -99z" />
<glyph unicode="=" horiz-adv-x="1009" d="M141 447v104h727v-104h-727zM141 805v104h727v-104h-727z" />
<glyph unicode="&#x3e;" horiz-adv-x="1017" d="M131 375l649 307l-649 301l43 100l713 -346v-110l-713 -351z" />
<glyph unicode="?" horiz-adv-x="915" d="M84 1237q84 96 179 142t216 46q111 0 191 -41t122 -108.5t42 -149.5q0 -74 -27 -127t-64.5 -87.5t-101.5 -77.5q-61 -43 -97 -76t-60.5 -82t-24.5 -117v-113h-117v121q0 86 28.5 146.5t69.5 98.5t107 83q82 55 122 102t40 123q0 94 -63.5 148.5t-172.5 54.5 q-92 0 -164.5 -36t-142.5 -116zM307 76q0 41 27.5 68.5t71.5 27.5q43 0 70.5 -27.5t27.5 -68.5t-27.5 -70t-70.5 -29t-71 29t-28 70z" />
<glyph unicode="@" horiz-adv-x="2088" d="M174 489q0 262 113.5 476.5t319.5 337t470 122.5q266 0 455.5 -108.5t286 -288.5t96.5 -397q0 -295 -102.5 -450.5t-268.5 -155.5q-102 0 -165.5 63.5t-84.5 161.5q-45 -102 -119.5 -161.5t-183.5 -59.5q-98 0 -177 53t-123 153.5t-44 239.5q0 170 56.5 286t152.5 173 t219 57q154 0 297 -73v-529q0 -268 170 -268q115 0 183.5 118.5t68.5 387.5q0 201 -83 358.5t-244.5 247.5t-389.5 90q-233 0 -410.5 -108.5t-274.5 -299t-97 -426.5q0 -244 95 -426t272.5 -282t412.5 -100q199 0 387 69l33 -96q-106 -37 -200.5 -55.5t-221.5 -18.5 q-262 0 -466 110.5t-318.5 316.5t-114.5 482zM766 475q0 -172 63.5 -262t174.5 -90q98 0 163.5 64.5t94.5 152.5v518q-86 41 -183 41q-150 0 -231.5 -110.5t-81.5 -313.5z" />
<glyph unicode="A" horiz-adv-x="1157" d="M33 0l469 1403h153l467 -1403h-129l-123 383h-589l-123 -383h-125zM315 487h523l-260 816z" />
<glyph unicode="B" horiz-adv-x="1224" d="M227 0v1403h314q244 0 376 -88t132 -262q0 -129 -71 -209t-187 -101q143 -16 233 -101t90 -253q0 -197 -133 -293t-371 -96h-383zM350 102h260q377 0 377 287q0 152 -93 225.5t-247 73.5h-297v-586zM350 786h283q131 0 211 69t80 189q0 137 -93.5 196.5t-277.5 59.5h-203 v-514z" />
<glyph unicode="C" horiz-adv-x="1126" d="M135 702q0 231 76 394.5t204 246t287 82.5q117 0 198 -31.5t163 -97.5l-66 -82q-72 57 -137 82t-149 25q-199 0 -323 -151.5t-124 -467.5q0 -205 57.5 -344t157 -205.5t226.5 -66.5q100 0 169.5 29.5t141.5 87.5l63 -80q-154 -145 -379 -146q-164 0 -291.5 84t-200.5 247 t-73 394z" />
<glyph unicode="D" horiz-adv-x="1294" d="M227 0v1403h279q291 0 472 -147.5t181 -542.5t-183 -554t-448 -159h-301zM350 102h187q493 0 493 609q0 244 -71.5 372.5t-181 172.5t-255.5 44h-172v-1198z" />
<glyph unicode="E" horiz-adv-x="1048" d="M227 0v1403h713l-14 -103h-576v-522h498v-102h-498v-574h604v-102h-727z" />
<glyph unicode="F" horiz-adv-x="985" d="M227 0v1403h701l-15 -103h-563v-546h486v-103h-486v-651h-123z" />
<glyph unicode="G" horiz-adv-x="1265" d="M135 707q0 231 81 394t215 243.5t290 80.5q119 0 207 -33.5t178 -105.5l-74 -78q-76 59 -147.5 86t-163.5 27q-121 0 -224.5 -63.5t-168 -201.5t-64.5 -349q0 -313 119 -469t332 -156q164 0 295 74v497h-275l-14 103h409v-664q-201 -115 -415 -115q-268 0 -424 186.5 t-156 543.5z" />
<glyph unicode="H" horiz-adv-x="1372" d="M227 0v1403h123v-612h672v612h123v-1403h-123v686h-672v-686h-123z" />
<glyph unicode="I" horiz-adv-x="577" d="M227 0v1403h123v-1403h-123z" />
<glyph unicode="J" horiz-adv-x="595" d="M27 -154q94 41 143 85t67.5 104.5t18.5 159.5v1208h123v-1215q0 -125 -32 -203.5t-99.5 -130t-188.5 -98.5z" />
<glyph unicode="K" horiz-adv-x="1120" d="M227 0v1403h123v-1403h-123zM358 752l586 651h141l-581 -645l616 -758h-149z" />
<glyph unicode="L" horiz-adv-x="976" d="M227 0v1403h123v-1292h586l-16 -111h-693z" />
<glyph unicode="M" horiz-adv-x="1576" d="M141 0l133 1403h170l349 -1092l335 1092h172l136 -1403h-119l-64 672q-39 391 -53 610l-352 -1116h-117l-364 1116q-10 -199 -41 -526l-7 -80l-61 -676h-117z" />
<glyph unicode="N" horiz-adv-x="1378" d="M227 0v1403h158l666 -1268q-16 238 -17 416v852h117v-1403h-162l-661 1268q16 -256 16 -484v-784h-117z" />
<glyph unicode="O" horiz-adv-x="1415" d="M135 698q0 227 72 391t202 250t298 86q172 0 301 -82.5t200.5 -246.5t71.5 -396q0 -227 -70.5 -390t-199.5 -248t-303 -85q-170 0 -299 84t-201 246t-72 391zM264 698q0 -305 120 -460.5t323 -155.5q211 0 327.5 154.5t116.5 463.5q0 311 -118 466t-326 155 q-205 0 -324 -156.5t-119 -466.5z" />
<glyph unicode="P" horiz-adv-x="1167" d="M227 0v1403h330q250 0 384 -103.5t134 -316.5q0 -225 -140 -330.5t-384 -105.5h-201v-547h-123zM350 647h201q190 0 292.5 76t102.5 258q0 172 -99 247t-292 75h-205v-656z" />
<glyph unicode="Q" horiz-adv-x="1413" d="M135 698q0 227 72 391t202 250t298 86q172 0 301 -82.5t200.5 -246.5t71.5 -396q0 -522 -354 -651q116 -2 219.5 -35.5t183.5 -99.5l-82 -104q-111 98 -229.5 135t-310.5 37q-170 0 -299 82.5t-201 243.5t-72 390zM264 698q0 -305 120 -460.5t323 -155.5 q211 0 327.5 154.5t116.5 463.5q0 311 -118 466t-326 155q-205 0 -324 -156.5t-119 -466.5z" />
<glyph unicode="R" horiz-adv-x="1208" d="M227 0v1403h340q500 0 500 -381q0 -152 -80 -242t-233 -129l385 -651h-146l-362 629h-281v-629h-123zM350 729h234q352 0 352 293q0 143 -88 212t-285 69h-213v-574z" />
<glyph unicode="S" horiz-adv-x="1103" d="M80 154l70 77q86 -74 174 -111.5t202 -37.5q152 0 247 80t95 217q0 86 -31.5 141t-102 95t-199.5 81q-215 66 -307.5 152t-92.5 233q0 98 52.5 177t145.5 123t214 44q129 0 222 -37.5t181 -117.5l-71 -78q-80 68 -156 98.5t-172 30.5q-131 0 -211 -64.5t-80 -173.5 q0 -74 29.5 -122t99.5 -85.5t199 -76.5q139 -43 225 -92.5t133 -127t47 -196.5t-57 -211t-162.5 -143.5t-245.5 -51.5q-262 0 -448 177z" />
<glyph unicode="T" horiz-adv-x="1013" d="M31 1294v109h962l-14 -109h-412v-1294h-121v1294h-415z" />
<glyph unicode="U" horiz-adv-x="1335" d="M207 438v965h123v-954q0 -176 83 -270.5t255 -94.5t254 95t82 270v954h124v-965q0 -209 -118.5 -335t-341.5 -126q-225 0 -343 125t-118 336z" />
<glyph unicode="V" horiz-adv-x="1118" d="M33 1403h133l395 -1276l397 1276h127l-456 -1403h-137z" />
<glyph unicode="W" horiz-adv-x="1658" d="M61 1403h125l267 -1288l307 1288h137l313 -1288l269 1288h116l-307 -1403h-153l-308 1266l-307 -1266h-149z" />
<glyph unicode="X" horiz-adv-x="1052" d="M20 0l429 754l-386 649h140l319 -567l320 567h133l-381 -643l438 -760h-139l-373 674l-366 -674h-134z" />
<glyph unicode="Y" horiz-adv-x="1071" d="M27 1403h137l377 -746l370 746h131l-444 -854v-549h-123v547z" />
<glyph unicode="Z" horiz-adv-x="1056" d="M72 0v102l751 1194h-673v107h808v-100l-745 -1194h733l-16 -109h-858z" />
<glyph unicode="[" horiz-adv-x="649" d="M172 -229v1882h342v-101h-229v-1683h229v-98h-342z" />
<glyph unicode="\" horiz-adv-x="1064" d="M244 1620l102 25l475 -1823l-104 -27z" />
<glyph unicode="]" horiz-adv-x="649" d="M135 -131h230v1683h-230v101h342v-1882h-342v98z" />
<glyph unicode="^" horiz-adv-x="1087" d="M115 1079l379 625h100l377 -625h-133l-295 508l-293 -508h-135z" />
<glyph unicode="_" horiz-adv-x="1064" d="M59 -145h949v-105h-949v105z" />
<glyph unicode="`" horiz-adv-x="561" d="M61 1495l54 107l385 -211l-37 -70z" />
<glyph unicode="a" d="M115 297q0 166 117.5 256t326.5 90h205v105q0 129 -57.5 187t-190.5 58q-123 0 -291 -61l-30 90q180 72 337 72q350 0 351 -340v-516q0 -84 21.5 -121t68.5 -56l-27 -84q-74 14 -113.5 55.5t-52.5 125.5q-111 -180 -334 -181q-154 0 -242.5 87.5t-88.5 232.5zM242 303 q0 -111 59 -170t166 -59q193 0 297 188v295h-186q-164 0 -250 -63.5t-86 -190.5z" />
<glyph unicode="b" horiz-adv-x="1189" d="M217 0v1507l119 15v-600q127 172 321 172q187 0 289.5 -143.5t102.5 -409.5q0 -260 -107.5 -412t-300.5 -152q-96 0 -175 43t-132 115l-12 -135h-105zM336 248q51 -80 122.5 -126t159.5 -46q146 0 225 117.5t79 347.5q0 454 -288 454h-1q-96 0 -166 -48t-131 -136v-563z " />
<glyph unicode="c" horiz-adv-x="960" d="M131 528q0 170 56.5 298t159 198t237.5 70q92 0 163.5 -26t139.5 -83l-60 -78q-53 43 -109 63.5t-128 20.5q-152 0 -242 -117.5t-90 -343.5q0 -223 89 -335.5t241 -112.5q72 0 130 22.5t118 67.5l57 -80q-135 -115 -307 -115q-137 0 -239.5 66t-159 189.5t-56.5 295.5z " />
<glyph unicode="d" horiz-adv-x="1198" d="M141 530q0 166 50.5 293t145.5 199t224 72q182 0 301 -146v574l119 -15v-1507h-102l-15 164q-111 -186 -321 -187q-186 0 -294 148.5t-108 404.5zM268 532q0 -221 78 -338.5t215 -117.5q103 0 173.5 49t127.5 149v560q-114 161 -278 161h-2q-144 -1 -230 -121 q-84 -118 -84 -332v-10z" />
<glyph unicode="e" d="M131 526q0 170 52.5 298t149.5 199t226 71q205 0 311.5 -138.5t106.5 -380.5q0 -45 -4 -86h-715q10 -209 99 -310t235 -101q84 0 148.5 25.5t140.5 80.5l55 -75q-80 -66 -164 -99t-186 -33q-213 0 -334 145.5t-121 403.5zM258 582h602v30q0 180 -74.5 281.5t-222.5 101.5 q-133 0 -215 -102t-90 -311z" />
<glyph unicode="f" horiz-adv-x="657" d="M43 975v96h186v176q0 127 79 201t218 74q125 0 250 -58l-41 -88q-106 47 -203 47q-92 0 -138 -43t-46 -137v-172h283l-17 -96h-266v-975h-119v975h-186z" />
<glyph unicode="g" horiz-adv-x="1030" d="M68 -113h110q2 -78 33 -123t102.5 -65.5t200.5 -20.5q180 0 262 52.5t82 150.5q0 86 -63.5 132t-178.5 46h-174q-127 0 -195.5 53.5t-68.5 135.5q0 53 31 100t86 82q-92 47 -136 121t-44 180q0 162 108.5 262.5t284.5 100.5h42q163 0 242 14q89 16 185 55l37 -114 q-98 -27 -297 -31q182 -86 182 -291q0 -158 -104.5 -255t-282.5 -97q-80 0 -139 20q-39 -23 -60.5 -54.5t-21.5 -68.5q0 -110 167 -110h3h174q158 0 251 -77t93 -198q0 -147 -117 -227t-348 -80q-240 0 -343 73t-103 234zM238 731q0 -127 72.5 -198.5t197.5 -71.5 q131 0 200.5 70.5t69.5 197.5q0 129 -68.5 200.5t-201.5 71.5t-201.5 -73.5t-68.5 -196.5z" />
<glyph unicode="h" horiz-adv-x="1196" d="M217 0v1507l119 15v-629q143 201 354 201q144 0 221.5 -87t77.5 -241v-766h-119v750q0 247 -200 247h-2q-102 0 -181 -56t-151 -165v-776h-119z" />
<glyph unicode="i" horiz-adv-x="552" d="M186 1456q0 37 25 61.5t63 24.5q41 0 66 -24.5t25 -61.5t-25 -61.5t-66 -24.5q-39 0 -63.5 24.5t-24.5 61.5zM217 0v1071h119v-1071h-119z" />
<glyph unicode="j" horiz-adv-x="552" d="M12 -330q78 39 120 77t63.5 104.5t21.5 183.5v1036h119v-1032q0 -139 -31 -222t-90 -133.5t-168 -99.5zM186 1456q0 37 25 61.5t63 24.5q41 0 66 -24.5t25 -61.5t-25 -61.5t-66 -24.5q-39 0 -63.5 24.5t-24.5 61.5z" />
<glyph unicode="k" horiz-adv-x="999" d="M217 0v1507l119 15v-1522h-119zM348 586l451 485h137l-451 -479l498 -592h-143z" />
<glyph unicode="l" horiz-adv-x="581" d="M207 180v1327l119 15v-1338q0 -104 86 -104q43 0 73 14l33 -88q-57 -29 -123 -29q-88 0 -138 51.5t-50 151.5z" />
<glyph unicode="m" horiz-adv-x="1746" d="M217 0v1071h102l11 -182q61 96 145 150.5t184 54.5q102 0 172 -56.5t95 -156.5q63 100 148 156.5t188 56.5q129 0 203.5 -88t74.5 -240v-766h-119v750q0 127 -48 187t-134 60q-90 0 -161.5 -57t-139.5 -164v-776h-119v750q0 127 -48 187t-134 60q-92 0 -164 -57 t-137 -164v-776h-119z" />
<glyph unicode="n" horiz-adv-x="1196" d="M217 0v1071h102l13 -182q66 96 156 150.5t202 54.5q146 0 222.5 -86t76.5 -242v-766h-119v750q0 129 -51 188t-151 59q-102 0 -181 -56t-151 -165v-776h-119z" />
<glyph unicode="o" horiz-adv-x="1169" d="M131 535q0 170 55.5 296.5t157.5 194.5t242 68q213 0 332.5 -146.5t119.5 -408.5q0 -260 -121.5 -411t-332.5 -151q-213 0 -333 148.5t-120 409.5zM258 535q0 -223 85 -340t241 -117t242.5 116.5t86.5 344.5q0 223 -85 338.5t-242 115.5q-156 0 -242 -116.5t-86 -341.5z " />
<glyph unicode="p" horiz-adv-x="1189" d="M217 -420v1491h102l11 -156q59 84 144 131.5t185 47.5q195 0 292.5 -144.5t97.5 -408.5q0 -258 -105.5 -411t-302.5 -153q-96 0 -174 40t-131 108v-528zM336 242q106 -164 282 -164q148 0 226 116.5t78 346.5q0 454 -284 454h-1q-96 0 -167 -49t-134 -135v-569z" />
<glyph unicode="q" horiz-adv-x="1198" d="M141 530q0 166 51.5 293t146.5 199t224 72q184 0 307 -152l9 129h102v-1491l-119 17v559q-51 -82 -131 -130.5t-188 -48.5q-186 0 -294 148.5t-108 404.5zM268 532q0 -221 78 -338.5t217 -117.5q103 0 172.5 49t126.5 147v564q-112 159 -276 159h-2q-145 0 -232 -121 q-84 -117 -84 -332v-10z" />
<glyph unicode="r" horiz-adv-x="763" d="M217 0v1071h102l11 -240q43 133 117.5 198t185.5 65q63 -1 106 -13l-22 -112q-45 12 -94 12q-109 0 -175.5 -79t-111.5 -247v-655h-119z" />
<glyph unicode="s" horiz-adv-x="950" d="M80 115l65 75q72 -57 147 -84.5t169 -27.5q119 0 191.5 54t72.5 151q0 66 -24.5 106.5t-84 70t-174.5 60.5q-170 45 -244.5 112.5t-74.5 180.5q0 80 47 144.5t128 100.5t181 36q101 0 182.5 -30t159.5 -89l-55 -78q-74 51 -139.5 74.5t-143.5 23.5q-106 0 -171.5 -49 t-65.5 -131q0 -78 56 -121t204 -82q182 -47 263 -118.5t81 -204.5q0 -143 -110.5 -227.5t-276.5 -84.5q-123 0 -215 36t-168 102z" />
<glyph unicode="t" horiz-adv-x="698" d="M37 975v96h180v256l119 14v-270h276l-14 -96h-262v-709q0 -94 39 -140t119 -46q82 0 163 47l48 -82q-102 -68 -226 -68q-123 0 -192.5 73t-69.5 210v715h-180z" />
<glyph unicode="u" horiz-adv-x="1185" d="M207 305v766h119v-754q0 -125 52 -183t159 -58q186 0 313 219v776h119v-1071h-103l-6 190q-127 -213 -350 -213q-145 0 -224 85t-79 243z" />
<glyph unicode="v" horiz-adv-x="962" d="M31 1071h131l325 -967l318 967h127l-371 -1071h-147z" />
<glyph unicode="w" horiz-adv-x="1429" d="M51 1071h123l229 -979l250 979h135l246 -981l228 981h116l-262 -1071h-160l-237 961l-242 -961h-158z" />
<glyph unicode="x" horiz-adv-x="940" d="M20 0l377 569l-327 502h139l262 -428l264 428h135l-329 -498l377 -573h-144l-309 498l-307 -498h-138z" />
<glyph unicode="y" horiz-adv-x="958" d="M31 1071h129l323 -983l318 983h125l-367 -1075q-43 -125 -94 -205t-133 -132t-211 -77l-12 92q106 27 166.5 66t96.5 97.5t72 162.5h-41z" />
<glyph unicode="z" horiz-adv-x="864" d="M57 0v92l598 877h-549v102h689v-92l-598 -877h594l-13 -102h-721z" />
<glyph unicode="{" horiz-adv-x="667" d="M90 664v102q80 0 118 35t38 117v522q0 135 69.5 195.5t221.5 60.5v-92q-96 0 -137.5 -38t-41.5 -122v-520q0 -100 -36.5 -143.5t-118.5 -65.5q84 -23 119.5 -65t35.5 -144v-518q0 -84 41 -122t138 -38v-92q-152 0 -221.5 60.5t-69.5 195.5v522q0 80 -38 115t-118 35z" />
<glyph unicode="|" horiz-adv-x="833" d="M360 -205v1852h111v-1852h-111z" />
<glyph unicode="}" horiz-adv-x="667" d="M131 -172q96 0 137 38t41 122v518q0 102 36 144t120 65q-82 23 -119 65.5t-37 143.5v520q0 84 -41 122t-137 38v92q150 0 220.5 -60.5t70.5 -195.5v-522q0 -82 38 -117t118 -35v-102q-80 0 -118 -35t-38 -115v-522q0 -135 -70.5 -195.5t-220.5 -60.5v92z" />
<glyph unicode="~" horiz-adv-x="966" d="M104 604q45 74 97.5 115t130.5 41q47 0 89 -17.5t95 -50.5q49 -27 75.5 -39t55.5 -12q45 0 76 22.5t63 67.5l74 -41q-43 -70 -93 -109.5t-128 -39.5q-47 0 -89 17t-97 50q-45 27 -73 39t-56 12q-45 0 -78 -24.5t-66 -71.5z" />
<glyph unicode="&#xa1;" horiz-adv-x="491" d="M147 874q0 41 28 70t71 29t70.5 -29t27.5 -70t-27.5 -68.5t-70.5 -27.5t-71 28t-28 68zM184 -403l11 913h106l10 -913h-127z" />
<glyph unicode="&#xa2;" horiz-adv-x="960" d="M131 528q0 242 109.5 393.5t294.5 170.5v301h102v-301q141 -12 250 -107l-60 -78q-53 43 -109 63.5t-128 20.5q-152 0 -242 -117.5t-90 -343.5q0 -223 89 -335.5t241 -112.5q72 0 130 22.5t118 67.5l57 -80q-115 -98 -256 -112v-287h-105v287q-184 18 -292.5 162.5 t-108.5 385.5z" />
<glyph unicode="&#xa3;" horiz-adv-x="1042" d="M104 0v98q98 43 134 94.5t36 155.5v330h-133v88h133v258q0 158 92.5 259t260.5 101q104 0 184 -36.5t147 -116.5l-79 -64q-53 61 -110.5 89t-137.5 28q-115 0 -176.5 -70.5t-61.5 -191.5v-256h438v-88h-438v-328q0 -100 -30.5 -153.5t-106.5 -92.5h672l-15 -104h-809z " />
<glyph unicode="&#xa4;" horiz-adv-x="1146" d="M100 283l166 161q-82 106 -82 254q0 145 80 250l-164 164l74 74l164 -164q100 74 235 74q137 0 238 -72l164 162l72 -74l-160 -160q82 -106 82 -254q0 -152 -84 -258l162 -157l-74 -74l-162 162q-100 -72 -238 -72q-137 0 -235 76l-166 -166zM299 698q0 -139 71.5 -221 t204.5 -82q136 0 207.5 82t71.5 221t-71.5 221t-207.5 82q-133 0 -204.5 -81.5t-71.5 -221.5z" />
<glyph unicode="&#xa5;" horiz-adv-x="1048" d="M27 1362h135l366 -639l365 639h129l-399 -670h241v-88h-278v-211h278v-88h-278v-305h-121v305h-279v88h279v211h-279v88h240z" />
<glyph unicode="&#xa6;" horiz-adv-x="833" d="M360 -205v742h111v-742h-111zM360 907v740h111v-740h-111z" />
<glyph unicode="&#xa7;" horiz-adv-x="1089" d="M172 649q0 74 42 139.5t120 114.5q-59 39 -85 86t-26 117q0 125 96.5 200.5t245.5 75.5q100 0 175 -25.5t149 -74.5l-49 -80q-68 43 -131.5 62.5t-143.5 19.5q-102 0 -162.5 -48t-60.5 -124q0 -53 21.5 -88t78 -65.5t166.5 -67.5q168 -57 240 -123t72 -176 q0 -145 -158 -250q57 -37 83.5 -85t26.5 -118q0 -127 -100 -202.5t-258 -75.5q-182 0 -334 96l51 84q63 -41 132 -61.5t155 -20.5q106 0 170 47t64 123q0 55 -19.5 89t-73 63.5t-161.5 66.5q-123 41 -191.5 79t-101.5 90t-33 132zM289 662q0 -58 20.5 -94t71.5 -64.5 t151 -63.5q104 -37 154 -59q61 45 89 93t28 104q0 55 -18.5 91t-70.5 67.5t-153 66.5q-88 31 -153 61q-119 -92 -119 -202z" />
<glyph unicode="&#xa8;" horiz-adv-x="673" d="M62 1438q0 35 23.5 58.5t58.5 23.5q34 0 57.5 -23.5t23.5 -58.5t-23.5 -57.5t-57.5 -22.5q-35 0 -58.5 22.5t-23.5 57.5zM449 1438q0 35 23.5 58.5t58.5 23.5q34 0 58 -23.5t24 -58.5t-24 -57.5t-58 -22.5q-35 0 -58.5 22.5t-23.5 57.5z" />
<glyph unicode="&#xa9;" horiz-adv-x="1658" d="M221 891q0 176 80 317.5t219 220t309 78.5t309.5 -78.5t219.5 -219t80 -318.5q0 -176 -80 -317.5t-219.5 -220.5t-309.5 -79t-309 79t-219 219.5t-80 318.5zM313 891q0 -158 66.5 -280t184.5 -189.5t267 -67.5q147 0 264 67.5t184 190.5t67 279q0 158 -67 279.5 t-183.5 189t-264.5 67.5q-147 0 -266 -67.5t-185.5 -190t-66.5 -278.5zM530 893q0 121 42 204t111 124t148 41q66 0 115 -17.5t96 -54.5l-49 -68q-37 27 -73.5 39.5t-83.5 12.5q-84 0 -142.5 -67t-58.5 -214q0 -141 55 -212t148 -71q51 0 91 15.5t81 44.5l45 -68 q-98 -82 -221 -82q-137 0 -220.5 98.5t-83.5 274.5z" />
<glyph unicode="&#xaa;" horiz-adv-x="1024" d="M162 803q0 127 96 195.5t264 68.5h156v70q0 92 -44 132t-147 40q-100 0 -231 -45l-31 86q147 53 275 53q152 0 223.5 -64.5t71.5 -193.5v-377q0 -61 16 -87t51 -40l-24 -80q-61 10 -95 41t-47 88q-92 -129 -266 -129q-125 0 -196.5 65.5t-71.5 176.5zM164 0v104h727v-104 h-727zM285 809q0 -76 44 -116t124 -40q147 0 225 135v197h-139q-254 0 -254 -176z" />
<glyph unicode="&#xab;" horiz-adv-x="1136" d="M145 549v80l336 436l74 -51l-281 -424l281 -426l-74 -49zM581 549v80l336 436l74 -51l-281 -424l281 -426l-74 -49z" />
<glyph unicode="&#xac;" horiz-adv-x="1021" d="M141 606v105h740v-367h-113v262h-627z" />
<glyph unicode="&#xad;" horiz-adv-x="821" d="M139 590v102h543v-102h-543z" />
<glyph unicode="&#xae;" horiz-adv-x="1308" d="M164 1014q0 135 65.5 248.5t177 180t246.5 66.5q138 0 250.5 -64.5t178 -177t65.5 -249.5q0 -135 -65.5 -248t-178 -178.5t-250.5 -65.5q-135 0 -247.5 64.5t-177 176.5t-64.5 247zM246 1014q0 -117 54 -212t147.5 -148.5t205.5 -53.5q115 0 209 55.5t148.5 150.5 t54.5 212q0 119 -53.5 214t-147.5 148.5t-211 53.5q-113 0 -206 -55.5t-147 -152t-54 -212.5zM483 745v558h142q233 0 233 -166q0 -115 -131 -150l152 -242h-103l-131 228h-76v-228h-86zM569 1044h80q121 0 121 93q0 51 -32.5 72.5t-100.5 21.5h-68v-187z" />
<glyph unicode="&#xaf;" horiz-adv-x="616" d="M61 1384v97h494v-97h-494z" />
<glyph unicode="&#xb0;" horiz-adv-x="1067" d="M141 1118q0 92 43 162t114 107.5t151 37.5q84 0 154.5 -36.5t112.5 -107.5t42 -165q0 -92 -42 -161.5t-113 -107.5t-154 -38q-80 0 -151 37t-114 107.5t-43 164.5zM246 1118q0 -100 58 -159.5t145 -59.5q90 0 146 58.5t56 158.5q0 102 -56 160.5t-146 58.5 q-86 0 -144.5 -58t-58.5 -159z" />
<glyph unicode="&#xb1;" horiz-adv-x="1009" d="M141 0v104h727v-104h-727zM141 647v102h308v311h112v-311h307v-102h-307v-312h-112v312h-308z" />
<glyph unicode="&#xb2;" horiz-adv-x="819" d="M135 1395q55 66 121 96.5t147 30.5q117 0 186.5 -65.5t69.5 -165.5q0 -78 -34.5 -146.5t-110.5 -152.5t-238 -242h408l-14 -88h-516v84q176 176 254.5 262t110.5 147.5t32 127.5q0 72 -42 111.5t-114 39.5q-59 0 -103 -22.5t-85 -69.5z" />
<glyph unicode="&#xb3;" horiz-adv-x="819" d="M129 760l64 58q84 -86 194 -86q92 0 142.5 47t50.5 125q0 164 -187 164h-61l14 79h41q72 0 122 39t50 115q0 66 -43 102.5t-115 36.5q-55 0 -100 -18.5t-94 -59.5l-55 64q57 49 118.5 73.5t137.5 24.5q118 0 188 -59.5t70 -153.5q0 -80 -48.5 -131t-128.5 -67 q86 -4 142.5 -59.5t56.5 -151.5q0 -113 -80 -184.5t-215 -71.5q-160 0 -264 114z" />
<glyph unicode="&#xb4;" horiz-adv-x="561" d="M61 1391l385 211l54 -107l-400 -174z" />
<glyph unicode="&#xb5;" horiz-adv-x="1198" d="M217 -416v1487h119v-764q0 -117 55 -171t146 -54q195 0 311 242v747h119v-709q0 -205 55 -366l-109 -14q-25 61 -36 109t-17 118q-127 -231 -323 -232q-84 0 -137.5 33t-86.5 96q23 -119 23 -270v-239z" />
<glyph unicode="&#xb6;" horiz-adv-x="1449" d="M207 1004q0 190 125 294.5t350 104.5h459v-1806l-111 -19v1727h-262v-1708l-111 -19v1024q-233 8 -341.5 117.5t-108.5 284.5z" />
<glyph unicode="&#xb7;" horiz-adv-x="423" d="M113 653q0 41 28.5 69t69.5 28q43 0 70.5 -28t27.5 -69q0 -43 -27.5 -70.5t-70.5 -27.5q-41 0 -69.5 28.5t-28.5 69.5z" />
<glyph unicode="&#xb8;" horiz-adv-x="501" d="M62 -422l37 74q55 -31 124 -31q49 0 81 22.5t32 69.5q0 45 -44 67.5t-138 22.5l20 230h78v-164q96 -8 142.5 -49t46.5 -107q0 -84 -61.5 -131t-153.5 -47q-98 0 -164 43z" />
<glyph unicode="&#xb9;" horiz-adv-x="819" d="M166 1348l272 162h90v-848h-104v735l-211 -123z" />
<glyph unicode="&#xba;" horiz-adv-x="1024" d="M139 981q0 195 99.5 308.5t271.5 113.5q174 0 272.5 -109.5t98.5 -308.5q0 -197 -99.5 -310.5t-273.5 -113.5q-172 0 -270.5 111.5t-98.5 308.5zM145 0v104h727v-104h-727zM262 981q0 -160 64.5 -243t183.5 -83t183.5 83t64.5 247q0 162 -63.5 243t-182.5 81t-184.5 -83 t-65.5 -245z" />
<glyph unicode="&#xbb;" horiz-adv-x="1118" d="M145 164l283 426l-283 424l74 51l336 -436v-80l-336 -434zM563 164l283 426l-283 424l74 51l336 -436v-80l-336 -434z" />
<glyph unicode="&#xbc;" horiz-adv-x="1871" d="M166 1241l272 162h90v-848h-104v735l-211 -123zM477 -104l836 1634l81 -39l-833 -1636zM1159 211v76l267 575l90 -35l-246 -530h277l10 235h92v-235h115v-86h-115v-211h-102v211h-388z" />
<glyph unicode="&#xbd;" horiz-adv-x="1871" d="M166 1241l272 162h90v-848h-104v735l-211 -123zM477 -104l836 1634l81 -39l-833 -1636zM1188 733q55 66 121 96.5t147 30.5q117 0 186.5 -65.5t69.5 -165.5q0 -78 -34.5 -146.5t-110.5 -152.5t-238 -242h408l-14 -88h-516v84q176 176 254.5 262t110.5 147.5t32 127.5 q0 72 -42 111.5t-114 39.5q-59 0 -103 -22.5t-85 -69.5z" />
<glyph unicode="&#xbe;" horiz-adv-x="1871" d="M129 653l64 58q84 -86 194 -86q92 0 142.5 47t50.5 125q0 164 -187 164h-61l14 79h41q72 0 122 39t50 115q0 66 -43 102.5t-115 36.5q-55 0 -100 -18.5t-94 -59.5l-55 64q57 49 118.5 73.5t137.5 24.5q118 0 188 -59.5t70 -153.5q0 -80 -48.5 -131t-128.5 -67 q86 -4 142.5 -59.5t56.5 -151.5q0 -113 -80 -184.5t-215 -71.5q-160 0 -264 114zM477 -104l836 1634l81 -39l-833 -1636zM1159 211v76l267 575l90 -35l-246 -530h277l10 235h92v-235h115v-86h-115v-211h-102v211h-388z" />
<glyph unicode="&#xbf;" horiz-adv-x="915" d="M84 -131q0 76 26.5 130t66.5 89t104 78q88 61 132 112.5t44 139.5v92h116v-100q0 -80 -27.5 -136.5t-67.5 -92.5t-103 -79q-84 -55 -125 -103t-41 -126q0 -86 63.5 -140.5t169.5 -54.5q90 0 164 37t144 117l84 -65q-86 -96 -181.5 -142.5t-216.5 -46.5q-108 0 -188 41 t-122 107.5t-42 142.5zM414 874q0 43 27.5 71t70.5 28q41 0 68.5 -29t27.5 -70t-27.5 -68.5t-68.5 -27.5q-43 0 -70.5 28t-27.5 68z" />
<glyph unicode="&#xc0;" horiz-adv-x="1157" d="M33 0l469 1403h153l467 -1403h-129l-123 383h-589l-123 -383h-125zM315 487h523l-260 816zM350 1712l54 107l385 -197l-33 -70z" />
<glyph unicode="&#xc1;" horiz-adv-x="1157" d="M33 0l469 1403h153l467 -1403h-129l-123 383h-589l-123 -383h-125zM315 487h523l-260 816zM360 1622l385 197l54 -107l-406 -160z" />
<glyph unicode="&#xc2;" horiz-adv-x="1157" d="M33 0l469 1403h153l467 -1403h-129l-123 383h-589l-123 -383h-125zM276 1622l267 209h73l265 -209l-54 -61l-247 163l-250 -163zM315 487h523l-260 816z" />
<glyph unicode="&#xc3;" horiz-adv-x="1157" d="M33 0l469 1403h153l467 -1403h-129l-123 383h-589l-123 -383h-125zM270 1671q76 139 189 139q35 0 64.5 -12t66.5 -37q37 -23 59.5 -33t48.5 -10q33 0 58.5 20.5t56.5 67.5l74 -37q-72 -147 -189 -147q-37 0 -67.5 13.5t-75.5 39.5q-33 20 -54.5 30.5t-41.5 10.5 q-35 0 -60.5 -19.5t-54.5 -62.5zM315 487h523l-260 816z" />
<glyph unicode="&#xc4;" horiz-adv-x="1157" d="M33 0l469 1403h153l467 -1403h-129l-123 383h-589l-123 -383h-125zM303 1696q0 35 23.5 58.5t58.5 23.5q34 0 57.5 -23.5t23.5 -58.5t-23.5 -57.5t-57.5 -22.5q-35 0 -58.5 22.5t-23.5 57.5zM315 487h523l-260 816zM690 1696q0 35 23.5 58.5t58.5 23.5q34 0 58 -23.5 t24 -58.5t-24 -57.5t-58 -22.5q-35 0 -58.5 22.5t-23.5 57.5z" />
<glyph unicode="&#xc5;" horiz-adv-x="1157" d="M33 0l469 1403h153l467 -1403h-129l-123 383h-589l-123 -383h-125zM315 487h523l-260 816zM377 1747q0 84 56.5 138t146.5 54q88 0 144.5 -54t56.5 -138t-56.5 -138.5t-144.5 -54.5q-90 0 -146.5 54.5t-56.5 138.5zM465 1747q0 -57 30 -88t85 -31q53 0 82.5 31t29.5 88 q0 55 -29.5 87t-82.5 32q-55 0 -85 -32t-30 -87z" />
<glyph unicode="&#xc6;" horiz-adv-x="1605" d="M0 0l547 1403h866l-14 -103h-666l135 -524h529v-100h-502l147 -574h467v-102h-565l-94 377h-584l-143 -377h-123zM305 481h518l-205 824z" />
<glyph unicode="&#xc7;" horiz-adv-x="1126" d="M135 702q0 231 76 394.5t204 246t287 82.5q117 0 198 -31.5t163 -97.5l-66 -82q-72 57 -137 82t-149 25q-199 0 -323 -151.5t-124 -467.5q0 -205 57.5 -344t157 -205.5t226.5 -66.5q100 0 169.5 29.5t141.5 87.5l63 -80q-137 -135 -346 -146v-108q96 -8 142.5 -49 t46.5 -107q0 -84 -61.5 -131t-153.5 -47q-98 0 -164 43l37 74q55 -31 125 -31q49 0 80.5 22.5t31.5 69.5q0 45 -44 67.5t-138 22.5l16 177q-152 12 -268.5 99t-182 245.5t-65.5 377.5z" />
<glyph unicode="&#xc8;" horiz-adv-x="1048" d="M227 0v1403h713l-14 -103h-576v-522h498v-102h-498v-574h604v-102h-727zM362 1712l54 107l385 -197l-33 -70z" />
<glyph unicode="&#xc9;" horiz-adv-x="1048" d="M227 0v1403h713l-14 -103h-576v-522h498v-102h-498v-574h604v-102h-727zM372 1622l385 197l54 -107l-406 -160z" />
<glyph unicode="&#xca;" horiz-adv-x="1048" d="M227 0v1403h713l-14 -103h-576v-522h498v-102h-498v-574h604v-102h-727zM288 1622l267 209h73l265 -209l-54 -61l-247 163l-250 -163z" />
<glyph unicode="&#xcb;" horiz-adv-x="1048" d="M227 0v1403h713l-14 -103h-576v-522h498v-102h-498v-574h604v-102h-727zM316 1696q0 35 23.5 58.5t58.5 23.5q34 0 57.5 -23.5t23.5 -58.5t-23.5 -57.5t-57.5 -22.5q-35 0 -58.5 22.5t-23.5 57.5zM703 1696q0 35 23.5 58.5t58.5 23.5q34 0 58 -23.5t24 -58.5t-24 -57.5 t-58 -22.5q-35 0 -58.5 22.5t-23.5 57.5z" />
<glyph unicode="&#xcc;" horiz-adv-x="577" d="M57 1712l54 107l385 -197l-33 -70zM227 0v1403h123v-1403h-123z" />
<glyph unicode="&#xcd;" horiz-adv-x="577" d="M67 1622l385 197l54 -107l-406 -160zM227 0v1403h123v-1403h-123z" />
<glyph unicode="&#xce;" horiz-adv-x="577" d="M-17 1622l267 209h73l265 -209l-54 -61l-247 163l-250 -163zM227 0v1403h123v-1403h-123z" />
<glyph unicode="&#xcf;" horiz-adv-x="577" d="M11 1696q0 35 23.5 58.5t58.5 23.5q34 0 57.5 -23.5t23.5 -58.5t-23.5 -57.5t-57.5 -22.5q-35 0 -58.5 22.5t-23.5 57.5zM227 0v1403h123v-1403h-123zM398 1696q0 35 23.5 58.5t58.5 23.5q34 0 58 -23.5t24 -58.5t-24 -57.5t-58 -22.5q-35 0 -58.5 22.5t-23.5 57.5z" />
<glyph unicode="&#xd0;" horiz-adv-x="1304" d="M47 672v98h191v633h278q291 0 472 -147.5t181 -542.5t-183 -554t-447 -159h-301v672h-191zM360 102h187q493 1 493 611q0 242 -71.5 370.5t-181 172.5t-255.5 44h-172v-530h359v-98h-359v-570z" />
<glyph unicode="&#xd1;" horiz-adv-x="1378" d="M227 0v1403h158l666 -1268q-16 238 -17 416v852h117v-1403h-162l-661 1268q16 -256 16 -484v-784h-117zM397 1671q76 139 189 139q35 0 64.5 -12t66.5 -37q37 -23 59.5 -33t48.5 -10q33 0 58.5 20.5t56.5 67.5l74 -37q-72 -147 -189 -147q-37 0 -67.5 13.5t-75.5 39.5 q-33 20 -54.5 30.5t-41.5 10.5q-35 0 -60.5 -19.5t-54.5 -62.5z" />
<glyph unicode="&#xd2;" horiz-adv-x="1415" d="M135 698q0 227 72 391t202 250t298 86q172 0 301 -82.5t200.5 -246.5t71.5 -396q0 -227 -70.5 -390t-199.5 -248t-303 -85q-170 0 -299 84t-201 246t-72 391zM264 698q0 -305 120 -460.5t323 -155.5q211 0 327.5 154.5t116.5 463.5q0 311 -118 466t-326 155 q-205 0 -324 -156.5t-119 -466.5zM477 1712l54 107l385 -197l-33 -70z" />
<glyph unicode="&#xd3;" horiz-adv-x="1415" d="M135 698q0 227 72 391t202 250t298 86q172 0 301 -82.5t200.5 -246.5t71.5 -396q0 -227 -70.5 -390t-199.5 -248t-303 -85q-170 0 -299 84t-201 246t-72 391zM264 698q0 -305 120 -460.5t323 -155.5q211 0 327.5 154.5t116.5 463.5q0 311 -118 466t-326 155 q-205 0 -324 -156.5t-119 -466.5zM487 1622l385 197l54 -107l-406 -160z" />
<glyph unicode="&#xd4;" horiz-adv-x="1415" d="M135 698q0 227 72 391t202 250t298 86q172 0 301 -82.5t200.5 -246.5t71.5 -396q0 -227 -70.5 -390t-199.5 -248t-303 -85q-170 0 -299 84t-201 246t-72 391zM264 698q0 -305 120 -460.5t323 -155.5q211 0 327.5 154.5t116.5 463.5q0 311 -118 466t-326 155 q-205 0 -324 -156.5t-119 -466.5zM403 1622l267 209h73l265 -209l-54 -61l-247 163l-250 -163z" />
<glyph unicode="&#xd5;" horiz-adv-x="1415" d="M135 698q0 227 72 391t202 250t298 86q172 0 301 -82.5t200.5 -246.5t71.5 -396q0 -227 -70.5 -390t-199.5 -248t-303 -85q-170 0 -299 84t-201 246t-72 391zM264 698q0 -305 120 -460.5t323 -155.5q211 0 327.5 154.5t116.5 463.5q0 311 -118 466t-326 155 q-205 0 -324 -156.5t-119 -466.5zM397 1671q76 139 189 139q35 0 64.5 -12t66.5 -37q37 -23 59.5 -33t48.5 -10q33 0 58.5 20.5t56.5 67.5l74 -37q-72 -147 -189 -147q-37 0 -67.5 13.5t-75.5 39.5q-33 20 -54.5 30.5t-41.5 10.5q-35 0 -60.5 -19.5t-54.5 -62.5z" />
<glyph unicode="&#xd6;" horiz-adv-x="1415" d="M135 698q0 227 72 391t202 250t298 86q172 0 301 -82.5t200.5 -246.5t71.5 -396q0 -227 -70.5 -390t-199.5 -248t-303 -85q-170 0 -299 84t-201 246t-72 391zM264 698q0 -305 120 -460.5t323 -155.5q211 0 327.5 154.5t116.5 463.5q0 311 -118 466t-326 155 q-205 0 -324 -156.5t-119 -466.5zM430 1696q0 35 23.5 58.5t58.5 23.5q34 0 57.5 -23.5t23.5 -58.5t-23.5 -57.5t-57.5 -22.5q-35 0 -58.5 22.5t-23.5 57.5zM817 1696q0 35 23.5 58.5t58.5 23.5q34 0 58 -23.5t24 -58.5t-24 -57.5t-58 -22.5q-35 0 -58.5 22.5t-23.5 57.5z " />
<glyph unicode="&#xd7;" horiz-adv-x="1009" d="M174 369l252 258l-252 262l76 76l252 -265l258 265l78 -76l-256 -258l256 -262l-78 -74l-252 262l-258 -262z" />
<glyph unicode="&#xd8;" horiz-adv-x="1415" d="M135 698q0 227 72 391t202 250t298 86q82 0 155 -18l72 252l108 -29l-81 -260q151 -76 235 -247t84 -423q0 -227 -70.5 -390t-199.5 -248t-303 -85q-86 0 -160 21l-66 -244l-108 31l80 250q-152 78 -235 247t-83 416zM264 698q0 -217 59.5 -357t170.5 -206l346 1168 q-61 18 -133 18q-205 0 -324 -156.5t-119 -466.5zM571 100q61 -18 136 -18q211 0 327.5 154.5t116.5 463.5q0 442 -233 572z" />
<glyph unicode="&#xd9;" horiz-adv-x="1335" d="M207 438v965h123v-954q0 -176 83 -270.5t255 -94.5t254 95t82 270v954h124v-965q0 -209 -118.5 -335t-341.5 -126q-225 0 -343 125t-118 336zM438 1712l54 107l385 -197l-33 -70z" />
<glyph unicode="&#xda;" horiz-adv-x="1335" d="M207 438v965h123v-954q0 -176 83 -270.5t255 -94.5t254 95t82 270v954h124v-965q0 -209 -118.5 -335t-341.5 -126q-225 0 -343 125t-118 336zM448 1622l385 197l54 -107l-406 -160z" />
<glyph unicode="&#xdb;" horiz-adv-x="1335" d="M207 438v965h123v-954q0 -176 83 -270.5t255 -94.5t254 95t82 270v954h124v-965q0 -209 -118.5 -335t-341.5 -126q-225 0 -343 125t-118 336zM364 1622l267 209h73l265 -209l-54 -61l-247 163l-250 -163z" />
<glyph unicode="&#xdc;" horiz-adv-x="1335" d="M207 438v965h123v-954q0 -176 83 -270.5t255 -94.5t254 95t82 270v954h124v-965q0 -209 -118.5 -335t-341.5 -126q-225 0 -343 125t-118 336zM392 1696q0 35 23.5 58.5t58.5 23.5q34 0 57.5 -23.5t23.5 -58.5t-23.5 -57.5t-57.5 -22.5q-35 0 -58.5 22.5t-23.5 57.5z M779 1696q0 35 23.5 58.5t58.5 23.5q34 0 58 -23.5t24 -58.5t-24 -57.5t-58 -22.5q-35 0 -58.5 22.5t-23.5 57.5z" />
<glyph unicode="&#xdd;" horiz-adv-x="1071" d="M27 1403h137l377 -746l370 746h131l-444 -854v-549h-123v547zM315 1622l385 197l54 -107l-406 -160z" />
<glyph unicode="&#xde;" horiz-adv-x="1167" d="M227 0v1403h123v-250h207q252 0 385 -104.5t133 -319.5q0 -233 -140 -341.5t-384 -108.5h-201v-279h-123zM350 381h201q190 0 292.5 77t102.5 269q0 174 -98 249t-293 75h-205v-670z" />
<glyph unicode="&#xdf;" horiz-adv-x="1191" d="M217 0v1106q0 199 104.5 307.5t280.5 108.5q150 0 243 -78t93 -197q0 -82 -37 -133t-104 -106q-51 -43 -75 -72t-24 -68q0 -47 35 -82.5t111 -87.5q78 -53 128 -97t86 -114.5t36 -169.5q0 -152 -94.5 -246t-239.5 -94q-111 0 -197 48l37 84q66 -31 152 -31 q100 0 159.5 63.5t59.5 177.5q0 76 -30 132.5t-71 93.5t-110 86q-88 59 -131 108t-43 123q0 59 28.5 97t85.5 83q61 51 91 91.5t30 107.5q0 86 -61.5 135t-159.5 49q-121 0 -192.5 -80.5t-71.5 -242.5v-1102h-119z" />
<glyph unicode="&#xe0;" d="M115 297q0 166 117.5 256t326.5 90h205v105q0 129 -57.5 187t-190.5 58q-123 0 -291 -61l-30 90q180 72 337 72q350 0 351 -340v-516q0 -84 21.5 -121t68.5 -56l-27 -84q-74 14 -113.5 55.5t-52.5 125.5q-111 -180 -334 -181q-154 0 -242.5 87.5t-88.5 232.5zM242 303 q0 -111 59 -170t166 -59q193 0 297 188v295h-186q-164 0 -250 -63.5t-86 -190.5zM317 1495l54 107l385 -211l-37 -70z" />
<glyph unicode="&#xe1;" d="M115 297q0 166 117.5 256t326.5 90h205v105q0 129 -57.5 187t-190.5 58q-123 0 -291 -61l-30 90q180 72 337 72q350 0 351 -340v-516q0 -84 21.5 -121t68.5 -56l-27 -84q-74 14 -113.5 55.5t-52.5 125.5q-111 -180 -334 -181q-154 0 -242.5 87.5t-88.5 232.5zM242 303 q0 -111 59 -170t166 -59q193 0 297 188v295h-186q-164 0 -250 -63.5t-86 -190.5zM297 1391l385 211l54 -107l-400 -174z" />
<glyph unicode="&#xe2;" d="M115 297q0 166 117.5 256t326.5 90h205v105q0 129 -57.5 187t-190.5 58q-123 0 -291 -61l-30 90q180 72 337 72q350 0 351 -340v-516q0 -84 21.5 -121t68.5 -56l-27 -84q-74 14 -113.5 55.5t-52.5 125.5q-111 -180 -334 -181q-154 0 -242.5 87.5t-88.5 232.5zM225 1380 l265 215h73l267 -215l-54 -63l-250 174l-247 -174zM242 303q0 -111 59 -170t166 -59q193 0 297 188v295h-186q-164 0 -250 -63.5t-86 -190.5z" />
<glyph unicode="&#xe3;" d="M115 297q0 166 117.5 256t326.5 90h205v105q0 129 -57.5 187t-190.5 58q-123 0 -291 -61l-30 90q180 72 337 72q350 0 351 -340v-516q0 -84 21.5 -121t68.5 -56l-27 -84q-74 14 -113.5 55.5t-52.5 125.5q-111 -180 -334 -181q-154 0 -242.5 87.5t-88.5 232.5zM219 1413 q76 139 189 139q35 0 64.5 -12t66.5 -37q37 -23 59.5 -33t48.5 -10q33 0 58.5 20.5t56.5 67.5l74 -37q-72 -147 -189 -147q-37 0 -67.5 13.5t-75.5 39.5q-33 20 -54.5 30.5t-41.5 10.5q-35 0 -60.5 -19.5t-54.5 -62.5zM242 303q0 -111 59 -170t166 -59q193 0 297 188v295 h-186q-164 0 -250 -63.5t-86 -190.5z" />
<glyph unicode="&#xe4;" d="M115 297q0 166 117.5 256t326.5 90h205v105q0 129 -57.5 187t-190.5 58q-123 0 -291 -61l-30 90q180 72 337 72q350 0 351 -340v-516q0 -84 21.5 -121t68.5 -56l-27 -84q-74 14 -113.5 55.5t-52.5 125.5q-111 -180 -334 -181q-154 0 -242.5 87.5t-88.5 232.5zM242 303 q0 -111 59 -170t166 -59q193 0 297 188v295h-186q-164 0 -250 -63.5t-86 -190.5zM252 1438q0 35 23.5 58.5t58.5 23.5q34 0 57.5 -23.5t23.5 -58.5t-23.5 -57.5t-57.5 -22.5q-35 0 -58.5 22.5t-23.5 57.5zM639 1438q0 35 23.5 58.5t58.5 23.5q34 0 58 -23.5t24 -58.5 t-24 -57.5t-58 -22.5q-35 0 -58.5 22.5t-23.5 57.5z" />
<glyph unicode="&#xe5;" d="M115 297q0 166 117.5 256t326.5 90h205v105q0 129 -57.5 187t-190.5 58q-123 0 -291 -61l-30 90q180 72 337 72q350 0 351 -340v-516q0 -84 21.5 -121t68.5 -56l-27 -84q-74 14 -113.5 55.5t-52.5 125.5q-111 -180 -334 -181q-154 0 -242.5 87.5t-88.5 232.5zM242 303 q0 -111 59 -170t166 -59q193 0 297 188v295h-186q-164 0 -250 -63.5t-86 -190.5zM326 1489q0 84 56.5 138t146.5 54q88 0 144.5 -54t56.5 -138t-56.5 -138.5t-144.5 -54.5q-90 0 -146.5 54.5t-56.5 138.5zM414 1489q0 -57 30 -88t85 -31q53 0 82.5 31t29.5 88q0 55 -29.5 87 t-82.5 32q-55 0 -85 -32t-30 -87z" />
<glyph unicode="&#xe6;" horiz-adv-x="1734" d="M115 297q0 166 119.5 257t328.5 91h205v103q0 129 -58.5 187t-189.5 58q-123 0 -291 -61l-32 90q180 72 338 72q135 0 214.5 -52.5t112.5 -154.5q111 207 342 207q199 0 304.5 -138.5t105.5 -380.5q0 -45 -4 -86h-715q8 -209 97 -310t235 -101q84 0 149.5 25.5 t139.5 80.5l57 -75q-80 -66 -165 -99t-187 -33q-129 0 -226.5 56.5t-154.5 163.5q-82 -117 -175.5 -168.5t-213.5 -51.5q-156 0 -246 88.5t-90 231.5zM244 303q0 -111 59 -170t166 -59q102 0 179 50t153 165q-33 111 -33 235v33h-188q-162 0 -249 -64.5t-87 -189.5zM895 582 h600v30q0 180 -73.5 281.5t-219.5 101.5q-133 0 -216 -102t-91 -311z" />
<glyph unicode="&#xe7;" horiz-adv-x="960" d="M131 528q0 170 56.5 298t159 198t237.5 70q92 0 163.5 -26t139.5 -83l-60 -78q-53 43 -109 63.5t-128 20.5q-152 0 -242 -117.5t-90 -343.5q0 -223 89 -335.5t241 -112.5q72 0 130 22.5t118 67.5l57 -80q-121 -106 -283 -115v-108q97 -8 143 -49t46 -107 q0 -84 -61.5 -131t-153.5 -47q-98 0 -164 43l37 74q55 -31 125 -31q49 0 80.5 22.5t31.5 69.5q0 45 -44 67.5t-138 22.5l16 179q-184 20 -290.5 163.5t-106.5 382.5z" />
<glyph unicode="&#xe8;" d="M131 526q0 170 52.5 298t149.5 199t226 71q205 0 311.5 -138.5t106.5 -380.5q0 -45 -4 -86h-715q10 -209 99 -310t235 -101q84 0 148.5 25.5t140.5 80.5l55 -75q-80 -66 -164 -99t-186 -33q-213 0 -334 145.5t-121 403.5zM258 582h602v30q0 180 -74.5 281.5t-222.5 101.5 q-133 0 -215 -102t-90 -311zM354 1495l54 107l385 -211l-37 -70z" />
<glyph unicode="&#xe9;" d="M131 526q0 170 52.5 298t149.5 199t226 71q205 0 311.5 -138.5t106.5 -380.5q0 -45 -4 -86h-715q10 -209 99 -310t235 -101q84 0 148.5 25.5t140.5 80.5l55 -75q-80 -66 -164 -99t-186 -33q-213 0 -334 145.5t-121 403.5zM258 582h602v30q0 180 -74.5 281.5t-222.5 101.5 q-133 0 -215 -102t-90 -311zM334 1391l385 211l54 -107l-400 -174z" />
<glyph unicode="&#xea;" d="M131 526q0 170 52.5 298t149.5 199t226 71q205 0 311.5 -138.5t106.5 -380.5q0 -45 -4 -86h-715q10 -209 99 -310t235 -101q84 0 148.5 25.5t140.5 80.5l55 -75q-80 -66 -164 -99t-186 -33q-213 0 -334 145.5t-121 403.5zM258 582h602v30q0 180 -74.5 281.5t-222.5 101.5 q-133 0 -215 -102t-90 -311zM262 1380l265 215h73l267 -215l-54 -63l-250 174l-247 -174z" />
<glyph unicode="&#xeb;" d="M131 526q0 170 52.5 298t149.5 199t226 71q205 0 311.5 -138.5t106.5 -380.5q0 -45 -4 -86h-715q10 -209 99 -310t235 -101q84 0 148.5 25.5t140.5 80.5l55 -75q-80 -66 -164 -99t-186 -33q-213 0 -334 145.5t-121 403.5zM258 582h602v30q0 180 -74.5 281.5t-222.5 101.5 q-133 0 -215 -102t-90 -311zM289 1438q0 35 23.5 58.5t58.5 23.5q34 0 57.5 -23.5t23.5 -58.5t-23.5 -57.5t-57.5 -22.5q-35 0 -58.5 22.5t-23.5 57.5zM676 1438q0 35 23.5 58.5t58.5 23.5q34 0 58 -23.5t24 -58.5t-24 -57.5t-58 -22.5q-35 0 -58.5 22.5t-23.5 57.5z" />
<glyph unicode="&#xec;" horiz-adv-x="552" d="M65 1495l54 107l385 -211l-37 -70zM217 0v1071h119v-1071h-119z" />
<glyph unicode="&#xed;" horiz-adv-x="552" d="M45 1391l385 211l54 -107l-400 -174zM217 0v1071h119v-1071h-119z" />
<glyph unicode="&#xee;" horiz-adv-x="552" d="M-27 1380l265 215h73l267 -215l-54 -63l-250 174l-247 -174zM217 0v1071h119v-1071h-119z" />
<glyph unicode="&#xef;" horiz-adv-x="552" d="M0 1438q0 35 23.5 58.5t58.5 23.5q34 0 57.5 -23.5t23.5 -58.5t-23.5 -57.5t-57.5 -22.5q-35 0 -58.5 22.5t-23.5 57.5zM217 0v1071h119v-1071h-119zM387 1438q0 35 23.5 58.5t58.5 23.5q34 0 58 -23.5t24 -58.5t-24 -57.5t-58 -22.5q-35 0 -58.5 22.5t-23.5 57.5z" />
<glyph unicode="&#xf0;" horiz-adv-x="1138" d="M131 477q0 127 46 236.5t136 177t217 67.5q195 0 332 -163q-23 156 -87 275.5t-183 215.5l-158 -158l-86 39l164 170q-135 70 -250 93l27 94q158 -31 297 -113l141 150l72 -64l-135 -137q174 -131 253.5 -318.5t79.5 -468.5q0 -285 -118.5 -440.5t-319.5 -155.5 q-195 0 -311.5 134.5t-116.5 365.5zM254 479q0 -193 81 -298t224 -105q150 0 234 129t84 373q0 41 -5 98q-135 186 -325 186q-143 0 -218 -107.5t-75 -275.5z" />
<glyph unicode="&#xf1;" horiz-adv-x="1196" d="M217 0v1071h102l13 -182q66 96 156 150.5t202 54.5q146 0 222.5 -86t76.5 -242v-766h-119v750q0 129 -51 188t-151 59q-102 0 -181 -56t-151 -165v-776h-119zM299 1413q76 139 189 139q35 0 64.5 -12t66.5 -37q37 -23 59.5 -33t48.5 -10q33 0 58.5 20.5t56.5 67.5l74 -37 q-72 -147 -189 -147q-37 0 -67.5 13.5t-75.5 39.5q-33 20 -54.5 30.5t-41.5 10.5q-35 0 -60.5 -19.5t-54.5 -62.5z" />
<glyph unicode="&#xf2;" horiz-adv-x="1169" d="M131 535q0 170 55.5 296.5t157.5 194.5t242 68q213 0 332.5 -146.5t119.5 -408.5q0 -260 -121.5 -411t-332.5 -151q-213 0 -333 148.5t-120 409.5zM258 535q0 -223 85 -340t241 -117t242.5 116.5t86.5 344.5q0 223 -85 338.5t-242 115.5q-156 0 -242 -116.5t-86 -341.5z M374 1495l54 107l385 -211l-37 -70z" />
<glyph unicode="&#xf3;" horiz-adv-x="1169" d="M131 535q0 170 55.5 296.5t157.5 194.5t242 68q213 0 332.5 -146.5t119.5 -408.5q0 -260 -121.5 -411t-332.5 -151q-213 0 -333 148.5t-120 409.5zM258 535q0 -223 85 -340t241 -117t242.5 116.5t86.5 344.5q0 223 -85 338.5t-242 115.5q-156 0 -242 -116.5t-86 -341.5z M354 1391l385 211l54 -107l-400 -174z" />
<glyph unicode="&#xf4;" horiz-adv-x="1169" d="M131 535q0 170 55.5 296.5t157.5 194.5t242 68q213 0 332.5 -146.5t119.5 -408.5q0 -260 -121.5 -411t-332.5 -151q-213 0 -333 148.5t-120 409.5zM258 535q0 -223 85 -340t241 -117t242.5 116.5t86.5 344.5q0 223 -85 338.5t-242 115.5q-156 0 -242 -116.5t-86 -341.5z M282 1380l265 215h73l267 -215l-54 -63l-250 174l-247 -174z" />
<glyph unicode="&#xf5;" horiz-adv-x="1169" d="M131 535q0 170 55.5 296.5t157.5 194.5t242 68q213 0 332.5 -146.5t119.5 -408.5q0 -260 -121.5 -411t-332.5 -151q-213 0 -333 148.5t-120 409.5zM258 535q0 -223 85 -340t241 -117t242.5 116.5t86.5 344.5q0 223 -85 338.5t-242 115.5q-156 0 -242 -116.5t-86 -341.5z M276 1413q76 139 189 139q35 0 64.5 -12t66.5 -37q37 -23 59.5 -33t48.5 -10q33 0 58.5 20.5t56.5 67.5l74 -37q-72 -147 -189 -147q-37 0 -67.5 13.5t-75.5 39.5q-33 20 -54.5 30.5t-41.5 10.5q-35 0 -60.5 -19.5t-54.5 -62.5z" />
<glyph unicode="&#xf6;" horiz-adv-x="1169" d="M131 535q0 170 55.5 296.5t157.5 194.5t242 68q213 0 332.5 -146.5t119.5 -408.5q0 -260 -121.5 -411t-332.5 -151q-213 0 -333 148.5t-120 409.5zM258 535q0 -223 85 -340t241 -117t242.5 116.5t86.5 344.5q0 223 -85 338.5t-242 115.5q-156 0 -242 -116.5t-86 -341.5z M310 1438q0 35 23.5 58.5t58.5 23.5q34 0 57.5 -23.5t23.5 -58.5t-23.5 -57.5t-57.5 -22.5q-35 0 -58.5 22.5t-23.5 57.5zM697 1438q0 35 23.5 58.5t58.5 23.5q34 0 58 -23.5t24 -58.5t-24 -57.5t-58 -22.5q-35 0 -58.5 22.5t-23.5 57.5z" />
<glyph unicode="&#xf7;" horiz-adv-x="1009" d="M141 627v104h727v-104h-727zM408 232q0 41 28.5 68.5t69.5 27.5q43 0 70.5 -27.5t27.5 -68.5q0 -43 -27.5 -71t-70.5 -28q-41 0 -69.5 29t-28.5 70zM408 1129q0 41 28.5 68.5t69.5 27.5q43 0 70.5 -27.5t27.5 -68.5q0 -43 -27.5 -71t-70.5 -28q-41 0 -69.5 29t-28.5 70z " />
<glyph unicode="&#xf8;" horiz-adv-x="1169" d="M131 535q0 170 55.5 296.5t157.5 194.5t242 68q68 0 129 -17l80 250l100 -29l-84 -260q111 -61 169 -189t58 -310q0 -260 -121.5 -411t-332.5 -151q-63 0 -125 17l-84 -250l-101 29l88 258q-111 63 -171 193t-60 311zM258 535q0 -308 150 -410l282 854q-43 14 -104 14 q-156 0 -242 -116.5t-86 -341.5zM483 90q47 -12 101 -12q155 0 242 116.5t87 344.5q0 305 -147 405z" />
<glyph unicode="&#xf9;" horiz-adv-x="1185" d="M207 305v766h119v-754q0 -125 52 -183t159 -58q186 0 313 219v776h119v-1071h-103l-6 190q-127 -213 -350 -213q-145 0 -224 85t-79 243zM377 1495l54 107l385 -211l-37 -70z" />
<glyph unicode="&#xfa;" horiz-adv-x="1185" d="M207 305v766h119v-754q0 -125 52 -183t159 -58q186 0 313 219v776h119v-1071h-103l-6 190q-127 -213 -350 -213q-145 0 -224 85t-79 243zM356 1391l385 211l54 -107l-400 -174z" />
<glyph unicode="&#xfb;" horiz-adv-x="1185" d="M207 305v766h119v-754q0 -125 52 -183t159 -58q186 0 313 219v776h119v-1071h-103l-6 190q-127 -213 -350 -213q-145 0 -224 85t-79 243zM284 1380l265 215h73l267 -215l-54 -63l-250 174l-247 -174z" />
<glyph unicode="&#xfc;" horiz-adv-x="1185" d="M207 305v766h119v-754q0 -125 52 -183t159 -58q186 0 313 219v776h119v-1071h-103l-6 190q-127 -213 -350 -213q-145 0 -224 85t-79 243zM312 1438q0 35 23.5 58.5t58.5 23.5q34 0 57.5 -23.5t23.5 -58.5t-23.5 -57.5t-57.5 -22.5q-35 0 -58.5 22.5t-23.5 57.5zM699 1438 q0 35 23.5 58.5t58.5 23.5q34 0 58 -23.5t24 -58.5t-24 -57.5t-58 -22.5q-35 0 -58.5 22.5t-23.5 57.5z" />
<glyph unicode="&#xfd;" horiz-adv-x="958" d="M31 1071h129l323 -983l318 983h125l-367 -1075q-43 -125 -94 -205t-133 -132t-211 -77l-12 92q106 27 166.5 66t96.5 97.5t72 162.5h-41zM248 1391l385 211l54 -107l-400 -174z" />
<glyph unicode="&#xfe;" horiz-adv-x="1189" d="M217 -420v1927l119 15v-598q59 82 141 126t182 44q195 0 292.5 -144.5t97.5 -408.5q0 -258 -105.5 -411t-302.5 -153q-96 0 -174 40t-131 108v-524zM336 242q106 -164 282 -164q148 0 226 116.5t78 346.5q0 455 -285 454q-96 0 -167 -49t-134 -135v-569z" />
<glyph unicode="&#xff;" horiz-adv-x="958" d="M31 1071h129l323 -983l318 983h125l-367 -1075q-43 -125 -94 -205t-133 -132t-211 -77l-12 92q106 27 166.5 66t96.5 97.5t72 162.5h-41zM203 1438q0 35 23.5 58.5t58.5 23.5q34 0 57.5 -23.5t23.5 -58.5t-23.5 -57.5t-57.5 -22.5q-35 0 -58.5 22.5t-23.5 57.5zM590 1438 q0 35 23.5 58.5t58.5 23.5q34 0 58 -23.5t24 -58.5t-24 -57.5t-58 -22.5q-35 0 -58.5 22.5t-23.5 57.5z" />
<glyph unicode="&#x152;" horiz-adv-x="1781" d="M135 698q0 225 70.5 390t195.5 251t283 86q76 0 147 -22h842l-14 -103h-649q100 -80 159.5 -212t67.5 -310h344v-102h-342q-4 -197 -65.5 -343.5t-172.5 -230.5h687v-102h-863q-68 -23 -141 -23q-160 0 -284 84t-194.5 247t-70.5 390zM264 698q0 -202 54.5 -341.5 t149.5 -207t218 -67.5q197 0 310.5 157.5t113.5 471.5q0 301 -114.5 455.5t-309.5 154.5q-190 0 -306 -157.5t-116 -465.5z" />
<glyph unicode="&#x153;" horiz-adv-x="1880" d="M131 535q0 170 55.5 296.5t157.5 194.5t242 68q139 0 238.5 -69t152.5 -196q53 125 147.5 195t221.5 70q201 0 307 -138.5t106 -380.5q0 -45 -4 -86h-717q10 -209 99.5 -310t234.5 -101q84 0 149.5 25.5t139.5 80.5l55 -75q-78 -66 -163 -99t-187 -33q-139 0 -238.5 70 t-154.5 199q-55 -129 -153.5 -199t-235.5 -70q-213 0 -333 148.5t-120 409.5zM258 535q0 -223 85 -340t241 -117q155 0 242 116.5t87 344.5q0 223 -85 338.5t-242 115.5q-156 0 -242 -116.5t-86 -341.5zM1038 582h602v30q0 180 -73.5 281.5t-216.5 101.5q-135 0 -219 -102 t-93 -311z" />
<glyph unicode="&#x178;" horiz-adv-x="1071" d="M27 1403h137l377 -746l370 746h131l-444 -854v-549h-123v547zM258 1696q0 35 23.5 58.5t58.5 23.5q34 0 57.5 -23.5t23.5 -58.5t-23.5 -57.5t-57.5 -22.5q-35 0 -58.5 22.5t-23.5 57.5zM645 1696q0 35 23.5 58.5t58.5 23.5q34 0 58 -23.5t24 -58.5t-24 -57.5t-58 -22.5 q-35 0 -58.5 22.5t-23.5 57.5z" />
<glyph unicode="&#x2c6;" horiz-adv-x="727" d="M61 1380l265 215h73l267 -215l-54 -63l-250 174l-247 -174z" />
<glyph unicode="&#x2dc;" horiz-adv-x="739" d="M61 1413q76 139 189 139q35 0 64.5 -12t66.5 -37q37 -23 59.5 -33t48.5 -10q33 0 58.5 20.5t56.5 67.5l74 -37q-72 -147 -189 -147q-37 0 -67.5 13.5t-75.5 39.5q-33 20 -54.5 30.5t-41.5 10.5q-35 0 -60.5 -19.5t-54.5 -62.5z" />
<glyph unicode="&#x2000;" horiz-adv-x="969" />
<glyph unicode="&#x2001;" horiz-adv-x="1939" />
<glyph unicode="&#x2002;" horiz-adv-x="969" />
<glyph unicode="&#x2003;" horiz-adv-x="1939" />
<glyph unicode="&#x2004;" horiz-adv-x="646" />
<glyph unicode="&#x2005;" horiz-adv-x="484" />
<glyph unicode="&#x2006;" horiz-adv-x="323" />
<glyph unicode="&#x2007;" horiz-adv-x="323" />
<glyph unicode="&#x2008;" horiz-adv-x="242" />
<glyph unicode="&#x2009;" horiz-adv-x="387" />
<glyph unicode="&#x200a;" horiz-adv-x="107" />
<glyph unicode="&#x2010;" horiz-adv-x="821" d="M139 590v102h543v-102h-543z" />
<glyph unicode="&#x2011;" horiz-adv-x="821" d="M139 590v102h543v-102h-543z" />
<glyph unicode="&#x2012;" horiz-adv-x="821" d="M139 590v102h543v-102h-543z" />
<glyph unicode="&#x2013;" horiz-adv-x="1064" d="M82 590v102h901v-102h-901z" />
<glyph unicode="&#x2014;" horiz-adv-x="1603" d="M82 590v102h1440v-102h-1440z" />
<glyph unicode="&#x2018;" horiz-adv-x="448" d="M125 1169q0 18 6 38t23 57l116 254h80l-78 -275q41 -25 41 -74q0 -37 -26.5 -63.5t-67.5 -26.5t-67.5 27t-26.5 63z" />
<glyph unicode="&#x2019;" horiz-adv-x="448" d="M98 1079l78 275q-41 25 -41 73q0 37 26.5 64t67.5 27q43 0 69 -26t26 -65q0 -18 -6.5 -37.5t-22.5 -56.5l-117 -254h-80z" />
<glyph unicode="&#x201a;" horiz-adv-x="448" d="M98 -285l78 275q-41 25 -41 73q0 37 26.5 64t67.5 27q43 0 69 -26t26 -65q0 -18 -6.5 -37.5t-22.5 -56.5l-117 -254h-80z" />
<glyph unicode="&#x201c;" horiz-adv-x="759" d="M125 1169q0 18 6 38t23 57l116 254h80l-78 -275q41 -25 41 -74q0 -37 -26.5 -63.5t-67.5 -26.5t-67.5 27t-26.5 63zM436 1169q0 18 6.5 38t22.5 57l117 254h80l-78 -275q41 -25 41 -74q0 -37 -27 -63.5t-68 -26.5t-67.5 27t-26.5 63z" />
<glyph unicode="&#x201d;" horiz-adv-x="759" d="M98 1079l78 275q-41 25 -41 73q0 37 26.5 64t67.5 27q43 0 69 -26t26 -65q0 -18 -6.5 -37.5t-22.5 -56.5l-117 -254h-80zM409 1079l78 275q-41 25 -41 73q0 37 26.5 64t67.5 27q43 0 69 -26t26 -65q0 -18 -6.5 -37.5t-22.5 -56.5l-117 -254h-80z" />
<glyph unicode="&#x201e;" horiz-adv-x="759" d="M98 -285l78 275q-41 25 -41 73q0 37 26.5 64t67.5 27q43 0 69 -26t26 -65q0 -18 -6.5 -37.5t-22.5 -56.5l-117 -254h-80zM409 -285l78 275q-41 25 -41 73q0 37 26.5 64t67.5 27q43 0 69 -26t26 -65q0 -18 -6.5 -37.5t-22.5 -56.5l-117 -254h-80z" />
<glyph unicode="&#x2022;" horiz-adv-x="587" d="M141 709q0 66 43 108.5t109 42.5q67 0 110 -44t43 -109q0 -63 -43 -106.5t-110 -43.5q-66 0 -109 43t-43 109z" />
<glyph unicode="&#x2026;" horiz-adv-x="1286" d="M113 76q0 41 28.5 68.5t69.5 27.5q43 0 70.5 -27.5t27.5 -68.5q0 -43 -27.5 -71t-70.5 -28q-41 0 -69.5 29t-28.5 70zM545 76q0 41 28.5 68.5t69.5 27.5q43 0 70.5 -27.5t27.5 -68.5q0 -43 -27.5 -71t-70.5 -28q-41 0 -69.5 29t-28.5 70zM975 74q0 41 28.5 68.5 t69.5 27.5q43 0 70.5 -27.5t27.5 -68.5q0 -43 -27.5 -71t-70.5 -28q-41 0 -69.5 29t-28.5 70z" />
<glyph unicode="&#x202f;" horiz-adv-x="387" />
<glyph unicode="&#x2039;" horiz-adv-x="700" d="M145 549v80l336 436l74 -51l-281 -424l281 -426l-74 -49z" />
<glyph unicode="&#x203a;" horiz-adv-x="700" d="M145 164l283 426l-283 424l74 51l336 -436v-80l-336 -434z" />
<glyph unicode="&#x205f;" horiz-adv-x="484" />
<glyph unicode="&#x20ac;" horiz-adv-x="1171" d="M74 496l22 88h144v211h-166l22 88h150q45 238 180 369.5t324 131.5q98 0 181 -26.5t167 -83.5l-51 -86q-80 51 -144.5 72.5t-148.5 21.5q-144 0 -244 -100.5t-137 -298.5h557l-23 -88h-542v-211h501l-20 -88h-477q27 -213 125 -313.5t264 -100.5q82 0 145.5 21.5 t138.5 64.5v-111q-145 -80 -301 -80q-207 0 -336 132.5t-161 386.5h-170z" />
<glyph unicode="&#x2122;" horiz-adv-x="1771" d="M82 1315v88h641l-16 -88h-256v-701h-103v701h-266zM797 614l39 789h137l225 -598l223 598h135l39 -789h-102l-20 402q-4 123 -5 174q0 70 2 108h-2l-223 -596h-94l-231 603h-2l2 -103q0 -82 -7 -186l-18 -402h-98z" />
<glyph unicode="&#x25fc;" horiz-adv-x="1075" d="M0 0v1075h1075v-1075h-1075z" />
<glyph unicode="&#xfb03;" horiz-adv-x="1734" d="M43 975v96h176v156q0 129 83 201.5t237 72.5q86 0 158.5 -16.5t164.5 -54.5q80 92 252 92q160 0 301 -76l-43 -86q-131 61 -254 61q-104 0 -151 -42t-47 -140v-168h598v-1071h-119v975h-479v-975h-119v975h-463v-975h-119v975h-176zM338 1071h463v174q0 49 14 103 q-74 31 -135.5 43t-132.5 12q-109 0 -159 -43t-50 -137v-152z" />
<glyph unicode="&#xfb04;" horiz-adv-x="1777" d="M43 975v96h176v156q0 129 83 201.5t237 72.5q84 0 157.5 -16.5t167.5 -54.5q82 92 256 92q78 0 140.5 -11.5t140.5 -35.5l119 16v-1307q0 -53 20.5 -78.5t67.5 -25.5q41 0 71 14l33 -88q-63 -29 -127 -29q-88 0 -136 51.5t-48 155.5v1194q-76 25 -137.5 35t-135.5 10 q-109 0 -158.5 -43t-49.5 -137v-172h282l-14 -96h-268v-975h-119v975h-463v-975h-119v975h-176zM338 1071h463v176q0 55 16 101q-76 31 -137.5 43t-132.5 12q-109 0 -159 -43t-50 -137v-152z" />
</font>
</defs>
</svg>
