<?xml version="1.0" standalone="no"?>
<!DOCTYPE svg PUBLIC "-//W3C//DTD SVG 1.1//EN" "http://www.w3.org/Graphics/SVG/1.1/DTD/svg11.dtd" >
<svg xmlns="http://www.w3.org/2000/svg" xmlns:xlink="http://www.w3.org/1999/xlink" version="1.1">
<metadata></metadata>
<defs>
<font id="cera_rlt_condensedbold" horiz-adv-x="817" >
<font-face units-per-em="2048" ascent="1655" descent="-393" />
<missing-glyph horiz-adv-x="409" />
<glyph unicode="&#xfb01;" horiz-adv-x="956" d="M10 809v205h129v252q0 145 74 220t217 75q51 0 109 -17v-205q-18 2 -47 2q-64 0 -87.5 -26.5t-23.5 -81.5v-219h139v-205h-139v-809h-242v809h-129zM604 1378q0 63 44 108.5t108 45.5q63 0 109.5 -45t46.5 -109q0 -63 -46.5 -108t-109.5 -45q-64 0 -108 45t-44 108z M637 0v1014h240v-1014h-240z" />
<glyph unicode="&#xfb02;" horiz-adv-x="956" d="M10 809v205h129v252q0 145 74 220t217 75q51 0 109 -17v-205q-18 2 -47 2q-64 0 -87.5 -26.5t-23.5 -81.5v-219h139v-205h-139v-809h-242v809h-129zM637 0v1536h240v-1536h-240z" />
<glyph horiz-adv-x="0" />
<glyph horiz-adv-x="682" />
<glyph unicode=" "  horiz-adv-x="409" />
<glyph unicode="&#x09;" horiz-adv-x="409" />
<glyph unicode="&#xa0;" horiz-adv-x="409" />
<glyph unicode="!" horiz-adv-x="565" d="M127 133q0 70 45 114t111 44q68 0 111.5 -44t43.5 -114q0 -68 -45 -113t-110 -45q-66 0 -111 45.5t-45 112.5zM158 459v893h252v-893h-252z" />
<glyph unicode="&#x22;" horiz-adv-x="841" d="M106 795l9 557h270l-92 -557h-187zM499 795l9 557h270l-92 -557h-187z" />
<glyph unicode="#" horiz-adv-x="931" d="M37 319v205h127l39 303h-135v205h159l39 320h199l-39 -320h170l39 320h196l-38 -320h102v-205h-129l-37 -303h137v-205h-164l-38 -319h-195l39 319h-172l-39 -319h-197l39 319h-102zM360 514h172l39 324h-170z" />
<glyph unicode="$" horiz-adv-x="772" d="M20 326l179 90q78 -152 176 -152q51 0 81.5 29t30.5 78q0 43 -27.5 87t-103.5 113l-116 107q-94 86 -135.5 161.5t-41.5 166.5q0 115 60.5 186.5t157.5 99.5v242h208v-240q154 -43 222 -219l-179 -90q-35 59 -60.5 83t-68.5 24q-39 0 -66.5 -22.5t-27.5 -70.5 q0 -35 28 -74.5t85 -93.5l115 -106q68 -61 105.5 -104t64 -103.5t26.5 -140.5q0 -119 -65.5 -205t-178.5 -115v-254h-208v260q-86 27 -154 93.5t-107 169.5z" />
<glyph unicode="%" horiz-adv-x="1320" d="M74 1040q0 164 64.5 250t187.5 86q127 0 192.5 -86t65.5 -250t-66.5 -248.5t-191.5 -84.5q-123 0 -187.5 86t-64.5 247zM260 1040q0 -94 14.5 -130t53.5 -36t54 37t15 129q0 94 -15 131t-54 37t-53.5 -36.5t-14.5 -131.5zM283 0l553 1352h196l-553 -1352h-196zM735 311 q0 162 66.5 248t191.5 86t189.5 -86t64.5 -248t-65.5 -249t-188.5 -87q-125 0 -191.5 86t-66.5 250zM922 311q0 -94 15 -131t54 -37t53.5 37t14.5 131t-14.5 130t-53.5 36t-54 -37t-15 -129z" />
<glyph unicode="&#x26;" horiz-adv-x="954" d="M55 336q0 102 44 194.5t139 192.5l6 6l-25 41q-55 90 -77.5 160.5t-22.5 144.5q0 133 81 217t212 84q129 0 205.5 -81t76.5 -214q0 -86 -38 -166.5t-119 -173.5l-37 -41l147 -245q53 123 103 262l178 -84q-88 -252 -160 -383l147 -250h-239l-41 70q-100 -94 -236 -95 q-100 0 -178 46.5t-122 128t-44 186.5zM274 360q0 -74 36 -118.5t93 -44.5q68 0 123 57l-176 295q-41 -53 -58.5 -96t-17.5 -93zM328 1069q0 -37 15 -80t52 -108l4 6q39 43 59.5 90t20.5 90q0 51 -19.5 79t-53.5 28q-37 0 -57.5 -27t-20.5 -78z" />
<glyph unicode="'" horiz-adv-x="448" d="M106 795l9 557h270l-92 -557h-187z" />
<glyph unicode="(" horiz-adv-x="548" d="M90 621q0 342 69.5 557t223.5 346l137 -127q-115 -129 -164 -309.5t-49 -466.5q0 -289 49.5 -468.5t163.5 -308.5l-137 -127q-154 131 -223.5 346.5t-69.5 557.5z" />
<glyph unicode=")" horiz-adv-x="550" d="M31 -156q115 129 164 308.5t49 468.5q0 287 -49.5 467t-163.5 309l137 127q154 -131 223.5 -346t69.5 -557t-69.5 -557.5t-223.5 -346.5z" />
<glyph unicode="*" horiz-adv-x="835" d="M66 1051l167 123l-167 122l67 117l193 -82l22 205h139l23 -203l190 80l70 -117l-168 -122l168 -123l-70 -119l-190 82l-23 -203h-139l-22 205l-193 -84z" />
<glyph unicode="+" horiz-adv-x="819" d="M49 545v217h250v280h223v-280h248v-217h-248v-279h-223v279h-250z" />
<glyph unicode="," horiz-adv-x="409" d="M70 -365l8 594h272l-84 -594h-196z" />
<glyph unicode="-" horiz-adv-x="487" d="M57 545v217h373v-217h-373z" />
<glyph unicode="." horiz-adv-x="409" d="M49 133q0 70 45 114t111 44q68 0 111.5 -44t43.5 -114q0 -68 -45 -113t-110 -45q-66 0 -111 45.5t-45 112.5z" />
<glyph unicode="/" horiz-adv-x="989" d="M0 -248l741 1845h246l-743 -1845h-244z" />
<glyph unicode="0" horiz-adv-x="919" d="M74 676q0 365 93 532.5t294 167.5t293 -168t92 -532q0 -365 -92 -533t-293 -168t-294 168t-93 533zM319 674q0 -182 13.5 -283.5t43.5 -144.5t85 -43q53 0 82.5 43t43 144.5t13.5 283.5t-13.5 284.5t-43 146.5t-82.5 44t-84 -44t-44.5 -146.5t-13.5 -284.5z" />
<glyph unicode="1" horiz-adv-x="591" d="M12 1192l330 160h129v-1352h-242v1051l-147 -72z" />
<glyph unicode="2" horiz-adv-x="831" d="M61 0v104l277 455q90 145 128 235.5t38 196.5q0 162 -103 162q-45 0 -72.5 -38t-27.5 -114q0 -37 6 -116h-233q-10 49 -11 133q0 156 93.5 257t251.5 101q152 0 246 -94t94 -268q0 -127 -47.5 -249t-174.5 -335l-135 -223h375v-207h-705z" />
<glyph unicode="3" horiz-adv-x="770" d="M6 330l215 53q16 -92 48 -134t85 -42q125 0 125 205q0 127 -42 173t-140 46h-123v98l215 406h-340v217h645v-107l-221 -409q119 -29 184.5 -135.5t65.5 -278.5q0 -209 -97.5 -328t-267.5 -119q-143 0 -235 93.5t-117 261.5z" />
<glyph unicode="4" horiz-adv-x="856" d="M25 236v122l254 994h239l-227 -901h211v415h241v-415h99v-215h-99v-236h-241v236h-477z" />
<glyph unicode="5" horiz-adv-x="792" d="M29 330l213 53q14 -92 47 -134t86 -42q125 0 125 205q0 127 -41 173t-144 46h-213v721h594v-217h-366v-293q37 6 76 6q163 0 250 -109.5t87 -316.5q0 -209 -97 -328t-267 -119q-143 0 -235.5 93.5t-114.5 261.5z" />
<glyph unicode="6" horiz-adv-x="792" d="M41 432q0 117 29.5 213t107.5 264l209 445h270l-217 -451q312 -2 312 -459q0 -225 -95.5 -346t-261.5 -121t-260 118t-94 337zM281 444q0 -129 28.5 -187t85.5 -58q62 0 89.5 59t27.5 193q0 131 -28.5 190t-88.5 59q-115 0 -114 -256z" />
<glyph unicode="7" horiz-adv-x="757" d="M12 1135v217h697v-109l-344 -1243h-244l319 1135h-428z" />
<glyph unicode="8" horiz-adv-x="868" d="M53 346q0 121 50.5 205t166.5 154q-100 80 -140 153.5t-40 171.5q0 166 90 256t254 90q166 0 256 -90t90 -254q0 -98 -41 -171t-143 -156q119 -70 169 -152t50 -205q0 -178 -99.5 -275.5t-281.5 -97.5t-281.5 97.5t-99.5 273.5zM289 334q0 -78 38 -120t107 -42 q70 0 108 42t38 120q0 76 -34 132t-114 114q-78 -55 -110.5 -112.5t-32.5 -133.5zM307 1034q0 -66 30 -118t97 -99q68 47 97.5 97.5t29.5 119.5q0 68 -33.5 108t-93.5 40q-59 0 -93 -39t-34 -109z" />
<glyph unicode="9" horiz-adv-x="802" d="M41 915q0 217 96 339t266 122t264.5 -119.5t94.5 -332.5q0 -102 -28.5 -199.5t-102.5 -253.5l-213 -471h-266l213 463q-158 2 -241 117.5t-83 334.5zM279 909q0 -123 29.5 -182t92.5 -59t94 58t31 183q0 127 -30.5 186.5t-92.5 59.5q-66 0 -95 -58.5t-29 -187.5z" />
<glyph unicode=":" horiz-adv-x="409" d="M49 133q0 70 45 114t111 44q68 0 111.5 -44t43.5 -114q0 -68 -45 -113t-110 -45q-66 0 -111 45.5t-45 112.5zM49 878q0 70 45 114t111 44q68 0 111.5 -44t43.5 -114q0 -68 -45 -113t-110 -45q-66 0 -111 45.5t-45 112.5z" />
<glyph unicode=";" horiz-adv-x="409" d="M49 878q0 70 45 114t111 44q68 0 111.5 -44t43.5 -114q0 -68 -45 -113t-110 -45q-66 0 -111 45.5t-45 112.5zM70 -365l8 594h272l-84 -594h-196z" />
<glyph unicode="&#x3c;" horiz-adv-x="819" d="M49 604v96l694 396v-242l-385 -201l385 -200v-242z" />
<glyph unicode="=" horiz-adv-x="819" d="M66 338v207h688v-207h-688zM66 760v207h688v-207h-688z" />
<glyph unicode="&#x3e;" horiz-adv-x="819" d="M76 211v242l387 200l-387 201v242l694 -396v-96z" />
<glyph unicode="?" horiz-adv-x="710" d="M10 1040q35 170 117 253t219 83q148 0 232 -100t84 -281q0 -281 -191 -364v-172h-252v338h57q76 0 112 46t36 146q0 156 -92 156q-41 0 -67.5 -33t-47.5 -121zM190 133q0 70 45.5 114t110.5 44q68 0 112 -44t44 -114q0 -68 -45 -113t-111 -45t-111 45.5t-45 112.5z" />
<glyph unicode="@" horiz-adv-x="1462" d="M51 492q0 422 184.5 644t532.5 222q317 0 481 -193.5t164 -568.5q0 -530 -469 -530h-96v69q-55 -90 -174 -90q-127 0 -195.5 113.5t-68.5 324.5q0 215 67.5 330t196.5 115q115 0 174 -94v73h213v-626q80 12 113.5 82.5t33.5 216.5q0 293 -107.5 434t-332.5 141 q-248 0 -376 -168t-128 -491q0 -322 118 -487t347 -165q92 0 174 25l23 -197q-70 -35 -197 -34q-334 0 -506 217t-172 637zM643 483q0 -127 22.5 -183t71.5 -56q51 0 74 55t23 184q0 133 -23 190.5t-74 57.5q-49 0 -71.5 -58.5t-22.5 -189.5z" />
<glyph unicode="A" horiz-adv-x="931" d="M0 0l401 1352h131l400 -1352h-256l-45 188h-332l-43 -188h-256zM346 391h238l-119 483z" />
<glyph unicode="B" horiz-adv-x="925" d="M90 0v1352h336q188 0 295.5 -97.5t107.5 -269.5q0 -182 -122 -274q88 -49 136 -133t48 -193q0 -113 -50 -200t-141.5 -136t-207.5 -49h-402zM330 211h131q92 0 140 49t48 141q0 94 -47 144.5t-139 50.5h-133v-385zM330 803h90q168 0 168 168q0 170 -168 170h-90v-338z " />
<glyph unicode="C" horiz-adv-x="897" d="M51 676q0 354 104.5 527t319.5 173q160 0 253 -90t128 -282l-223 -58q-20 102 -57 150.5t-99 48.5q-90 0 -131 -110.5t-41 -358.5t41 -358.5t131 -110.5q61 0 98 48t58 151l223 -58q-35 -193 -128 -283t-253 -90q-215 0 -319.5 173.5t-104.5 527.5z" />
<glyph unicode="D" horiz-adv-x="978" d="M90 0v1352h313q256 0 390.5 -162t134.5 -508q0 -682 -525 -682h-313zM342 227h66q133 0 197.5 105.5t64.5 349.5q0 242 -64.5 342t-197.5 100h-66v-897z" />
<glyph unicode="E" d="M90 0v1352h649v-226h-397v-305h299v-217h-299v-377h416v-227h-668z" />
<glyph unicode="F" horiz-adv-x="765" d="M90 0v1352h635v-226h-383v-368h311v-228h-311v-530h-252z" />
<glyph unicode="G" horiz-adv-x="931" d="M51 682q0 348 108.5 521t327.5 173q160 0 255.5 -86t134.5 -264l-222 -57q-23 94 -61.5 135t-104.5 41q-98 0 -141 -109.5t-43 -359.5q0 -248 46 -358.5t151 -110.5q90 0 135 74v231h-156v219h406v-508q-55 -119 -153.5 -183.5t-225.5 -64.5q-457 0 -457 707z" />
<glyph unicode="H" horiz-adv-x="1013" d="M90 0v1352h252v-525h330v525h250v-1352h-250v598h-330v-598h-252z" />
<glyph unicode="I" horiz-adv-x="432" d="M90 0v1352h252v-1352h-252z" />
<glyph unicode="J" horiz-adv-x="565" d="M16 -2v215q51 -8 86 -8q63 0 92 30.5t29 96.5v1020h250v-1078q0 -147 -79 -223t-234 -76q-66 0 -144 23z" />
<glyph unicode="K" horiz-adv-x="976" d="M90 0v1352h252v-609l324 609h278l-338 -635l357 -717h-279l-342 688v-688h-252z" />
<glyph unicode="L" horiz-adv-x="731" d="M90 0v1352h252v-1125h365v-227h-617z" />
<glyph unicode="M" horiz-adv-x="1136" d="M90 0v1352h133l346 -658l344 658h131v-1352h-249v662l-183 -345h-88l-182 340v-657h-252z" />
<glyph unicode="N" horiz-adv-x="1013" d="M90 0v1352h133l447 -742v742h252v-1352h-134l-446 741v-741h-252z" />
<glyph unicode="O" horiz-adv-x="968" d="M51 680q0 354 105.5 525t324.5 171q223 0 330 -170t107 -524q0 -358 -108 -532.5t-329 -174.5q-219 0 -324.5 172t-105.5 533zM305 680q0 -258 40 -365.5t136 -107.5q99 0 141 107.5t42 361.5t-42 361.5t-141 107.5q-96 0 -136 -105.5t-40 -359.5z" />
<glyph unicode="P" horiz-adv-x="929" d="M90 0v1352h363q211 0 325.5 -113t114.5 -319q0 -207 -115.5 -321t-324.5 -114h-111v-485h-252zM342 711h113q184 0 184 207q0 208 -182 208h-2h-113v-415z" />
<glyph unicode="Q" horiz-adv-x="968" d="M51 680q0 354 105.5 525t324.5 171q223 0 330 -170t107 -524q0 -459 -181 -619q49 -104 85 -155t73 -69.5t94 -18.5h37v-197q-39 -12 -86 -12q-92 0 -158.5 32.5t-125 111.5t-121.5 222q-18 -2 -54 -2q-219 0 -324.5 172t-105.5 533zM305 680q0 -258 40 -365.5 t136 -107.5q98 0 140.5 107.5t42.5 361.5t-42 361.5t-141 107.5q-96 0 -136 -105.5t-40 -359.5z" />
<glyph unicode="R" horiz-adv-x="972" d="M90 0v1352h363q211 0 325.5 -113t114.5 -319q0 -260 -180 -371l243 -549h-264l-209 485h-30h-111v-485h-252zM342 711h113q184 0 184 207q0 208 -182 208h-2h-113v-415z" />
<glyph unicode="S" horiz-adv-x="868" d="M25 317l213 82q33 -104 76.5 -149t113.5 -45q63 0 100 34.5t37 94.5q0 47 -27.5 88t-109.5 117l-100 90q-135 125 -188.5 213t-53.5 190q0 156 99.5 250t265.5 94q147 0 239 -77.5t139 -241.5l-213 -78q-29 94 -63.5 131t-91.5 37t-90 -31t-33 -84q0 -41 26.5 -81 t98.5 -105l100 -92q143 -131 198.5 -223.5t55.5 -198.5q0 -164 -103.5 -260.5t-279.5 -96.5q-323 0 -409 342z" />
<glyph unicode="T" horiz-adv-x="847" d="M20 1122v230h805v-230h-276v-1122h-252v1122h-277z" />
<glyph unicode="U" horiz-adv-x="1005" d="M86 403v949h252v-961q0 -86 44 -135t122 -49q76 0 120 49t44 135v961h250v-949q0 -195 -114 -311.5t-300 -116.5q-189 0 -303.5 117t-114.5 311z" />
<glyph unicode="V" horiz-adv-x="933" d="M0 1352h264l203 -748l201 748h266l-402 -1352h-131z" />
<glyph unicode="W" horiz-adv-x="1431" d="M14 1352h267l176 -754l196 754h127l195 -752l176 752h266l-366 -1352h-131l-203 748l-205 -748h-131z" />
<glyph unicode="X" horiz-adv-x="907" d="M16 0l279 674l-279 678h273l166 -447l163 447h275l-281 -678l281 -674h-279l-159 432l-162 -432h-277z" />
<glyph unicode="Y" horiz-adv-x="890" d="M0 1352h270l176 -527l177 527h268l-320 -842v-510h-249v500z" />
<glyph unicode="Z" d="M29 0v106l442 1020h-405v226h710v-107l-430 -1018h440v-227h-757z" />
<glyph unicode="[" horiz-adv-x="526" d="M119 -266v1761h362v-192h-143v-1379h143v-190h-362z" />
<glyph unicode="\" horiz-adv-x="989" d="M0 1597h246l741 -1845h-244z" />
<glyph unicode="]" horiz-adv-x="524" d="M43 -76h145v1379h-145v192h363v-1761h-363v190z" />
<glyph unicode="^" horiz-adv-x="790" d="M61 569l279 783h111l278 -783h-217l-117 381l-116 -381h-218z" />
<glyph unicode="_" horiz-adv-x="716" d="M43 -141h631v-201h-631v201z" />
<glyph unicode="`" horiz-adv-x="503" d="M62 1524v43h286l94 -385h-172z" />
<glyph unicode="a" horiz-adv-x="806" d="M41 264q0 139 82 221t225 82h141v113q0 63 -30.5 99t-85.5 36q-51 0 -88 -27.5t-74 -91.5l-156 125q111 215 344 215q156 0 244 -89t88 -247v-700h-221v80q-33 -51 -86 -78t-123 -27q-119 0 -189.5 79t-70.5 210zM274 281q0 -53 29 -84t76 -31q51 0 80.5 35t29.5 92v110 h-92q-57 0 -90 -31.5t-33 -90.5z" />
<glyph unicode="b" horiz-adv-x="841" d="M82 0v1536h240v-580q61 80 172 80q294 0 294 -528q0 -262 -74.5 -397.5t-221.5 -135.5q-131 0 -191 111v-86h-219zM319 508q0 -172 26 -241.5t87 -69.5q62 0 87.5 70.5t25.5 240.5q0 168 -25.5 238.5t-87.5 70.5q-61 0 -87 -68.5t-26 -240.5z" />
<glyph unicode="c" horiz-adv-x="755" d="M51 508q0 266 88 397t269 131q131 0 206.5 -70.5t108.5 -224.5l-207 -53q-16 72 -39.5 100.5t-68.5 28.5q-61 0 -86 -67.5t-25 -241.5t24.5 -242.5t86.5 -68.5q45 0 68.5 27.5t39.5 99.5l207 -52q-33 -156 -107.5 -226.5t-207.5 -70.5q-181 0 -269 132.5t-88 400.5z" />
<glyph unicode="d" horiz-adv-x="841" d="M51 510q0 526 297 526q111 0 170 -78v578h242v-1536h-221v84q-59 -109 -191 -109q-145 0 -221 135.5t-76 399.5zM295 508q0 -170 26.5 -240.5t88.5 -70.5q59 0 84.5 69.5t25.5 241.5t-24.5 240.5t-85.5 68.5t-88 -70.5t-27 -238.5z" />
<glyph unicode="e" horiz-adv-x="782" d="M51 508q0 260 89 394t261 134q164 0 247 -115.5t83 -338.5q0 -104 -12 -160h-432q8 -127 43 -180.5t106 -53.5q43 0 75 24t67 81l153 -127q-53 -98 -128 -144.5t-181 -46.5q-182 0 -276.5 135.5t-94.5 397.5zM287 596h223v18q0 112 -24 164q-26 56 -83 56 q-59 0 -85.5 -54.5t-30.5 -183.5z" />
<glyph unicode="f" horiz-adv-x="532" d="M10 809v205h129v252q0 145 74 220t217 75q51 0 109 -17v-205q-18 2 -47 2q-64 0 -87.5 -26.5t-23.5 -81.5v-219h139v-205h-139v-809h-242v809h-129z" />
<glyph unicode="g" horiz-adv-x="837" d="M45 -195l160 134q43 -61 81 -87t87 -26q66 0 105.5 40t39.5 107v138q-59 -78 -174 -78q-143 0 -218 127t-75 370q0 248 76 377t219 129q129 0 193 -112v90h219v-1047q0 -168 -99.5 -264t-271.5 -96q-115 0 -199 48t-143 150zM295 530q0 -152 26.5 -217t88.5 -65 q59 0 84.5 64.5t25.5 217.5q0 156 -25.5 221.5t-84.5 65.5t-87 -66.5t-28 -220.5z" />
<glyph unicode="h" horiz-adv-x="854" d="M82 0v1536h240v-569q62 69 177 69h3q125 0 199.5 -85t74.5 -224v-727h-239v705q0 51 -30 81.5t-79 30.5q-45 0 -75.5 -31.5t-30.5 -80.5v-705h-240z" />
<glyph unicode="i" horiz-adv-x="403" d="M49 1378q0 63 44 108.5t108 45.5q63 0 109.5 -45t46.5 -109q0 -63 -46.5 -108t-109.5 -45q-64 0 -108 45t-44 108zM82 0v1014h240v-1014h-240z" />
<glyph unicode="j" horiz-adv-x="403" d="M-53 -172q14 -2 37 -2q51 0 74.5 24.5t23.5 79.5v1084h240v-1114q0 -139 -74 -214t-213 -75q-51 0 -88 10v207zM49 1378q0 63 44 108.5t108 45.5q63 0 109.5 -45t46.5 -109q0 -63 -46.5 -108t-109.5 -45q-64 0 -108 45t-44 108z" />
<glyph unicode="k" horiz-adv-x="847" d="M82 0v1536h240v-956l241 434h273l-261 -467l269 -547h-264l-258 532v-532h-240z" />
<glyph unicode="l" horiz-adv-x="403" d="M82 0v1536h240v-1536h-240z" />
<glyph unicode="m" horiz-adv-x="1300" d="M82 0v1014h221v-70q68 92 211 92q127 0 203 -106q84 106 231 106q123 0 200 -86t77 -223v-727h-242v705q0 49 -28.5 80.5t-73.5 31.5q-47 0 -78 -31.5t-31 -80.5v-705h-240v705q0 49 -29.5 80.5t-74.5 31.5q-47 0 -76.5 -31.5t-29.5 -80.5v-705h-240z" />
<glyph unicode="n" horiz-adv-x="854" d="M82 0v1014h221v-68q66 90 199 90q125 0 199.5 -85t74.5 -224v-727h-239v705q0 51 -30 81.5t-77 30.5t-77.5 -31.5t-30.5 -80.5v-705h-240z" />
<glyph unicode="o" d="M51 510q0 260 90 393t267 133q176 0 266 -133t90 -393q0 -262 -90 -398.5t-266 -136.5q-175 0 -266 136.5t-91 398.5zM297 504q0 -170 24.5 -238.5t86.5 -68.5q61 0 86.5 68.5t25.5 238.5q0 172 -25.5 242.5t-86.5 70.5q-59 0 -85 -70.5t-26 -242.5z" />
<glyph unicode="p" horiz-adv-x="841" d="M82 -369v1383h219v-90q62 112 189 112h2q147 0 221.5 -134t74.5 -396t-74.5 -396.5t-221.5 -134.5q-111 0 -170 78v-422h-240zM317 506q0 -170 26 -239.5t85 -69.5q64 0 90.5 69.5t26.5 239.5q0 172 -26.5 241.5t-90.5 69.5q-59 0 -85 -69.5t-26 -241.5z" />
<glyph unicode="q" horiz-adv-x="841" d="M51 504q0 264 76 398t221 134q127 0 191 -110v88h221v-1383h-242v420q-61 -76 -170 -76q-147 0 -222 133.5t-75 395.5zM297 506q0 -170 26.5 -239.5t88.5 -69.5q59 0 83.5 68.5t24.5 240.5q0 174 -24.5 243.5t-83.5 69.5q-61 0 -88 -70.5t-27 -242.5z" />
<glyph unicode="r" horiz-adv-x="579" d="M82 0v1014h219v-107q59 117 195 117q32 0 59 -8v-244h-55q-86 0 -132 -44t-46 -128v-600h-240z" />
<glyph unicode="s" horiz-adv-x="722" d="M23 201l161 108q35 -66 73 -94.5t91 -28.5q45 0 73 23.5t28 64.5q0 31 -19.5 55.5t-73.5 59.5l-73 51q-113 74 -163 148t-50 164q0 131 85 207.5t226 76.5q225 0 313 -200l-164 -111q-27 57 -59.5 83t-75.5 26q-41 0 -64.5 -21.5t-23.5 -58.5q0 -57 80 -113l68 -45 q127 -86 178 -158.5t51 -165.5q0 -135 -88 -216t-238 -81q-239 1 -335 226z" />
<glyph unicode="t" horiz-adv-x="604" d="M12 809v205h129v256h240v-256h174v-205h-174v-516q0 -98 113 -98q46 0 75 4v-205q-53 -16 -131 -17q-143 0 -220 74t-77 213v545h-129z" />
<glyph unicode="u" horiz-adv-x="849" d="M78 326v688h239v-707q0 -53 29 -81.5t78 -28.5q51 0 79.5 28.5t28.5 81.5v707h240v-688q0 -160 -94 -255.5t-254 -95.5q-158 0 -252 95.5t-94 255.5z" />
<glyph unicode="v" horiz-adv-x="815" d="M4 1014h256l150 -535l147 535h256l-340 -1014h-131z" />
<glyph unicode="w" horiz-adv-x="1232" d="M4 1014h254l135 -535l156 535h133l158 -537l135 537h254l-305 -1014h-133l-175 588l-174 -588h-133z" />
<glyph unicode="x" horiz-adv-x="788" d="M0 0l244 528l-232 486h269l114 -289l115 289h266l-231 -484l243 -530h-268l-125 319l-127 -319h-268z" />
<glyph unicode="y" d="M4 1014h256l143 -617l156 617h256l-350 -1131q-43 -145 -114.5 -209.5t-196.5 -64.5q-51 0 -109 14v205q18 -2 59 -2q61 0 90 25.5t48 87.5l39 122z" />
<glyph unicode="z" horiz-adv-x="677" d="M16 0v106l349 703h-320v205h610v-109l-346 -700h353v-205h-646z" />
<glyph unicode="{" horiz-adv-x="604" d="M57 512v203h56q94 0 94 116q0 25 -4 75t-6 85q-18 195 -19 281q0 223 236 223h145v-192h-74q-88 0 -88 -82q0 -78 17 -242q12 -147 12 -191q0 -76 -38 -118.5t-120 -57.5q82 -14 120 -57t38 -117q0 -45 -12 -188q-16 -164 -17 -242q0 -84 88 -84h74v-190h-145 q-121 0 -178.5 55t-57.5 168q0 92 19 281q2 33 6 83t4 74q0 59 -22.5 88t-71.5 29h-56z" />
<glyph unicode="|" horiz-adv-x="493" d="M137 -248v1845h219v-1845h-219z" />
<glyph unicode="}" horiz-adv-x="604" d="M43 -76h76q88 0 88 84q0 78 -17 242q-14 125 -14 188q0 74 38 117t120 57q-82 14 -120 57.5t-38 118.5q0 61 14 191q16 164 17 242q0 82 -88 82h-76v192h158q225 0 225 -223q0 -86 -18 -281q-2 -35 -6.5 -85t-4.5 -75q0 -117 95 -116h53v-203h-53q-49 0 -72 -28.5 t-23 -88.5q0 -25 4.5 -75t6.5 -82q18 -188 18 -281q0 -223 -225 -223h-158v190z" />
<glyph unicode="~" horiz-adv-x="819" d="M41 580q0 119 51 185t141 66q53 0 127 -43l95 -51q27 -18 47 -27.5t37 -9.5q51 0 51 68v41h184q4 -53 4 -78q0 -119 -51 -186.5t-141 -67.5q-57 0 -127 43l-94 51q-37 25 -52.5 31t-31.5 6q-51 0 -52 -65v-41h-184q-4 53 -4 78z" />
<glyph unicode="&#xa1;" horiz-adv-x="565" d="M127 879q0 68 45 112.5t111 44.5t110.5 -45t44.5 -112q0 -68 -44 -113t-111 -45q-66 0 -111 45t-45 113zM158 -369v922h252v-922h-252z" />
<glyph unicode="&#xa2;" horiz-adv-x="821" d="M59 668q0 215 72 347t205 169v350h209v-354q147 -45 213 -246l-191 -84q-23 70 -51.5 98.5t-75.5 28.5q-70 0 -102.5 -74t-32.5 -235q0 -164 33 -238t104 -74q45 0 74 29t51 98l191 -84q-68 -201 -213 -245v-351h-209v347q-133 37 -205 170t-72 348z" />
<glyph unicode="&#xa3;" horiz-adv-x="847" d="M43 502v211h139q-33 100 -48 167.5t-15 141.5q0 160 92 257t244 97q139 0 224 -76.5t126 -240.5l-205 -76q-20 94 -50 131t-81 37q-49 0 -80 -36t-31 -95q0 -66 13.5 -125t30 -111.5t22.5 -70.5h233v-211h-184q4 -45 4 -70q0 -157 -104 -237h411v-195h-735v106 q100 82 146.5 160t46.5 168q0 23 -4 68h-195z" />
<glyph unicode="&#xa4;" horiz-adv-x="1089" d="M27 188l192 238q-78 106 -78 250q0 143 78 250l-192 237l182 150l201 -246q72 20 135 20t135 -20l201 246l182 -150l-193 -235q78 -111 78 -252t-78 -252l193 -236l-182 -149l-201 246q-72 -20 -135 -21q-63 0 -135 21l-201 -246zM383 676q0 -88 47 -140.5t115 -52.5 q78 0 120 50.5t42 142.5t-42 142t-120 50t-120 -50t-42 -142z" />
<glyph unicode="&#xa5;" horiz-adv-x="899" d="M4 1352h266l181 -400l178 400h264l-318 -598h248v-195h-254v-147h254v-195h-254v-217h-239v217h-254v195h254v147h-254v195h246z" />
<glyph unicode="&#xa6;" horiz-adv-x="493" d="M137 -248v615h219v-615h-219zM137 983v614h219v-614h-219z" />
<glyph unicode="&#xa7;" horiz-adv-x="868" d="M23 698q0 166 163 250q-33 66 -32 135q0 129 86 211t221 82q143 0 222 -69.5t112 -227.5l-209 -51q-23 80 -45.5 106.5t-67.5 26.5q-41 0 -64.5 -23.5t-23.5 -66.5q0 -35 18.5 -64.5t71.5 -84.5l238 -230q74 -72 103.5 -133t29.5 -141q0 -166 -164 -250q31 -61 31 -135 q0 -129 -85 -211t-220 -82q-143 0 -222.5 69.5t-111.5 227.5l209 51q20 -78 42.5 -105.5t69.5 -27.5q41 0 64.5 24.5t23.5 63.5q0 37 -18.5 67.5t-69.5 82.5l-235 229q-76 76 -106.5 137.5t-30.5 138.5zM244 702q0 -37 16 -66.5t62 -76.5l245 -242l6 -6q55 49 56 103 q0 37 -15.5 65.5t-62.5 75.5l-246 242l-8 8q-53 -45 -53 -103z" />
<glyph unicode="&#xa8;" horiz-adv-x="761" d="M62 1380q0 59 40.5 100.5t98.5 41.5q57 0 97 -41t40 -101q0 -59 -40 -101t-97 -42q-58 0 -98.5 42t-40.5 101zM422 1380q0 59 41 100.5t100 41.5q55 0 96 -42t41 -100q0 -59 -40.5 -101t-96.5 -42q-59 0 -100 41t-41 102z" />
<glyph unicode="&#xa9;" horiz-adv-x="1331" d="M51 674q0 207 77 366.5t215 247.5t321 88q182 0 321 -88t217 -246.5t78 -365.5t-78 -365.5t-217 -247t-321 -88.5q-183 0 -321 87.5t-215 246t-77 365.5zM223 674q0 -258 114 -398.5t325 -140.5q212 0 330 142.5t118 396.5q0 256 -118 399.5t-330 143.5 q-211 0 -325 -142.5t-114 -400.5zM389 672q0 395 291 395q104 0 163.5 -54.5t86.5 -170.5l-174 -41q-12 53 -30.5 74.5t-51.5 21.5q-51 0 -70.5 -49t-19.5 -172q0 -121 19.5 -170t70.5 -49q33 0 51 21.5t31 72.5l174 -41q-25 -117 -86.5 -172t-167.5 -55q-287 0 -287 389z " />
<glyph unicode="&#xaa;" horiz-adv-x="550" d="M31 672q0 90 52 142t140 52h84v56q0 31 -16.5 49t-44.5 18q-27 0 -47.5 -14t-46.5 -53l-115 98q39 70 95 103.5t136 33.5q107 0 165.5 -58.5t58.5 -160.5v-438h-168v41q-20 -27 -53 -42.5t-74 -15.5q-74 0 -120 52.5t-46 136.5zM203 684q0 -29 13 -44t38 -15q53 -1 53 69 v56h-43q-61 0 -61 -66z" />
<glyph unicode="&#xab;" horiz-adv-x="931" d="M33 532v70l258 422l182 -113l-182 -344l182 -344l-182 -112zM447 532v70l258 422l182 -113l-182 -344l182 -344l-182 -112z" />
<glyph unicode="&#xac;" horiz-adv-x="819" d="M49 549v207h670v-547h-223v340h-447z" />
<glyph unicode="&#xad;" horiz-adv-x="487" d="M57 545v217h373v-217h-373z" />
<glyph unicode="&#xae;" horiz-adv-x="1114" d="M72 893q0 150 63.5 268.5t174 187t249.5 68.5t250 -68.5t173 -187.5t62 -268q0 -150 -62 -269.5t-173 -188t-250 -68.5t-249.5 68.5t-174 188t-63.5 269.5zM207 893q0 -178 97 -287.5t255 -109.5q103 0 182.5 50t123.5 140t44 207t-44 207t-123.5 140t-182.5 50 q-102 0 -183 -50t-125 -140t-44 -207zM393 635v514h152q92 0 144 -47t52 -131q0 -93 -63 -144l94 -192h-135l-72 153h-20h-29v-153h-123zM516 907h35q27 0 42 16.5t15 45.5q0 31 -15 48t-42 17h-35v-127z" />
<glyph unicode="&#xaf;" horiz-adv-x="577" d="M62 1264v194h454v-194h-454z" />
<glyph unicode="&#xb0;" horiz-adv-x="653" d="M29 1075q0 84 38.5 152.5t106.5 107.5t152 39q129 0 214 -85t85 -214t-85 -214t-214 -85q-127 0 -212 85t-85 214zM197 1075q0 -59 35.5 -98t93.5 -39q57 0 94 39t37 98t-37 96t-94 37t-93 -36.5t-36 -96.5z" />
<glyph unicode="&#xb1;" horiz-adv-x="819" d="M63 0v205h695v-205h-695zM63 604v205h238v266h219v-266h238v-205h-238v-264h-219v264h-238z" />
<glyph unicode="&#xb2;" horiz-adv-x="602" d="M45 746v82l188 270q68 96 93.5 150.5t25.5 111.5q0 74 -63 74q-29 0 -46.5 -19.5t-17.5 -52.5q0 -18 4 -67h-176q-6 31 -6 86q0 98 68.5 165.5t187.5 67.5q113 0 178.5 -65.5t65.5 -176.5q0 -90 -35 -167.5t-129 -208.5l-59 -82h227v-168h-506z" />
<glyph unicode="&#xb3;" horiz-adv-x="557" d="M4 973l172 45q10 -57 28.5 -79.5t53.5 -22.5q68 0 68 108q0 63 -28 85t-87 22h-86v78l137 215h-225v174h471v-84l-148 -232q76 -22 118 -89.5t42 -168.5q0 -137 -69.5 -216t-190.5 -79q-104 0 -170.5 63.5t-85.5 180.5z" />
<glyph unicode="&#xb4;" horiz-adv-x="503" d="M62 1182l94 385h286v-43l-208 -342h-172z" />
<glyph unicode="&#xb5;" horiz-adv-x="1589" d="M166 172q0 82 56.5 137.5t137.5 55.5q82 0 138.5 -55.5t56.5 -137.5q0 -84 -55.5 -139.5t-141.5 -55.5q-80 0 -136 56.5t-56 138.5zM213 516v1020h293v-1020h-293zM627 621l237 391l25 -15q29 -16 63.5 -25t65.5 -9q74 0 125 49t51 121q0 63 -40 106t-99 43 q-68 0 -115 -49l-252 149q133 176 346 177q131 0 238.5 -57.5t170 -157t62.5 -220.5q0 -115 -56 -210t-153.5 -150t-214.5 -55q-36 0 -75 8l-142 -236zM1022 172q0 80 57.5 136.5t139.5 56.5q81 0 137.5 -55.5t56.5 -137.5q0 -84 -56.5 -139.5t-139.5 -55.5 q-82 0 -138.5 56.5t-56.5 138.5z" />
<glyph unicode="&#xb6;" horiz-adv-x="935" d="M37 901q0 213 109.5 332t306.5 119h26v-899h-26q-195 0 -305.5 118.5t-110.5 329.5zM391 -162q61 -10 92 -10q68 0 94.5 35t26.5 125v1364h240v-1389q0 -356 -309 -356q-76 -1 -144 24v207z" />
<glyph unicode="&#xb7;" horiz-adv-x="409" d="M49 653q0 70 45 114t111 44q68 0 111.5 -44t43.5 -114q0 -68 -45 -113t-110 -45q-66 0 -111 45.5t-45 112.5z" />
<glyph unicode="&#xb8;" horiz-adv-x="475" d="M56 -205q43 -6 69 -6q43 0 68 22.5t25 61.5q0 90 -21 172l121 37q43 -37 70.5 -100.5t27.5 -133.5q0 -109 -69.5 -175t-182.5 -66q-69 0 -108 20v168z" />
<glyph unicode="&#xb9;" horiz-adv-x="561" d="M43 746v168h156v516h-150v168h340v-684h133v-168h-479z" />
<glyph unicode="&#xba;" horiz-adv-x="555" d="M39 825q0 162 60.5 247t174.5 85q117 0 179.5 -85t62.5 -247q0 -166 -61.5 -254t-178.5 -88q-114 0 -175.5 88t-61.5 254zM221 821q0 -96 12.5 -133t45.5 -37q32 0 43.5 36t11.5 134t-12.5 135t-42.5 37q-33 0 -45.5 -36.5t-12.5 -135.5z" />
<glyph unicode="&#xbb;" horiz-adv-x="929" d="M45 223l182 344l-182 344l178 113l258 -422v-70l-258 -421zM459 223l182 344l-182 344l178 113l258 -422v-70l-258 -421z" />
<glyph unicode="&#xbc;" horiz-adv-x="1445" d="M43 500v168h156v516h-150v168h340v-684h133v-168h-479zM379 0l551 1352h192l-551 -1352h-192zM872 121v98l154 633h186l-127 -555h117l8 225h168v-225h58v-176h-58v-121h-180v121h-326z" />
<glyph unicode="&#xbd;" horiz-adv-x="1490" d="M43 500v168h156v516h-150v168h340v-684h133v-168h-479zM379 0l551 1352h192l-551 -1352h-192zM934 0v82l188 270q68 96 93.5 150.5t25.5 111.5q0 74 -63 74q-29 0 -46.5 -19.5t-17.5 -52.5q0 -18 4 -67h-176q-6 31 -6 86q0 98 68.5 165.5t187.5 67.5q113 0 178.5 -65.5 t65.5 -176.5q0 -90 -35 -167.5t-129 -208.5l-59 -82h227v-168h-506z" />
<glyph unicode="&#xbe;" horiz-adv-x="1390" d="M4 727l172 45q10 -57 28.5 -79.5t53.5 -22.5q68 0 68 108q0 63 -28 85t-87 22h-86v78l137 215h-225v174h471v-84l-148 -232q76 -22 118 -89.5t42 -168.5q0 -137 -69.5 -216t-190.5 -79q-104 0 -170.5 63.5t-85.5 180.5zM324 0l551 1352h192l-551 -1352h-192zM817 121v98 l154 633h186l-127 -555h117l8 225h168v-225h58v-176h-58v-121h-180v121h-326z" />
<glyph unicode="&#xbf;" horiz-adv-x="710" d="M49 -10q0 283 191 362v203h249v-371h-57q-76 0 -111.5 -43t-35.5 -137q0 -78 26.5 -124t71.5 -46q41 0 66.5 34t44.5 120l206 -47q-33 -170 -112.5 -253t-210.5 -83q-152 0 -240 103.5t-88 281.5zM207 879q0 70 45 113.5t113 43.5t111.5 -44t43.5 -113q0 -66 -44 -111 t-111 -45q-68 0 -113 45t-45 111z" />
<glyph unicode="&#xc0;" horiz-adv-x="931" d="M0 0l401 1352h131l400 -1352h-256l-45 188h-332l-43 -188h-256zM167 1823v41h289l94 -381h-174zM346 391h238l-119 483z" />
<glyph unicode="&#xc1;" horiz-adv-x="931" d="M0 0l401 1352h131l400 -1352h-256l-45 188h-332l-43 -188h-256zM346 391h238l-119 483zM371 1483l94 381h289v-41l-211 -340h-172z" />
<glyph unicode="&#xc2;" horiz-adv-x="931" d="M0 0l401 1352h131l400 -1352h-256l-45 188h-332l-43 -188h-256zM172 1483l213 381h160l213 -381h-184l-109 151l-109 -151h-184zM346 391h238l-119 483z" />
<glyph unicode="&#xc3;" horiz-adv-x="931" d="M0 0l401 1352h131l400 -1352h-256l-45 188h-332l-43 -188h-256zM146 1577q0 119 44 183.5t126 64.5q47 0 110 -45l60 -41q27 -18 41 -25.5t30 -7.5q41 0 41 66v30h180q4 -33 4 -73q0 -119 -44 -182.5t-125 -63.5q-47 0 -113 45l-57 39q-23 14 -40.5 23t-33.5 9 q-23 0 -32 -16t-9 -49v-31h-180q-2 33 -2 74zM346 391h238l-119 483z" />
<glyph unicode="&#xc4;" horiz-adv-x="931" d="M0 0l401 1352h131l400 -1352h-256l-45 188h-332l-43 -188h-256zM129 1665q0 59 41 101t100 42q55 0 96.5 -42t41.5 -101t-41 -101t-97 -42q-59 0 -100 42t-41 101zM346 391h238l-119 483zM520 1665q0 59 41 101t101 42q55 0 96 -42t41 -101t-41 -101t-96 -42 q-60 0 -101 42t-41 101z" />
<glyph unicode="&#xc5;" horiz-adv-x="931" d="M0 0l401 1352h131l400 -1352h-256l-45 188h-332l-43 -188h-256zM221 1638q0 102 70 172t172 70t173 -69.5t71 -172.5q0 -102 -70 -171.5t-174 -69.5q-102 0 -172 69.5t-70 171.5zM346 391h238l-119 483zM375 1638q0 -39 26.5 -67.5t61.5 -28.5t63.5 28.5t28.5 67.5 t-27.5 68t-64.5 29t-62.5 -28t-25.5 -69z" />
<glyph unicode="&#xc6;" horiz-adv-x="1257" d="M0 0l457 1352h725v-226h-412l33 -307h276v-215h-254l41 -377h332v-227h-553l-20 184h-306l-57 -184h-262zM383 389h221l-53 592z" />
<glyph unicode="&#xc7;" horiz-adv-x="897" d="M51 676q0 354 104.5 527t319.5 173q160 0 253 -90t128 -282l-223 -58q-20 102 -57 150.5t-99 48.5q-90 0 -131 -110.5t-41 -358.5t41 -358.5t131 -110.5q61 0 98 48t58 151l223 -58q-35 -193 -128 -283t-253 -90q-215 0 -319.5 173.5t-104.5 527.5zM260 -205q43 -6 69 -6 q43 0 68 22.5t25 61.5q0 90 -21 172l121 37q43 -37 70.5 -100.5t27.5 -133.5q0 -109 -69.5 -175t-182.5 -66q-69 0 -108 20v168z" />
<glyph unicode="&#xc8;" d="M90 0v1352h649v-226h-397v-305h299v-217h-299v-377h416v-227h-668zM110 1823v41h289l94 -381h-174z" />
<glyph unicode="&#xc9;" d="M90 0v1352h649v-226h-397v-305h299v-217h-299v-377h416v-227h-668zM314 1483l94 381h289v-41l-211 -340h-172z" />
<glyph unicode="&#xca;" d="M90 0v1352h649v-226h-397v-305h299v-217h-299v-377h416v-227h-668zM115 1483l213 381h160l213 -381h-184l-109 151l-109 -151h-184z" />
<glyph unicode="&#xcb;" d="M72 1665q0 59 41 101t100 42q55 0 96.5 -42t41.5 -101t-41 -101t-97 -42q-59 0 -100 42t-41 101zM90 0v1352h649v-226h-397v-305h299v-217h-299v-377h416v-227h-668zM463 1665q0 59 41 101t101 42q55 0 96 -42t41 -101t-41 -101t-96 -42q-60 0 -101 42t-41 101z" />
<glyph unicode="&#xcc;" horiz-adv-x="432" d="M-80 1823v41h289l94 -381h-174zM90 0v1352h252v-1352h-252z" />
<glyph unicode="&#xcd;" horiz-adv-x="432" d="M90 0v1352h252v-1352h-252zM123 1483l94 381h289v-41l-211 -340h-172z" />
<glyph unicode="&#xce;" horiz-adv-x="432" d="M-76 1483l213 381h160l213 -381h-184l-109 151l-109 -151h-184zM90 0v1352h252v-1352h-252z" />
<glyph unicode="&#xcf;" horiz-adv-x="432" d="M-119 1665q0 59 41 101t100 42q55 0 96.5 -42t41.5 -101t-41 -101t-97 -42q-59 0 -100 42t-41 101zM90 0v1352h252v-1352h-252zM272 1665q0 59 41 101t101 42q55 0 96 -42t41 -101t-41 -101t-96 -42q-60 0 -101 42t-41 101z" />
<glyph unicode="&#xd0;" horiz-adv-x="978" d="M-14 555v215h104v582h313q256 0 390.5 -162t134.5 -508q0 -682 -525 -682h-313v555h-104zM342 227h66q133 0 197.5 105.5t64.5 349.5q0 242 -64.5 342t-197.5 100h-66v-354h143v-215h-143v-328z" />
<glyph unicode="&#xd1;" horiz-adv-x="1013" d="M90 0v1352h133l447 -742v742h252v-1352h-134l-446 741v-741h-252zM187 1577q0 119 44 183.5t126 64.5q47 0 110 -45l60 -41q27 -18 41 -25.5t30 -7.5q41 0 41 66v30h180q4 -33 4 -73q0 -119 -44 -182.5t-125 -63.5q-47 0 -113 45l-57 39q-23 14 -40.5 23t-33.5 9 q-23 0 -32 -16t-9 -49v-31h-180q-2 33 -2 74z" />
<glyph unicode="&#xd2;" horiz-adv-x="968" d="M51 680q0 354 105.5 525t324.5 171q223 0 330 -170t107 -524q0 -358 -108 -532.5t-329 -174.5q-219 0 -324.5 172t-105.5 533zM184 1823v41h289l94 -381h-174zM305 680q0 -258 40 -365.5t136 -107.5q99 0 141 107.5t42 361.5t-42 361.5t-141 107.5q-96 0 -136 -105.5 t-40 -359.5z" />
<glyph unicode="&#xd3;" horiz-adv-x="968" d="M51 680q0 354 105.5 525t324.5 171q223 0 330 -170t107 -524q0 -358 -108 -532.5t-329 -174.5q-219 0 -324.5 172t-105.5 533zM305 680q0 -258 40 -365.5t136 -107.5q99 0 141 107.5t42 361.5t-42 361.5t-141 107.5q-96 0 -136 -105.5t-40 -359.5zM388 1483l94 381h289 v-41l-211 -340h-172z" />
<glyph unicode="&#xd4;" horiz-adv-x="968" d="M51 680q0 354 105.5 525t324.5 171q223 0 330 -170t107 -524q0 -358 -108 -532.5t-329 -174.5q-219 0 -324.5 172t-105.5 533zM188 1483l213 381h160l213 -381h-184l-109 151l-109 -151h-184zM305 680q0 -258 40 -365.5t136 -107.5q99 0 141 107.5t42 361.5t-42 361.5 t-141 107.5q-96 0 -136 -105.5t-40 -359.5z" />
<glyph unicode="&#xd5;" horiz-adv-x="968" d="M51 680q0 354 105.5 525t324.5 171q223 0 330 -170t107 -524q0 -358 -108 -532.5t-329 -174.5q-219 0 -324.5 172t-105.5 533zM164 1577q0 119 44 183.5t126 64.5q47 0 110 -45l60 -41q27 -18 41 -25.5t30 -7.5q41 0 41 66v30h180q4 -33 4 -73q0 -119 -44 -182.5 t-125 -63.5q-47 0 -113 45l-57 39q-23 14 -40.5 23t-33.5 9q-23 0 -32 -16t-9 -49v-31h-180q-2 33 -2 74zM305 680q0 -258 40 -365.5t136 -107.5q99 0 141 107.5t42 361.5t-42 361.5t-141 107.5q-96 0 -136 -105.5t-40 -359.5z" />
<glyph unicode="&#xd6;" horiz-adv-x="968" d="M51 680q0 354 105.5 525t324.5 171q223 0 330 -170t107 -524q0 -358 -108 -532.5t-329 -174.5q-219 0 -324.5 172t-105.5 533zM145 1665q0 59 41 101t100 42q55 0 96.5 -42t41.5 -101t-41 -101t-97 -42q-59 0 -100 42t-41 101zM305 680q0 -258 40 -365.5t136 -107.5 q99 0 141 107.5t42 361.5t-42 361.5t-141 107.5q-96 0 -136 -105.5t-40 -359.5zM536 1665q0 59 41 101t101 42q55 0 96 -42t41 -101t-41 -101t-96 -42q-60 0 -101 42t-41 101z" />
<glyph unicode="&#xd7;" horiz-adv-x="819" d="M57 444l205 207l-205 205l152 154l205 -209l207 207l143 -144l-205 -207l205 -204l-154 -154l-204 207l-205 -207z" />
<glyph unicode="&#xd8;" horiz-adv-x="968" d="M8 68l103 174q-59 168 -60 438q0 354 105.5 525t324.5 171q150 0 248 -80l57 97l175 -109l-105 -176q61 -162 62 -426q0 -358 -108 -532.5t-329 -174.5q-147 0 -243 78l-58 -96zM293 680q0 -53 4 -139l313 542q-45 72 -129 72q-69 0 -110 -46t-59.5 -149.5t-18.5 -279.5z M356 268q43 -70 125 -69q105 0 150 109.5t45 367.5q0 53 -4 131z" />
<glyph unicode="&#xd9;" horiz-adv-x="1005" d="M86 403v949h252v-961q0 -86 44 -135t122 -49q76 0 120 49t44 135v961h250v-949q0 -195 -114 -311.5t-300 -116.5q-189 0 -303.5 117t-114.5 311zM204 1823v41h289l94 -381h-174z" />
<glyph unicode="&#xda;" horiz-adv-x="1005" d="M86 403v949h252v-961q0 -86 44 -135t122 -49q76 0 120 49t44 135v961h250v-949q0 -195 -114 -311.5t-300 -116.5q-189 0 -303.5 117t-114.5 311zM408 1483l94 381h289v-41l-211 -340h-172z" />
<glyph unicode="&#xdb;" horiz-adv-x="1005" d="M86 403v949h252v-961q0 -86 44 -135t122 -49q76 0 120 49t44 135v961h250v-949q0 -195 -114 -311.5t-300 -116.5q-189 0 -303.5 117t-114.5 311zM209 1483l213 381h160l213 -381h-184l-109 151l-109 -151h-184z" />
<glyph unicode="&#xdc;" horiz-adv-x="1005" d="M86 403v949h252v-961q0 -86 44 -135t122 -49q76 0 120 49t44 135v961h250v-949q0 -195 -114 -311.5t-300 -116.5q-189 0 -303.5 117t-114.5 311zM166 1665q0 59 41 101t100 42q55 0 96.5 -42t41.5 -101t-41 -101t-97 -42q-59 0 -100 42t-41 101zM557 1665q0 59 41 101 t101 42q55 0 96 -42t41 -101t-41 -101t-96 -42q-60 0 -101 42t-41 101z" />
<glyph unicode="&#xdd;" horiz-adv-x="890" d="M0 1352h270l176 -527l177 527h268l-320 -842v-510h-249v500zM353 1483l94 381h289v-41l-211 -340h-172z" />
<glyph unicode="&#xde;" horiz-adv-x="931" d="M90 0v1352h252v-211h111q211 0 326.5 -114t115.5 -322q0 -207 -115.5 -322t-326.5 -115h-111v-268h-252zM342 494h113q184 0 184 211t-184 210h-113v-421z" />
<glyph unicode="&#xdf;" horiz-adv-x="933" d="M82 0v1182q0 180 99.5 279.5t279.5 99.5q156 0 241.5 -82t85.5 -230q0 -84 -30 -198l-58 -217q-23 -82 -22 -117q0 -37 16.5 -64.5t79.5 -95.5q82 -88 109.5 -149.5t27.5 -147.5q0 -127 -80.5 -206t-212.5 -79q-137 1 -237 91l72 174q82 -55 135 -56q45 0 70.5 27 t25.5 68t-21.5 74.5t-87.5 99.5q-76 76 -102.5 123t-26.5 98q0 49 29 166l53 223q14 57 19.5 91t5.5 71q0 57 -26.5 87.5t-77.5 30.5q-59 0 -94.5 -43t-35.5 -116v-1184h-237z" />
<glyph unicode="&#xe0;" horiz-adv-x="806" d="M41 264q0 139 82 221t225 82h141v113q0 63 -30.5 99t-85.5 36q-51 0 -88 -27.5t-74 -91.5l-156 125q111 215 344 215q156 0 244 -89t88 -247v-700h-221v80q-33 -51 -86 -78t-123 -27q-119 0 -189.5 79t-70.5 210zM119 1524v43h286l94 -385h-172zM274 281q0 -53 29 -84 t76 -31q51 0 80.5 35t29.5 92v110h-92q-57 0 -90 -31.5t-33 -90.5z" />
<glyph unicode="&#xe1;" horiz-adv-x="806" d="M41 264q0 139 82 221t225 82h141v113q0 63 -30.5 99t-85.5 36q-51 0 -88 -27.5t-74 -91.5l-156 125q111 215 344 215q156 0 244 -89t88 -247v-700h-221v80q-33 -51 -86 -78t-123 -27q-119 0 -189.5 79t-70.5 210zM274 281q0 -53 29 -84t76 -31q51 0 80.5 35t29.5 92v110 h-92q-57 0 -90 -31.5t-33 -90.5zM324 1182l94 385h286v-43l-208 -342h-172z" />
<glyph unicode="&#xe2;" horiz-adv-x="806" d="M41 264q0 139 82 221t225 82h141v113q0 63 -30.5 99t-85.5 36q-51 0 -88 -27.5t-74 -91.5l-156 125q111 215 344 215q156 0 244 -89t88 -247v-700h-221v80q-33 -51 -86 -78t-123 -27q-119 0 -189.5 79t-70.5 210zM140 1182l192 385h160l190 -385h-174l-96 145l-96 -145 h-176zM274 281q0 -53 29 -84t76 -31q51 0 80.5 35t29.5 92v110h-92q-57 0 -90 -31.5t-33 -90.5z" />
<glyph unicode="&#xe3;" horiz-adv-x="806" d="M41 264q0 139 82 221t225 82h141v113q0 63 -30.5 99t-85.5 36q-51 0 -88 -27.5t-74 -91.5l-156 125q111 215 344 215q156 0 244 -89t88 -247v-700h-221v80q-33 -51 -86 -78t-123 -27q-119 0 -189.5 79t-70.5 210zM103 1282q0 117 45 180.5t127 63.5q51 0 106 -43l49 -37 q20 -16 38 -26.5t30 -10.5q18 0 26.5 13.5t8.5 43.5v41h180q4 -25 4 -73q0 -117 -45 -180.5t-127 -63.5q-49 0 -106 43l-47 39q-27 20 -41.5 27.5t-28.5 7.5q-18 0 -26.5 -13.5t-8.5 -42.5v-43h-182q-2 25 -2 74zM274 281q0 -53 29 -84t76 -31q51 0 80.5 35t29.5 92v110h-92 q-57 0 -90 -31.5t-33 -90.5z" />
<glyph unicode="&#xe4;" horiz-adv-x="806" d="M41 264q0 139 82 221t225 82h141v113q0 63 -30.5 99t-85.5 36q-51 0 -88 -27.5t-74 -91.5l-156 125q111 215 344 215q156 0 244 -89t88 -247v-700h-221v80q-33 -51 -86 -78t-123 -27q-119 0 -189.5 79t-70.5 210zM93 1380q0 59 40.5 100.5t98.5 41.5q57 0 97 -41t40 -101 q0 -59 -40 -101t-97 -42q-58 0 -98.5 42t-40.5 101zM274 281q0 -53 29 -84t76 -31q51 0 80.5 35t29.5 92v110h-92q-57 0 -90 -31.5t-33 -90.5zM453 1380q0 59 41 100.5t100 41.5q55 0 96 -42t41 -100q0 -59 -40.5 -101t-96.5 -42q-59 0 -100 41t-41 102z" />
<glyph unicode="&#xe5;" horiz-adv-x="806" d="M41 264q0 139 82 221t225 82h141v113q0 63 -30.5 99t-85.5 36q-51 0 -88 -27.5t-74 -91.5l-156 125q111 215 344 215q156 0 244 -89t88 -247v-700h-221v80q-33 -51 -86 -78t-123 -27q-119 0 -189.5 79t-70.5 210zM172 1366q0 102 68 170t170 68t171 -68t69 -170t-68 -171 t-172 -69q-102 0 -170 69t-68 171zM274 281q0 -53 29 -84t76 -31q51 0 80.5 35t29.5 92v110h-92q-57 0 -90 -31.5t-33 -90.5zM324 1366q0 -39 24.5 -66.5t61.5 -27.5t63.5 27.5t26.5 66.5t-25.5 64.5t-64.5 25.5q-37 0 -61.5 -25.5t-24.5 -64.5z" />
<glyph unicode="&#xe6;" horiz-adv-x="1218" d="M41 266q0 145 81 230.5t222 85.5h145v100q0 133 -118 133q-49 0 -86 -27.5t-74 -91.5l-156 125q51 102 138.5 158.5t195.5 56.5q154 0 240 -110q88 111 223 110q154 0 234.5 -118.5t80.5 -346.5q0 -104 -10 -161h-430q8 -121 42 -171.5t101 -50.5q45 0 77 24t67 81 l153 -127q-102 -190 -299 -191q-170 0 -264 136q-94 -135 -266 -136q-139 0 -218 77t-79 214zM274 283q0 -55 27 -85t78 -30q110 0 110 139v103h-92q-123 0 -123 -127zM723 582h223q2 133 -23.5 192.5t-82.5 59.5q-60 0 -86.5 -56.5t-30.5 -195.5z" />
<glyph unicode="&#xe7;" horiz-adv-x="755" d="M51 508q0 266 88 397t269 131q131 0 206.5 -70.5t108.5 -224.5l-207 -53q-16 72 -39.5 100.5t-68.5 28.5q-61 0 -86 -67.5t-25 -241.5t24.5 -242.5t86.5 -68.5q45 0 68.5 27.5t39.5 99.5l207 -52q-33 -156 -107.5 -226.5t-207.5 -70.5q-181 0 -269 132.5t-88 400.5z M197 -205q43 -6 69 -6q43 0 68 22.5t25 61.5q0 90 -21 172l121 37q43 -37 70.5 -100.5t27.5 -133.5q0 -109 -69.5 -175t-182.5 -66q-69 0 -108 20v168z" />
<glyph unicode="&#xe8;" horiz-adv-x="782" d="M51 508q0 260 89 394t261 134q164 0 247 -115.5t83 -338.5q0 -104 -12 -160h-432q8 -127 43 -180.5t106 -53.5q43 0 75 24t67 81l153 -127q-53 -98 -128 -144.5t-181 -46.5q-182 0 -276.5 135.5t-94.5 397.5zM109 1524v43h286l94 -385h-172zM287 596h223 q2 125 -23.5 181.5t-83.5 56.5q-59 0 -85.5 -54.5t-30.5 -183.5z" />
<glyph unicode="&#xe9;" horiz-adv-x="782" d="M51 508q0 260 89 394t261 134q164 0 247 -115.5t83 -338.5q0 -104 -12 -160h-432q8 -127 43 -180.5t106 -53.5q43 0 75 24t67 81l153 -127q-53 -98 -128 -144.5t-181 -46.5q-182 0 -276.5 135.5t-94.5 397.5zM287 596h223q2 125 -23.5 181.5t-83.5 56.5 q-59 0 -85.5 -54.5t-30.5 -183.5zM314 1182l94 385h286v-43l-208 -342h-172z" />
<glyph unicode="&#xea;" horiz-adv-x="782" d="M51 508q0 260 89 394t261 134q164 0 247 -115.5t83 -338.5q0 -104 -12 -160h-432q8 -127 43 -180.5t106 -53.5q43 0 75 24t67 81l153 -127q-53 -98 -128 -144.5t-181 -46.5q-182 0 -276.5 135.5t-94.5 397.5zM129 1182l192 385h160l190 -385h-174l-96 145l-96 -145h-176z M287 596h223q2 125 -23.5 181.5t-83.5 56.5q-59 0 -85.5 -54.5t-30.5 -183.5z" />
<glyph unicode="&#xeb;" horiz-adv-x="782" d="M51 508q0 260 89 394t261 134q164 0 247 -115.5t83 -338.5q0 -104 -12 -160h-432q8 -127 43 -180.5t106 -53.5q43 0 75 24t67 81l153 -127q-53 -98 -128 -144.5t-181 -46.5q-182 0 -276.5 135.5t-94.5 397.5zM82 1380q0 59 40.5 100.5t98.5 41.5q57 0 97 -41t40 -101 q0 -59 -40 -101t-97 -42q-58 0 -98.5 42t-40.5 101zM287 596h223q2 125 -23.5 181.5t-83.5 56.5q-59 0 -85.5 -54.5t-30.5 -183.5zM442 1380q0 59 41 100.5t100 41.5q55 0 96 -42t41 -100q0 -59 -40.5 -101t-96.5 -42q-59 0 -100 41t-41 102z" />
<glyph unicode="&#xec;" horiz-adv-x="403" d="M-47 1542v43h289l51 -432h-174zM82 0v1014h240v-1014h-240z" />
<glyph unicode="&#xed;" horiz-adv-x="403" d="M82 0v1014h240v-1014h-240zM115 1153l51 432h289v-43l-168 -389h-172z" />
<glyph unicode="&#xee;" horiz-adv-x="403" d="M-69 1182l192 385h160l190 -385h-174l-96 145l-96 -145h-176zM82 0v1014h240v-1014h-240z" />
<glyph unicode="&#xef;" horiz-adv-x="403" d="M-110 1380q0 59 41 100.5t100 41.5q55 0 96 -42t41 -100q0 -59 -41 -101t-96 -42q-59 0 -100 42t-41 101zM82 0v1014h240v-1014h-240zM238 1380q0 59 41 100.5t100 41.5q55 0 96 -42t41 -100q0 -61 -41 -102t-96 -41q-59 0 -100 41t-41 102z" />
<glyph unicode="&#xf0;" horiz-adv-x="819" d="M29 1235l182 82l-70 141l207 101l72 -148l180 80l76 -174l-172 -78l102 -209q92 -186 126 -302t34 -251q0 -240 -94 -371t-266 -131q-170 0 -261.5 129t-91.5 373q0 225 79 341t230 116q25 0 35 -2l-104 213l-189 -84zM297 463q0 -150 25.5 -211.5t87.5 -61.5 q61 0 86.5 61.5t25.5 211.5q0 147 -26.5 208.5t-87.5 61.5t-86 -60.5t-25 -209.5z" />
<glyph unicode="&#xf1;" horiz-adv-x="854" d="M82 0v1014h221v-68q66 90 199 90q125 0 199.5 -85t74.5 -224v-727h-239v705q0 51 -30 81.5t-77 30.5t-77.5 -31.5t-30.5 -80.5v-705h-240zM123 1282q0 117 45 180.5t127 63.5q51 0 106 -43l49 -37q20 -16 38 -26.5t30 -10.5q18 0 26.5 13.5t8.5 43.5v41h180q4 -25 4 -73 q0 -117 -45 -180.5t-127 -63.5q-49 0 -106 43l-47 39q-27 20 -41.5 27.5t-28.5 7.5q-18 0 -26.5 -13.5t-8.5 -42.5v-43h-182q-2 25 -2 74z" />
<glyph unicode="&#xf2;" d="M51 510q0 260 90 393t267 133q176 0 266 -133t90 -393q0 -262 -90 -398.5t-266 -136.5q-175 0 -266 136.5t-91 398.5zM115 1524v43h286l94 -385h-172zM297 504q0 -170 24.5 -238.5t86.5 -68.5q61 0 86.5 68.5t25.5 238.5q0 172 -25.5 242.5t-86.5 70.5q-59 0 -85 -70.5 t-26 -242.5z" />
<glyph unicode="&#xf3;" d="M51 510q0 260 90 393t267 133q176 0 266 -133t90 -393q0 -262 -90 -398.5t-266 -136.5q-175 0 -266 136.5t-91 398.5zM297 504q0 -170 24.5 -238.5t86.5 -68.5q61 0 86.5 68.5t25.5 238.5q0 172 -25.5 242.5t-86.5 70.5q-59 0 -85 -70.5t-26 -242.5zM320 1182l94 385h286 v-43l-208 -342h-172z" />
<glyph unicode="&#xf4;" d="M51 510q0 260 90 393t267 133q176 0 266 -133t90 -393q0 -262 -90 -398.5t-266 -136.5q-175 0 -266 136.5t-91 398.5zM136 1182l192 385h160l190 -385h-174l-96 145l-96 -145h-176zM297 504q0 -170 24.5 -238.5t86.5 -68.5q61 0 86.5 68.5t25.5 238.5q0 172 -25.5 242.5 t-86.5 70.5q-59 0 -85 -70.5t-26 -242.5z" />
<glyph unicode="&#xf5;" d="M51 510q0 260 90 393t267 133q176 0 266 -133t90 -393q0 -262 -90 -398.5t-266 -136.5q-175 0 -266 136.5t-91 398.5zM99 1282q0 117 45 180.5t127 63.5q51 0 106 -43l49 -37q20 -16 38 -26.5t30 -10.5q18 0 26.5 13.5t8.5 43.5v41h180q4 -25 4 -73q0 -117 -45 -180.5 t-127 -63.5q-49 0 -106 43l-47 39q-27 20 -41.5 27.5t-28.5 7.5q-18 0 -26.5 -13.5t-8.5 -42.5v-43h-182q-2 25 -2 74zM297 504q0 -170 24.5 -238.5t86.5 -68.5q61 0 86.5 68.5t25.5 238.5q0 172 -25.5 242.5t-86.5 70.5q-59 0 -85 -70.5t-26 -242.5z" />
<glyph unicode="&#xf6;" d="M51 510q0 260 90 393t267 133q176 0 266 -133t90 -393q0 -262 -90 -398.5t-266 -136.5q-175 0 -266 136.5t-91 398.5zM89 1380q0 59 40.5 100.5t98.5 41.5q57 0 97 -41t40 -101q0 -59 -40 -101t-97 -42q-58 0 -98.5 42t-40.5 101zM297 504q0 -170 24.5 -238.5t86.5 -68.5 q61 0 86.5 68.5t25.5 238.5q0 172 -25.5 242.5t-86.5 70.5q-59 0 -85 -70.5t-26 -242.5zM449 1380q0 59 41 100.5t100 41.5q55 0 96 -42t41 -100q0 -59 -40.5 -101t-96.5 -42q-59 0 -100 41t-41 102z" />
<glyph unicode="&#xf7;" horiz-adv-x="819" d="M49 551v207h721v-207h-721zM268 322q0 61 41 101t103 40q59 0 99 -40t40 -101t-40 -101.5t-99 -40.5q-62 0 -103 40t-41 102zM268 985q0 61 41 100t103 39q59 0 99 -38.5t40 -100.5q0 -61 -40 -101t-99 -40q-62 0 -103 40t-41 101z" />
<glyph unicode="&#xf8;" horiz-adv-x="821" d="M16 55l88 129q-51 131 -51 326q0 260 89 393t266 133q109 0 190 -53l53 82l154 -107l-90 -129q51 -123 51 -319q0 -262 -91 -398.5t-267 -136.5q-106 0 -185 54l-53 -78zM283 504q0 -51 2 -74l207 356q-29 43 -84 43q-70 0 -97.5 -72.5t-27.5 -252.5zM328 223 q27 -39 80 -39q71 0 100 71t29 249q0 53 -2 76z" />
<glyph unicode="&#xf9;" horiz-adv-x="849" d="M78 326v688h239v-707q0 -53 29 -81.5t78 -28.5q51 0 79.5 28.5t28.5 81.5v707h240v-688q0 -160 -94 -255.5t-254 -95.5q-158 0 -252 95.5t-94 255.5zM134 1524v43h286l94 -385h-172z" />
<glyph unicode="&#xfa;" horiz-adv-x="849" d="M78 326v688h239v-707q0 -53 29 -81.5t78 -28.5q51 0 79.5 28.5t28.5 81.5v707h240v-688q0 -160 -94 -255.5t-254 -95.5q-158 0 -252 95.5t-94 255.5zM338 1182l94 385h286v-43l-208 -342h-172z" />
<glyph unicode="&#xfb;" horiz-adv-x="849" d="M78 326v688h239v-707q0 -53 29 -81.5t78 -28.5q51 0 79.5 28.5t28.5 81.5v707h240v-688q0 -160 -94 -255.5t-254 -95.5q-158 0 -252 95.5t-94 255.5zM154 1182l192 385h160l190 -385h-174l-96 145l-96 -145h-176z" />
<glyph unicode="&#xfc;" horiz-adv-x="849" d="M78 326v688h239v-707q0 -53 29 -81.5t78 -28.5q51 0 79.5 28.5t28.5 81.5v707h240v-688q0 -160 -94 -255.5t-254 -95.5q-158 0 -252 95.5t-94 255.5zM107 1380q0 59 40.5 100.5t98.5 41.5q57 0 97 -41t40 -101q0 -59 -40 -101t-97 -42q-58 0 -98.5 42t-40.5 101z M467 1380q0 59 41 100.5t100 41.5q55 0 96 -42t41 -100q0 -59 -40.5 -101t-96.5 -42q-59 0 -100 41t-41 102z" />
<glyph unicode="&#xfd;" d="M4 1014h256l143 -617l156 617h256l-350 -1131q-43 -145 -114.5 -209.5t-196.5 -64.5q-51 0 -109 14v205q18 -2 59 -2q61 0 90 25.5t48 87.5l39 122zM322 1182l94 385h286v-43l-208 -342h-172z" />
<glyph unicode="&#xfe;" horiz-adv-x="837" d="M82 -369v1905h237v-580q61 80 170 80q148 0 222.5 -134t74.5 -396t-74.5 -396.5t-222.5 -134.5q-111 0 -170 80v-424h-237zM315 506q0 -172 26 -240.5t87 -68.5q64 0 89.5 68.5t25.5 240.5t-25.5 241.5t-89.5 69.5q-61 0 -87 -69.5t-26 -241.5z" />
<glyph unicode="&#xff;" d="M4 1014h256l143 -617l156 617h256l-350 -1131q-43 -145 -114.5 -209.5t-196.5 -64.5q-51 0 -109 14v205q18 -2 59 -2q61 0 90 25.5t48 87.5l39 122zM91 1380q0 59 40.5 100.5t98.5 41.5q57 0 97 -41t40 -101q0 -59 -40 -101t-97 -42q-58 0 -98.5 42t-40.5 101zM451 1380 q0 59 41 100.5t100 41.5q55 0 96 -42t41 -100q0 -59 -40.5 -101t-96.5 -42q-59 0 -100 41t-41 102z" />
<glyph unicode="&#x152;" horiz-adv-x="1366" d="M51 682q0 348 102.5 521t311.5 173q154 0 227 -98v74h596v-226h-375v-305h277v-217h-277v-377h396v-227h-617v74q-74 -98 -225 -99q-416 0 -416 707zM305 680q0 -258 40 -364.5t136 -106.5q99 0 141 106.5t42 360.5t-42 361.5t-141 107.5q-96 0 -136 -105.5t-40 -359.5z " />
<glyph unicode="&#x153;" horiz-adv-x="1236" d="M51 510q0 260 89 393t257 133q158 0 236 -121q86 121 233 121q152 0 235 -115.5t83 -338.5q0 -100 -10 -160h-433q8 -129 42 -181.5t106 -52.5q43 0 75.5 24t67.5 81l154 -127q-55 -98 -129 -144.5t-180 -46.5q-160 0 -246 123q-76 -123 -234 -123q-168 0 -257 137.5 t-89 397.5zM295 506q0 -170 25.5 -239.5t87.5 -69.5q63 0 88.5 68.5t25.5 240.5t-25.5 241.5t-88.5 69.5q-61 0 -87 -69.5t-26 -241.5zM741 596h224q2 125 -24 181.5t-85 56.5q-57 0 -84 -54.5t-31 -183.5z" />
<glyph unicode="&#x178;" horiz-adv-x="890" d="M0 1352h270l176 -527l177 527h268l-320 -842v-510h-249v500zM110 1665q0 59 41 101t100 42q55 0 96.5 -42t41.5 -101t-41 -101t-97 -42q-59 0 -100 42t-41 101zM501 1665q0 59 41 101t101 42q55 0 96 -42t41 -101t-41 -101t-96 -42q-60 0 -101 42t-41 101z" />
<glyph unicode="&#x2c6;" horiz-adv-x="663" d="M62 1182l192 385h160l190 -385h-174l-96 145l-96 -145h-176z" />
<glyph unicode="&#x2dc;" horiz-adv-x="733" d="M60 1282q0 117 45 180.5t127 63.5q51 0 106 -43l49 -37q20 -16 38 -26.5t30 -10.5q18 0 26.5 13.5t8.5 43.5v41h180q4 -25 4 -73q0 -117 -45 -180.5t-127 -63.5q-49 0 -106 43l-47 39q-27 20 -41.5 27.5t-28.5 7.5q-18 0 -26.5 -13.5t-8.5 -42.5v-43h-182q-2 25 -2 74z " />
<glyph unicode="&#x2000;" horiz-adv-x="940" />
<glyph unicode="&#x2001;" horiz-adv-x="1880" />
<glyph unicode="&#x2002;" horiz-adv-x="940" />
<glyph unicode="&#x2003;" horiz-adv-x="1880" />
<glyph unicode="&#x2004;" horiz-adv-x="626" />
<glyph unicode="&#x2005;" horiz-adv-x="470" />
<glyph unicode="&#x2006;" horiz-adv-x="313" />
<glyph unicode="&#x2007;" horiz-adv-x="313" />
<glyph unicode="&#x2008;" horiz-adv-x="235" />
<glyph unicode="&#x2009;" horiz-adv-x="376" />
<glyph unicode="&#x200a;" horiz-adv-x="104" />
<glyph unicode="&#x2010;" horiz-adv-x="487" d="M57 545v217h373v-217h-373z" />
<glyph unicode="&#x2011;" horiz-adv-x="487" d="M57 545v217h373v-217h-373z" />
<glyph unicode="&#x2012;" horiz-adv-x="487" d="M57 545v217h373v-217h-373z" />
<glyph unicode="&#x2013;" horiz-adv-x="716" d="M43 545v217h631v-217h-631z" />
<glyph unicode="&#x2014;" horiz-adv-x="1433" d="M72 545v217h1290v-217h-1290z" />
<glyph unicode="&#x2018;" horiz-adv-x="448" d="M63 795l93 557h184l-6 -557h-271z" />
<glyph unicode="&#x2019;" horiz-adv-x="448" d="M106 795l9 557h270l-92 -557h-187z" />
<glyph unicode="&#x201a;" horiz-adv-x="448" d="M106 -324l9 553h270l-92 -553h-187z" />
<glyph unicode="&#x201c;" horiz-adv-x="839" d="M63 795l93 557h184l-6 -557h-271zM456 795l93 557h184l-6 -557h-271z" />
<glyph unicode="&#x201d;" horiz-adv-x="841" d="M106 795l9 557h270l-92 -557h-187zM499 795l9 557h270l-92 -557h-187z" />
<glyph unicode="&#x201e;" horiz-adv-x="841" d="M106 -324l9 553h270l-92 -553h-187zM499 -324l9 553h270l-92 -553h-187z" />
<glyph unicode="&#x2022;" horiz-adv-x="874" d="M104 555q0 92 45.5 166t122 117t166.5 43t167 -43t121 -118t44 -165t-44 -165t-121 -117t-167 -42t-166.5 43t-122 117t-45.5 164z" />
<glyph unicode="&#x2026;" horiz-adv-x="1468" d="M49 133q0 70 45 114t111 44q68 0 111.5 -44t43.5 -114q0 -68 -45 -113t-110 -45q-66 0 -111 45.5t-45 112.5zM577 133q0 70 45 114t111 44q68 0 111.5 -44t43.5 -114q0 -68 -45 -113t-110 -45q-66 0 -111 45.5t-45 112.5zM1108 133q0 70 45 114t111 44q68 0 111.5 -44 t43.5 -114q0 -68 -45 -113t-110 -45q-66 0 -111 45.5t-45 112.5z" />
<glyph unicode="&#x202f;" horiz-adv-x="376" />
<glyph unicode="&#x2039;" horiz-adv-x="518" d="M33 532v70l258 422l182 -113l-182 -344l182 -344l-182 -112z" />
<glyph unicode="&#x203a;" horiz-adv-x="516" d="M45 223l182 344l-182 344l178 113l258 -422v-70l-258 -421z" />
<glyph unicode="&#x205f;" horiz-adv-x="470" />
<glyph unicode="&#x20ac;" horiz-adv-x="915" d="M4 426v174h105q-2 25 -3 76v65h-102v174h117q31 236 133 348.5t285 112.5q123 0 217 -68.5t139 -193.5l-193 -108q-25 76 -63.5 110.5t-95.5 34.5q-72 0 -115 -57.5t-61 -178.5h307l-49 -174h-273v-65q0 -51 2 -76h244l-47 -174h-182q20 -117 62 -171t112 -54 q57 0 96 34.5t63 110.5l193 -108q-45 -125 -138 -194t-218 -69q-180 0 -282.5 111t-135.5 340h-117z" />
<glyph unicode="&#x2122;" horiz-adv-x="1220" d="M16 1188v166h476v-166h-142v-588h-194v588h-140zM557 600v752h115l186 -340l186 340h113v-752h-182v332l-94 -172h-47l-95 172v-332h-182z" />
<glyph unicode="&#x25fc;" horiz-adv-x="1013" d="M0 0v1014h1014v-1014h-1014z" />
</font>
</defs>
</svg>
