<?xml version="1.0" standalone="no"?>
<!DOCTYPE svg PUBLIC "-//W3C//DTD SVG 1.1//EN" "http://www.w3.org/Graphics/SVG/1.1/DTD/svg11.dtd" >
<svg xmlns="http://www.w3.org/2000/svg" xmlns:xlink="http://www.w3.org/1999/xlink" version="1.1">
<metadata></metadata>
<defs>
<font id="cera_rltregular" horiz-adv-x="1146" >
<font-face units-per-em="2048" ascent="1655" descent="-393" />
<missing-glyph horiz-adv-x="573" />
<glyph unicode="&#xfb01;" horiz-adv-x="1155" d="M55 856v141h144v238q0 164 89 244t240 80q66 0 125 -17v-133q-49 6 -88 6q-100 0 -154.5 -42t-54.5 -148v-228h250v-141h-250v-856h-157v856h-144zM786 1378q0 47 35 81t84 34q47 0 82 -34t35 -81q0 -49 -34 -81.5t-83 -32.5t-84 32.5t-35 81.5zM825 0v997h158v-997h-158 z" />
<glyph unicode="&#xfb02;" horiz-adv-x="1155" d="M55 856v141h144v238q0 164 89 244t240 80q66 0 125 -17v-133q-49 6 -88 6q-100 0 -154.5 -42t-54.5 -148v-228h250v-141h-250v-856h-157v856h-144zM825 0v1536h158v-1536h-158z" />
<glyph horiz-adv-x="0" />
<glyph horiz-adv-x="682" />
<glyph unicode=" "  horiz-adv-x="573" />
<glyph unicode="&#x09;" horiz-adv-x="573" />
<glyph unicode="&#xa0;" horiz-adv-x="573" />
<glyph unicode="!" horiz-adv-x="624" d="M182 106q0 55 38 92.5t91 37.5q55 0 92 -37t37 -93q0 -55 -36.5 -92t-92.5 -37q-53 0 -91 37t-38 92zM231 428v924h160v-924h-160z" />
<glyph unicode="&#x22;" horiz-adv-x="948" d="M193 825l28 527h185l-89 -527h-124zM568 825l28 527h185l-89 -527h-124z" />
<glyph unicode="#" horiz-adv-x="1222" d="M57 354v135h199l49 373h-199v135h218l47 355h137l-49 -355h391l47 355h137l-49 -355h180v-135h-198l-49 -373h200v-135h-219l-49 -354h-133l47 354h-391l-49 -354h-134l48 354h-181zM391 489h391l49 373h-391z" />
<glyph unicode="$" horiz-adv-x="1097" d="M82 330l115 82q137 -227 360 -228q111 0 181.5 52.5t70.5 142.5q0 74 -51 121t-156 94l-145 61q-131 55 -208 131t-77 199t83 205t214 102v244h158v-240q201 -27 315 -219l-108 -84q-55 84 -122 124t-155 40q-90 0 -157.5 -42t-67.5 -128q0 -74 46 -115t144 -88l150 -61 q143 -59 220 -140t77 -202q0 -137 -95.5 -226t-246.5 -108v-240h-158v242q-127 18 -224.5 92t-162.5 189z" />
<glyph unicode="%" horiz-adv-x="1724" d="M135 1044q0 92 45 167t122 119t169 44q90 0 167 -44t122 -118.5t45 -167.5q0 -92 -45 -166.5t-122 -118.5t-167 -44q-92 0 -169 44t-122 118.5t-45 166.5zM268 1044q0 -92 57.5 -152.5t145.5 -60.5t145.5 61.5t57.5 151.5t-57.5 151.5t-145.5 61.5t-145.5 -60t-57.5 -153 zM406 0l774 1352h141l-774 -1352h-141zM922 309q0 92 44 167t120.5 119t166.5 44t168 -44t123 -119t45 -167t-45 -166.5t-123 -118.5t-168 -44t-166.5 44t-120.5 118.5t-44 166.5zM1053 309q0 -90 57 -150.5t145 -60.5q86 0 143.5 60.5t57.5 150.5q0 92 -57.5 152.5 t-143.5 60.5q-88 0 -145 -60.5t-57 -152.5z" />
<glyph unicode="&#x26;" horiz-adv-x="1280" d="M102 330q0 109 69 203t237 219q-76 96 -111 169.5t-35 155.5q0 133 83 215t218 82q129 0 213 -78.5t84 -199.5q0 -92 -58.5 -179.5t-183.5 -183.5l287 -344q47 63 133 199l64 96l131 -86l-23 -35q-133 -203 -204 -297l223 -266h-193l-129 154q-86 -86 -180 -131.5 t-211 -45.5q-119 0 -213 45.5t-147.5 126t-53.5 181.5zM270 344q0 -96 71 -157.5t179 -61.5q154 0 289 147l-309 371q-98 -76 -145.5 -123t-66 -86t-18.5 -90zM418 1077q0 -55 26.5 -109.5t87.5 -129.5q92 76 132.5 132t40.5 120q0 66 -38 102.5t-104 36.5q-71 0 -108 -39 t-37 -113z" />
<glyph unicode="'" horiz-adv-x="573" d="M193 825l28 527h185l-89 -527h-124z" />
<glyph unicode="(" horiz-adv-x="681" d="M160 616q0 375 112.5 589t284.5 298l68 -108q-309 -201 -310 -779q0 -324 87 -508t223 -268l-68 -108q-172 84 -284.5 298t-112.5 586z" />
<glyph unicode=")" horiz-adv-x="681" d="M57 -160q135 84 223.5 268.5t88.5 507.5q0 575 -312 779l70 108q170 -84 282.5 -298t112.5 -589t-112.5 -587.5t-282.5 -296.5z" />
<glyph unicode="*" horiz-adv-x="839" d="M94 1057l193 131l-193 131l49 86l209 -100l19 231h98l16 -231l209 100l51 -86l-192 -131l192 -131l-51 -84l-209 100l-16 -231h-98l-19 231l-209 -100z" />
<glyph unicode="+" d="M115 575v140h385v389h155v-389h375v-140h-375v-395h-155v395h-385z" />
<glyph unicode="," horiz-adv-x="573" d="M184 -367l27 551h186l-84 -551h-129z" />
<glyph unicode="-" horiz-adv-x="708" d="M109 578v133h489v-133h-489z" />
<glyph unicode="." horiz-adv-x="573" d="M158 106q0 55 37.5 92.5t91.5 37.5q53 0 91 -37t38 -93q0 -55 -38 -92t-91 -37q-54 0 -91.5 37t-37.5 92z" />
<glyph unicode="/" horiz-adv-x="1286" d="M14 -248l1071 1845h187l-1071 -1845h-187z" />
<glyph unicode="0" horiz-adv-x="1259" d="M135 688q0 309 125 497.5t371 188.5t369.5 -187.5t123.5 -498.5t-122.5 -511t-370.5 -200t-372 200t-124 511zM301 686q0 -258 80 -409.5t250 -151.5t248.5 151.5t78.5 409.5q0 254 -77.5 397.5t-249.5 143.5t-251 -143.5t-79 -397.5z" />
<glyph unicode="1" horiz-adv-x="776" d="M61 1208l435 144h59v-1352h-160v1163l-295 -92z" />
<glyph unicode="2" d="M96 0v41l482 512q123 129 180 218t57 185q0 113 -70.5 192t-189.5 79q-123 0 -196.5 -82t-73.5 -197q0 -57 12 -112h-164q-14 55 -14 118q0 106 53 203.5t152.5 157t230.5 59.5q123 0 220 -54t151.5 -147.5t54.5 -207.5q0 -94 -39 -180.5t-95 -158t-149 -167.5l-299 -316 h637v-143h-940z" />
<glyph unicode="3" horiz-adv-x="1101" d="M53 258l113 80q66 -96 147.5 -154.5t196.5 -58.5q139 0 227 83t88 218q0 131 -89 205t-253 74h-133v47l355 452h-560v148h811v-47l-358 -461q102 -10 192.5 -60.5t145.5 -140.5t55 -215q0 -135 -65.5 -237.5t-176 -158t-237.5 -55.5q-156 0 -273.5 79t-185.5 202z" />
<glyph unicode="4" horiz-adv-x="1122" d="M43 252v45l444 1055h164l-405 -961h475v451h160v-451h196v-139h-196v-252h-160v252h-678z" />
<glyph unicode="5" horiz-adv-x="1136" d="M80 256l110 82q63 -96 148.5 -154.5t206.5 -58.5q137 0 226 83t89 218q0 133 -89 207t-255 74h-305v645h739v-144h-579v-379q94 16 192 17q125 0 230.5 -46t169 -140.5t63.5 -231.5q0 -135 -66.5 -237.5t-176 -158t-236.5 -55.5q-162 0 -279.5 78t-187.5 201z" />
<glyph unicode="6" horiz-adv-x="1128" d="M102 434q0 104 38 186t120 203q10 12 16.5 22.5t12.5 18.5l336 488h190l-344 -496q49 18 113 18q118 0 219.5 -58t161 -159.5t59.5 -224.5q0 -127 -61.5 -231.5t-167 -164t-232.5 -59.5q-125 0 -231.5 59.5t-168 164t-61.5 233.5zM260 432q0 -86 40 -156.5t109.5 -111.5 t153.5 -41t153.5 41t109.5 111.5t40 156.5q0 84 -40 154.5t-109.5 111.5t-153.5 41t-153.5 -41t-109.5 -111.5t-40 -154.5z" />
<glyph unicode="7" horiz-adv-x="1026" d="M72 1208v144h903v-47l-684 -1305h-174l643 1208h-688z" />
<glyph unicode="8" horiz-adv-x="1183" d="M115 346q0 248 321 361q-123 57 -190.5 137t-67.5 194q0 158 118 247t296 89q174 0 291.5 -89t117.5 -247q0 -217 -258 -329q322 -121 322 -365q0 -109 -58.5 -191.5t-166 -129t-248.5 -46.5t-250 46.5t-168 130.5t-59 192zM276 350q0 -106 83 -170.5t233 -64.5 q149 0 230 64.5t81 170.5t-79 167t-232 116q-156 -55 -236 -116.5t-80 -166.5zM336 1032q0 -86 62.5 -141t191.5 -109q129 51 191.5 106.5t62.5 143.5q0 96 -71 150.5t-181 54.5q-113 0 -184.5 -54.5t-71.5 -150.5z" />
<glyph unicode="9" horiz-adv-x="1128" d="M102 920q0 127 62.5 231t168 163.5t232.5 59.5q125 0 230.5 -59.5t167 -163.5t61.5 -233q0 -80 -23.5 -149t-55.5 -120t-107 -162l-336 -487h-189l344 496q-49 -18 -114 -19q-117 0 -218.5 58.5t-162 160t-60.5 224.5zM260 922q0 -86 40 -157t110.5 -112t154.5 -41 t153.5 41t108.5 112t39 157t-39 156.5t-108.5 110.5t-153.5 40t-154.5 -40t-110.5 -110.5t-40 -156.5z" />
<glyph unicode=":" horiz-adv-x="573" d="M158 106q0 55 37.5 92.5t91.5 37.5q53 0 91 -37t38 -93q0 -55 -38 -92t-91 -37q-54 0 -91.5 37t-37.5 92zM158 878q0 55 37.5 92.5t91.5 37.5q53 0 91 -37t38 -93q0 -55 -38 -92t-91 -37q-54 0 -91.5 37t-37.5 92z" />
<glyph unicode=";" horiz-adv-x="573" d="M158 878q0 55 37.5 92.5t91.5 37.5q53 0 91 -37t38 -93q0 -55 -38 -92t-91 -37q-54 0 -91.5 37t-37.5 92zM184 -367l27 551h186l-84 -551h-129z" />
<glyph unicode="&#x3c;" d="M106 621v49l898 383v-148l-619 -260l619 -258v-149z" />
<glyph unicode="=" d="M135 362v140h877v-140h-877zM135 786v142h877v-142h-877z" />
<glyph unicode="&#x3e;" d="M143 238v149l619 258l-619 260v148l899 -383v-49z" />
<glyph unicode="?" horiz-adv-x="911" d="M94 1098q41 131 135.5 203.5t221.5 72.5q104 0 188 -47t132 -129t48 -182q0 -135 -85 -229.5t-224 -116.5v-242h-160v381h84q100 0 164 57.5t64 147.5q0 92 -56.5 153.5t-144.5 61.5q-78 0 -137.5 -48t-92.5 -143zM301 106q0 55 37 92.5t92 37.5t92 -37t37 -93 q0 -55 -37 -92t-92 -37q-53 0 -91 37t-38 92z" />
<glyph unicode="@" horiz-adv-x="1888" d="M98 504q0 238 116 430t315.5 302t439.5 110q231 0 418.5 -102.5t295 -276.5t107.5 -381q0 -160 -66.5 -275.5t-185.5 -176t-272 -60.5h-49v133q-47 -74 -130 -115t-182 -41q-117 0 -209 57.5t-145 157t-53 221.5q0 121 52 220.5t146.5 157t210.5 57.5q92 0 171 -36 t126 -100v119h148v-692q135 10 215 106.5t80 266.5q0 176 -85 318.5t-239 224t-350 81.5q-207 0 -373 -91t-260 -250.5t-94 -362.5t95 -363.5t258 -252t362 -91.5q141 0 266 45l28 -123q-141 -55 -309 -55q-233 0 -426.5 109.5t-307.5 302t-114 426.5zM659 487 q0 -127 78 -208.5t195 -81.5q106 0 185 74.5t79 217.5q0 141 -78 216t-186 75q-117 0 -195 -82t-78 -211z" />
<glyph unicode="A" horiz-adv-x="1357" d="M63 0l586 1374h60l585 -1374h-170l-114 274h-664l-115 -274h-168zM408 418h540l-270 665z" />
<glyph unicode="B" horiz-adv-x="1261" d="M186 0v1352h465q176 0 280.5 -96.5t104.5 -245.5q0 -84 -33.5 -151.5t-95.5 -115.5q125 -36 194.5 -129.5t69.5 -224.5q0 -113 -51 -201t-148.5 -138t-228.5 -50h-557zM346 143h381q133 0 207 69t74 181q0 113 -74 181.5t-207 68.5h-381v-500zM346 788h289 q115 0 176 57.5t61 153.5t-60 152.5t-177 56.5h-289v-420z" />
<glyph unicode="C" horiz-adv-x="1464" d="M98 676q0 195 93.5 354.5t255 251.5t354.5 92q180 0 327.5 -78.5t233.5 -212.5l-119 -94q-78 113 -189.5 175.5t-250.5 62.5q-152 0 -274.5 -72t-193.5 -198t-71 -281q0 -156 71 -282t193.5 -197.5t274.5 -71.5q139 0 250.5 62.5t189.5 174.5l119 -94 q-84 -133 -232.5 -212t-328.5 -79q-193 0 -354.5 92.5t-255 252t-93.5 354.5z" />
<glyph unicode="D" horiz-adv-x="1421" d="M186 0v1352h402q225 0 391 -86t255 -239t89 -349q0 -195 -89 -348.5t-255 -241.5t-391 -88h-402zM346 143h240q176 0 306 70t197.5 190.5t67.5 274.5q0 156 -67.5 275.5t-196.5 187t-307 67.5h-240v-1065z" />
<glyph unicode="E" horiz-adv-x="1159" d="M186 0v1352h867v-144h-707v-413h541v-144h-541v-508h731v-143h-891z" />
<glyph unicode="F" horiz-adv-x="1073" d="M186 0v1352h846v-144h-686v-465h569v-145h-569v-598h-160z" />
<glyph unicode="G" horiz-adv-x="1527" d="M98 676q0 195 93.5 354.5t254 251.5t355.5 92q172 0 314 -72.5t237 -203.5l-121 -94q-78 106 -186.5 164.5t-243.5 58.5q-154 0 -277 -72t-191.5 -198t-68.5 -279q0 -156 69.5 -284t194.5 -200.5t281 -72.5q147 0 264 65.5t187 175.5v183h-461v143h620v-360 q-90 -160 -255 -255.5t-363 -95.5q-195 0 -355.5 92.5t-254 252t-93.5 354.5z" />
<glyph unicode="H" horiz-adv-x="1449" d="M186 0v1352h160v-557h758v557h160v-1352h-160v651h-758v-651h-160z" />
<glyph unicode="I" horiz-adv-x="530" d="M186 0v1352h160v-1352h-160z" />
<glyph unicode="J" horiz-adv-x="763" d="M49 0v137q84 -12 148 -12q109 0 166 44t57 159v1024h160v-1039q0 -170 -94.5 -253t-258.5 -83q-80 0 -178 23z" />
<glyph unicode="K" horiz-adv-x="1296" d="M186 0v1352h160v-1352h-160zM365 725l608 627h205l-605 -627l660 -725h-203z" />
<glyph unicode="L" horiz-adv-x="1036" d="M186 0v1352h160v-1209h641v-143h-801z" />
<glyph unicode="M" horiz-adv-x="1615" d="M186 0v1374h58l563 -780l567 780h56v-1374h-160v969l-432 -586h-58l-434 590v-973h-160z" />
<glyph unicode="N" horiz-adv-x="1449" d="M186 0v1374h58l860 -1038v1016h160v-1375h-58l-860 1037v-1014h-160z" />
<glyph unicode="O" horiz-adv-x="1599" d="M98 676q0 195 93.5 354.5t254 251.5t353.5 92q190 0 352 -92t256 -252t94 -354q0 -195 -94 -354.5t-256 -252t-352 -92.5q-193 0 -353.5 92.5t-254 253t-93.5 353.5zM264 678q0 -156 69.5 -282t192.5 -198.5t275 -72.5q149 0 272 72.5t192.5 198.5t69.5 282 q0 154 -69.5 279.5t-192.5 197.5t-272 72q-152 0 -275 -72t-192.5 -196.5t-69.5 -280.5z" />
<glyph unicode="P" horiz-adv-x="1173" d="M186 0v1352h476q131 0 228 -50.5t150.5 -139.5t53.5 -201q0 -115 -53.5 -205t-150.5 -140.5t-228 -50.5h-316v-565h-160zM346 709h311q129 0 200 68.5t71 180.5q0 111 -71 180.5t-200 69.5h-311v-499z" />
<glyph unicode="Q" horiz-adv-x="1599" d="M98 676q0 195 93.5 354.5t254 251.5t353.5 92q190 0 352 -92t256 -252t94 -354q0 -180 -82 -331.5t-223 -248.5q143 -188 323.5 -281.5t413.5 -93.5q84 1 197 11v-127q-113 -20 -217 -21q-264 0 -479 114t-369 331q-127 -51 -266 -52q-193 0 -353.5 92.5t-254 253 t-93.5 353.5zM264 678q0 -156 69.5 -282t192.5 -198.5t275 -72.5q150 0 272.5 72.5t192 198.5t69.5 280q0 156 -69.5 281.5t-192.5 197.5t-274 72q-152 0 -274 -72t-191.5 -196.5t-69.5 -280.5z" />
<glyph unicode="R" horiz-adv-x="1273" d="M186 0v1352h476q131 0 228 -50.5t150.5 -139.5t53.5 -201q0 -137 -76 -236.5t-209 -138.5l432 -586h-186l-420 567h-289v-567h-160zM346 711h309q131 0 202 67.5t71 179.5q0 111 -72 180.5t-201 69.5h-309v-497z" />
<glyph unicode="S" horiz-adv-x="1142" d="M84 268l119 88q152 -231 377 -231q121 0 196.5 61.5t75.5 163.5q0 59 -26.5 100.5t-72.5 70t-126 67.5l-152 71q-139 66 -222 147t-83 216q0 104 55.5 184t148.5 124t204 44q135 0 246.5 -63.5t176.5 -165.5l-116 -88q-55 82 -136 126t-174 44q-100 0 -169.5 -51.5 t-69.5 -145.5q0 -57 26.5 -97t68.5 -65.5t122 -64.5l149 -72q160 -78 238 -162t78 -215q0 -111 -56.5 -196.5t-155.5 -133t-224 -47.5q-158 0 -288 78t-210 213z" />
<glyph unicode="T" horiz-adv-x="1189" d="M39 1208v144h1112v-144h-477v-1208h-160v1208h-475z" />
<glyph unicode="U" horiz-adv-x="1411" d="M168 537v815h160v-826q0 -197 105.5 -299t273.5 -102q166 0 270 102.5t104 298.5v826h160v-815q0 -176 -68.5 -302t-190.5 -192t-275 -66q-158 0 -280 66t-190.5 191.5t-68.5 302.5z" />
<glyph unicode="V" horiz-adv-x="1357" d="M63 1352h177l440 -1061l438 1061h176l-585 -1375h-60z" />
<glyph unicode="W" horiz-adv-x="2183" d="M92 1352h176l373 -1030l422 1052h57l422 -1050l373 1028h174l-512 -1375h-57l-428 1074l-428 -1074h-58z" />
<glyph unicode="X" horiz-adv-x="1226" d="M61 0l465 692l-432 660h185l335 -527l334 527h185l-426 -662l458 -690h-186l-365 555l-366 -555h-187z" />
<glyph unicode="Y" horiz-adv-x="1261" d="M82 1352h180l369 -635l370 635h179l-469 -793v-559h-160v559z" />
<glyph unicode="Z" horiz-adv-x="1206" d="M66 0v47l815 1161h-727v144h981v-47l-820 -1162h822v-143h-1071z" />
<glyph unicode="[" horiz-adv-x="702" d="M207 -268v1761h391v-139h-238v-1479h238v-143h-391z" />
<glyph unicode="\" horiz-adv-x="1286" d="M14 1597h187l1071 -1845h-187z" />
<glyph unicode="]" horiz-adv-x="702" d="M102 -125h240v1479h-240v139h392v-1761h-392v143z" />
<glyph unicode="^" horiz-adv-x="1048" d="M123 582l373 790h57l373 -790h-164l-238 508l-237 -508h-164z" />
<glyph unicode="_" horiz-adv-x="1036" d="M88 -154h858v-133h-858v133z" />
<glyph unicode="`" horiz-adv-x="1228" d="M430 1569v28h192l174 -438h-121z" />
<glyph unicode="a" horiz-adv-x="1081" d="M90 258q0 127 98.5 203t260.5 76h315v86q0 123 -64.5 187t-177.5 64q-90 0 -159.5 -39.5t-131.5 -119.5l-104 86q68 111 174.5 165t230.5 54q177 0 283.5 -104.5t106.5 -301.5v-614h-148v129q-55 -74 -141 -113t-195 -39q-154 0 -251 76t-97 205zM252 266 q0 -76 59.5 -116.5t147.5 -40.5q82 0 151.5 35.5t111.5 99t42 139.5v25h-297q-104 0 -159.5 -36t-55.5 -106z" />
<glyph unicode="b" horiz-adv-x="1294" d="M174 0v1536h158v-684q59 78 156.5 123t209.5 45q140 0 252.5 -68.5t177 -188.5t64.5 -265t-63.5 -264t-176 -188t-252.5 -69q-117 0 -219 48.5t-159 132.5v-158h-148zM330 498q0 -125 49 -209t128 -125t169 -41q100 0 181 49t127 135t46 193q0 106 -46 192t-127 134 t-181 48q-92 0 -171 -40.5t-127 -125.5t-48 -210z" />
<glyph unicode="c" horiz-adv-x="1128" d="M102 500q0 143 70 262t189.5 188.5t263.5 69.5q131 0 237.5 -58.5t173.5 -158.5l-112 -90q-120 161 -295 161h-2q-102 0 -185.5 -50t-130.5 -136t-47 -188q0 -104 47 -190.5t130 -136.5t186 -50q176 0 295 160l112 -88q-68 -100 -173 -159t-236 -59q-144 0 -263.5 70 t-189.5 189.5t-70 263.5z" />
<glyph unicode="d" horiz-adv-x="1294" d="M102 498q0 145 64.5 265t177.5 188.5t252 68.5q113 0 211 -45t158 -125v686h157v-1536h-149v158q-57 -84 -158.5 -132.5t-218.5 -48.5q-139 0 -252 69t-177.5 187.5t-64.5 264.5zM264 500q0 -106 46 -192.5t127 -135.5t181 -49q91 0 170.5 41t129 125t49.5 209t-49.5 210 t-129 125.5t-170.5 40.5q-100 0 -181 -48t-127 -134t-46 -192z" />
<glyph unicode="e" horiz-adv-x="1169" d="M102 498q0 143 68 263t184.5 189.5t257.5 69.5q127 0 231.5 -57.5t164 -160t59.5 -233.5q0 -57 -12 -118h-789q14 -147 116.5 -237.5t250.5 -90.5q170 0 305 135l92 -106q-78 -82 -179 -128.5t-220 -46.5q-147 0 -268 69t-191 187.5t-70 264.5zM272 590h633 q-2 133 -87 210t-210 77t-217 -79t-119 -208z" />
<glyph unicode="f" horiz-adv-x="620" d="M55 856v141h144v238q0 164 89 244t240 80q66 0 125 -17v-133q-49 6 -88 6q-100 0 -154.5 -42t-54.5 -148v-228h250v-141h-250v-856h-157v856h-144z" />
<glyph unicode="g" horiz-adv-x="1304" d="M115 514q0 143 63.5 258t175 181.5t250.5 66.5q119 0 220.5 -48t158.5 -134v159h150v-901q0 -227 -132.5 -357t-353.5 -130q-145 0 -265 54t-204 138l92 111q84 -74 172 -116t201 -42q156 0 244 86t88 248v88q-59 -78 -158.5 -122t-212.5 -44q-139 0 -250.5 65.5 t-175 180.5t-63.5 258zM274 512q0 -104 46.5 -185t127 -126t181.5 -45q92 0 171 38.5t128 119.5t49 200t-49 199t-129 118.5t-170 38.5q-100 0 -181 -46t-127.5 -127t-46.5 -185z" />
<glyph unicode="h" horiz-adv-x="1159" d="M174 0v1536h158v-651q51 63 128 99t171 36q172 0 270 -108.5t98 -284.5v-627h-157v606q0 121 -66.5 194.5t-181.5 73.5t-188.5 -75.5t-73.5 -192.5v-606h-158z" />
<glyph unicode="i" horiz-adv-x="503" d="M135 1378q0 47 35 81t84 34q47 0 82 -34t35 -81q0 -49 -34 -81.5t-83 -32.5t-84 32.5t-35 81.5zM174 0v997h158v-997h-158z" />
<glyph unicode="j" horiz-adv-x="503" d="M-123 -242q51 -6 92 -6q98 0 151.5 43t53.5 148v1054h158v-1065q0 -164 -89 -243.5t-239 -79.5q-68 0 -127 16v133zM135 1378q0 47 35 81t84 34q47 0 82 -34t35 -81q0 -49 -34 -81.5t-83 -32.5t-84 32.5t-35 81.5z" />
<glyph unicode="k" horiz-adv-x="1036" d="M174 0v1536h158v-1536h-158zM348 561l416 436h207l-432 -438l471 -559h-203z" />
<glyph unicode="l" horiz-adv-x="503" d="M174 0v1536h158v-1536h-158z" />
<glyph unicode="m" horiz-adv-x="1789" d="M174 0v997h148v-104q53 61 128.5 94t167.5 33q109 0 187 -45t121 -127q55 78 143 125t199 47q172 0 267 -107.5t95 -285.5v-627h-157v606q0 121 -62.5 194.5t-173.5 73.5q-113 0 -184.5 -73.5t-71.5 -179.5v-621h-158v606q0 121 -64.5 194.5t-172.5 73.5 q-113 0 -183.5 -74.5t-70.5 -193.5v-606h-158z" />
<glyph unicode="n" horiz-adv-x="1159" d="M174 0v997h148v-106q55 61 134 95t173 34q174 0 272 -108.5t98 -284.5v-627h-157v608q0 119 -66.5 192.5t-181.5 73.5t-188.5 -74.5t-73.5 -191.5v-608h-158z" />
<glyph unicode="o" horiz-adv-x="1249" d="M102 500q0 143 70 263t189.5 188.5t263.5 68.5q143 0 263 -69.5t189.5 -188.5t69.5 -262q0 -141 -69.5 -261t-190.5 -189.5t-264 -69.5q-144 0 -262.5 69.5t-188.5 189t-70 261.5zM264 498q0 -104 47 -189.5t129 -134.5t183 -49q100 0 183 49t131 134t48 190 q0 106 -47 192t-130 135t-183 49q-102 0 -184.5 -49t-129.5 -135t-47 -192z" />
<glyph unicode="p" horiz-adv-x="1294" d="M174 -369v1366h148v-159q57 86 158.5 134t217.5 48q142 0 254.5 -68.5t176 -187.5t63.5 -264t-64.5 -265t-177 -189t-252.5 -69q-111 0 -208 44.5t-158 121.5v-512h-158zM330 500q0 -125 48 -210t127 -126t171 -41q100 0 181 48t127 134t46 193q0 106 -46 192t-127 135 t-181 49q-90 0 -169 -40.5t-128 -124.5t-49 -209z" />
<glyph unicode="q" horiz-adv-x="1294" d="M102 500q0 145 64.5 264t177.5 187.5t252 68.5q117 0 218 -48t159 -134v159h149v-1366h-157v514q-59 -80 -157.5 -124t-211.5 -44q-139 0 -252 69t-177.5 188.5t-64.5 265.5zM264 498q0 -106 46 -192.5t127 -134.5t181 -48q91 0 170.5 41t129 126t49.5 210t-49.5 209 t-129 124.5t-170.5 40.5q-100 0 -181 -49t-127 -135t-46 -192z" />
<glyph unicode="r" horiz-adv-x="741" d="M174 0v997h148v-141q53 72 136 111t173 39q33 -1 74 -9v-139h-60q-84 0 -155.5 -35t-114.5 -100.5t-43 -157.5v-565h-158z" />
<glyph unicode="s" horiz-adv-x="929" d="M80 172l100 104q72 -74 137.5 -113.5t149.5 -39.5q82 0 136 38t54 103q0 59 -41 91t-133 69l-96 41q-125 51 -186.5 113.5t-61.5 162.5q0 131 96.5 205t239.5 74q104 0 188.5 -42t145.5 -116l-96 -98q-51 51 -113.5 80.5t-132.5 29.5q-74 0 -120 -32.5t-46 -91.5 q0 -47 36 -77t126 -69l92 -39q139 -59 201.5 -125.5t62.5 -169.5q0 -139 -101.5 -216t-248.5 -77q-125 0 -224.5 54.5t-164.5 140.5z" />
<glyph unicode="t" horiz-adv-x="780" d="M49 856v141h168v273h158v-273h311v-141h-311v-545q0 -106 54 -148t157 -42q57 0 133 12v-133q-94 -23 -166 -23q-156 0 -246 80t-90 244v555h-168z" />
<glyph unicode="u" d="M162 397v600h155v-610q0 -121 74 -192.5t184 -71.5q109 0 181.5 72.5t72.5 191.5v610h158v-600q0 -125 -54 -220t-148.5 -147.5t-209.5 -52.5q-116 0 -210.5 52.5t-148.5 147.5t-54 220z" />
<glyph unicode="v" horiz-adv-x="1103" d="M53 997h168l332 -751l330 751h168l-469 -1020h-58z" />
<glyph unicode="w" horiz-adv-x="1742" d="M53 997h168l289 -739l332 762h59l336 -756l283 733h168l-420 -1020h-58l-340 754l-338 -754h-55z" />
<glyph unicode="x" horiz-adv-x="1017" d="M41 0l371 520l-340 477h182l254 -366l256 366h182l-346 -477l375 -520h-182l-285 410l-283 -410h-184z" />
<glyph unicode="y" horiz-adv-x="1103" d="M53 997h170l330 -794l330 794h168l-492 -1136q-57 -131 -140 -191.5t-198 -60.5q-76 0 -153 20v133q78 -10 120 -10q78 0 132.5 35t93.5 125l53 119z" />
<glyph unicode="z" horiz-adv-x="929" d="M55 0v47l570 809h-523v141h766v-47l-571 -811h577v-139h-819z" />
<glyph unicode="{" horiz-adv-x="813" d="M109 543v139h116q125 0 125 119q0 47 -22 170q-12 63 -21.5 131.5t-9.5 118.5q0 272 283 272h129v-139h-101q-159 0 -159 -172q0 -66 26 -199q25 -143 25 -197q0 -68 -27 -108.5t-82 -65.5q55 -25 82 -65.5t27 -108.5q0 -51 -25 -194q-27 -133 -26 -201q0 -172 159 -172 h101v-139h-129q-283 0 -283 272q0 49 9 117.5t22 132.5q23 125 22 170q0 119 -125 119h-116z" />
<glyph unicode="|" horiz-adv-x="679" d="M272 -248v1845h136v-1845h-136z" />
<glyph unicode="}" horiz-adv-x="813" d="M102 -129h103q160 0 160 172q0 68 -27 201q-25 143 -25 194q0 68 27 109t82 65q-55 25 -82 66t-27 108q0 53 25 197q27 133 27 199q0 172 -160 172h-103v139h131q281 0 281 -272q0 -61 -12.5 -144.5t-16.5 -105.5q-23 -123 -22 -170q0 -119 125 -119h117v-139h-117 q-125 0 -125 -119q0 -45 22 -170q4 -23 16.5 -105.5t12.5 -144.5q0 -272 -281 -272h-131v139z" />
<glyph unicode="~" d="M125 606q0 90 53 154.5t141 64.5q82 0 173 -55l192 -117q41 -25 69.5 -38t57.5 -13q37 0 57.5 25.5t20.5 64.5v60h129q4 -57 4 -76q0 -92 -54.5 -154.5t-144.5 -62.5q-82 0 -170 53l-192 117q-88 53 -125 53t-58.5 -25.5t-21.5 -66.5v-60h-129z" />
<glyph unicode="&#xa1;" horiz-adv-x="624" d="M182 891q0 55 38 92t91 37q55 0 92 -37t37 -92q0 -57 -36.5 -93t-92.5 -36q-53 0 -91 36t-38 93zM231 -369v938h160v-938h-160z" />
<glyph unicode="&#xa2;" horiz-adv-x="1134" d="M74 672q0 125 54 233.5t149.5 181t214.5 95.5v354h157v-346q113 -12 204 -68.5t153 -146.5l-109 -88q-119 160 -299 160q-102 0 -185 -50.5t-130 -136.5t-47 -188q0 -104 47 -190.5t130 -136.5t185 -50q176 0 297 162l109 -90q-61 -90 -152.5 -146.5t-202.5 -68.5v-345 h-157v353q-119 23 -214.5 96.5t-149.5 182t-54 233.5z" />
<glyph unicode="&#xa3;" horiz-adv-x="1083" d="M117 0v41q272 170 272 391q0 35 -6 68h-246v139h197q-20 43 -39 76q-49 92 -72.5 156.5t-23.5 144.5q0 106 50 187t139 126t202 45q156 0 264.5 -87t153.5 -247l-142 -53q-76 240 -268 240q-111 0 -173.5 -67.5t-62.5 -168.5q0 -61 20.5 -112.5t66.5 -137.5 q31 -55 53 -102h325v-139h-282q4 -41 4 -66q0 -86 -32 -162.5t-91 -132.5h565v-139h-874z" />
<glyph unicode="&#xa4;" horiz-adv-x="1316" d="M55 168l226 227q-96 119 -97 281q0 158 97 285l-226 225l97 94l227 -227q125 86 278 86q158 0 279 -86l229 227l97 -94l-226 -225q98 -125 99 -285q-1 -158 -99 -283l226 -225l-95 -94l-229 227q-127 -88 -283 -88q-152 0 -276 86l-227 -225zM346 674q0 -88 40 -160 t110.5 -114t158.5 -42q90 0 163 42t114 114t41 160q0 90 -42 163.5t-114 115.5t-160 42t-159.5 -42t-111.5 -115.5t-40 -163.5z" />
<glyph unicode="&#xa5;" horiz-adv-x="1130" d="M18 1352h181l368 -531l369 531h178l-430 -615h363v-139h-400v-188h400v-142h-400v-268h-160v268h-397v142h397v188h-397v139h359z" />
<glyph unicode="&#xa6;" horiz-adv-x="679" d="M272 -248v615h136v-615h-136zM272 983v614h136v-614h-136z" />
<glyph unicode="&#xa7;" horiz-adv-x="1185" d="M72 803q0 100 68.5 168.5t187.5 89.5q-2 10 -2 29q0 80 40 146.5t115.5 105t175.5 38.5q209 0 349 -180l-117 -94q-59 66 -117.5 97.5t-122.5 31.5q-74 0 -118 -37t-44 -102q0 -66 38 -114t122 -116l37 -30l215 -181q109 -88 161 -159.5t52 -159.5q0 -103 -68.5 -171.5 t-187.5 -88.5q2 -8 2 -27q0 -125 -89 -209t-241 -84q-209 0 -348 181l117 96q57 -68 115.5 -98.5t124.5 -30.5q74 0 116.5 35.5t42.5 103.5t-37.5 116t-121.5 115l-35 29l-217 178q-111 90 -162 162t-51 160zM233 799q0 -47 32 -86t126 -117l215 -178q156 -125 209 -217 q68 18 102.5 50t34.5 87q0 45 -31.5 85t-125.5 118l-217 180q-76 61 -127.5 112.5t-81.5 102.5q-66 -18 -101 -50t-35 -87z" />
<glyph unicode="&#xa8;" horiz-adv-x="1228" d="M282 1378q0 45 35 78t78 33q47 0 81 -33t34 -78t-34 -76.5t-81 -31.5q-43 0 -78 32.5t-35 75.5zM716 1378q0 45 35 78t80 33q47 0 80 -33t33 -78t-33 -76.5t-80 -31.5q-45 0 -80 32.5t-35 75.5z" />
<glyph unicode="&#xa9;" horiz-adv-x="1599" d="M98 676q0 195 95.5 354.5t256 251.5t349.5 92q188 0 350 -92t257 -252t95 -354q0 -195 -95 -354.5t-257 -252t-350 -92.5q-189 0 -350.5 92.5t-256 252t-94.5 354.5zM221 676q0 -168 78 -301t210 -209t290 -76q157 0 289.5 76t211 209t78.5 301t-77.5 301t-211 209 t-290.5 76q-158 0 -290 -76t-210 -209t-78 -301zM428 676q0 111 52 201t142.5 141t198.5 51q94 0 173 -42t136 -118l-100 -86q-86 113 -207 113q-106 0 -177 -75t-71 -185q0 -109 71 -183.5t175 -74.5q125 0 209 110l100 -86q-57 -74 -137 -115.5t-174 -41.5 q-108 0 -197.5 51t-141.5 141t-52 199z" />
<glyph unicode="&#xaa;" horiz-adv-x="729" d="M68 672q0 86 62.5 134t168.5 48h174v39q0 66 -36 99.5t-101 33.5q-49 0 -90 -19.5t-84 -58.5l-70 88q111 111 258 111q119 0 188.5 -67.5t69.5 -194.5v-385h-125v63q-72 -78 -196 -78q-98 0 -158.5 51.5t-60.5 135.5zM209 676q0 -41 31.5 -61.5t78.5 -20.5q66 0 110 39 t44 102v21h-154q-53 0 -81.5 -21.5t-28.5 -58.5z" />
<glyph unicode="&#xab;" horiz-adv-x="1032" d="M78 530v48l364 387l103 -93l-289 -317l289 -322l-103 -88zM484 530v48l364 387l103 -93l-289 -317l289 -322l-103 -88z" />
<glyph unicode="&#xac;" d="M113 575v140h856v-518h-158v378h-698z" />
<glyph unicode="&#xad;" horiz-adv-x="708" d="M109 578v133h489v-133h-489z" />
<glyph unicode="&#xae;" horiz-adv-x="1167" d="M88 891q0 137 67.5 254t182.5 185.5t248 68.5t246.5 -68.5t180 -185.5t66.5 -254t-66.5 -253t-180 -184.5t-246.5 -68.5t-248 68.5t-182.5 184.5t-67.5 253zM195 893q0 -113 52 -205t141 -146.5t198 -54.5q106 0 196 53.5t142.5 146.5t52.5 206t-52.5 205t-142.5 145 t-196 53q-109 0 -198 -53t-141 -146t-52 -204zM387 635v514h207q82 0 135 -47t53 -125q0 -98 -84 -143l144 -199h-133l-129 172h-74v-172h-119zM506 909h86q31 0 50.5 18.5t19.5 47.5q0 31 -19.5 50t-50.5 19h-86v-135z" />
<glyph unicode="&#xaf;" horiz-adv-x="1228" d="M333 1315v127h564v-127h-564z" />
<glyph unicode="&#xb0;" horiz-adv-x="737" d="M63 1073q0 82 41 150.5t111 109.5t154 41t153.5 -41t110.5 -109.5t41 -150.5t-41 -151.5t-110.5 -109.5t-153.5 -40t-154 40t-111 109.5t-41 151.5zM197 1073q0 -74 50 -125t122 -51q73 0 123.5 51t50.5 125q0 76 -50.5 126t-123.5 50q-72 0 -122 -51t-50 -125z" />
<glyph unicode="&#xb1;" d="M135 0v139h877v-139h-877zM135 635v139h361v324h157v-324h359v-139h-359v-328h-157v328h-361z" />
<glyph unicode="&#xb2;" horiz-adv-x="755" d="M72 746v30l303 326q66 70 98.5 122t32.5 114q0 63 -39 106t-102 43q-66 0 -106 -43t-40 -113q0 -16 4 -65h-133q-8 33 -8 74q0 70 35 132t99.5 101t148.5 39q121 0 199.5 -74.5t78.5 -189.5q0 -86 -45 -158t-137 -168l-146 -153h359v-123h-602z" />
<glyph unicode="&#xb3;" horiz-adv-x="724" d="M39 916l94 67q78 -127 199 -127q76 0 124 45t48 119q0 72 -50.5 111t-144.5 39h-84v37l199 268h-326v123h527v-39l-205 -277q90 -18 156.5 -84.5t66.5 -177.5q0 -86 -42 -151.5t-111.5 -101.5t-153.5 -36q-102 0 -178 51.5t-119 133.5z" />
<glyph unicode="&#xb4;" horiz-adv-x="1228" d="M430 1159l174 438h192v-28l-245 -410h-121z" />
<glyph unicode="&#xb5;" horiz-adv-x="1589" d="M166 172q0 82 56.5 137.5t137.5 55.5q82 0 138.5 -55.5t56.5 -137.5q0 -84 -55.5 -139.5t-141.5 -55.5q-80 0 -136 56.5t-56 138.5zM213 516v1020h293v-1020h-293zM627 621l237 391l25 -15q29 -16 63.5 -25t65.5 -9q74 0 125 49t51 121q0 63 -40 106t-99 43 q-68 0 -115 -49l-252 149q133 176 346 177q131 0 238.5 -57.5t170 -157t62.5 -220.5q0 -115 -56 -210t-153.5 -150t-214.5 -55q-36 0 -75 8l-142 -236zM1022 172q0 80 57.5 136.5t139.5 56.5q81 0 137.5 -55.5t56.5 -137.5q0 -84 -56.5 -139.5t-139.5 -55.5 q-82 0 -138.5 56.5t-56.5 138.5z" />
<glyph unicode="&#xb6;" horiz-adv-x="1155" d="M80 920q0 131 63.5 228t174 150.5t249.5 53.5h123v-869h-123q-137 0 -248.5 54.5t-175 154t-63.5 228.5zM467 -233q102 -12 133 -13q102 0 157.5 46t55.5 161v1391h158v-1403q0 -176 -90 -258t-250 -82q-74 -1 -164 22v136z" />
<glyph unicode="&#xb7;" horiz-adv-x="573" d="M158 643q0 55 37.5 92.5t91.5 37.5q53 0 91 -37t38 -93q0 -55 -38 -92t-91 -37q-54 0 -91.5 37t-37.5 92z" />
<glyph unicode="&#xb8;" horiz-adv-x="1228" d="M409 -258q63 -8 115 -8q72 0 116 32.5t44 100.5q0 82 -70 151l68 35q61 -31 99 -85t38 -124q0 -100 -73 -167.5t-198 -67.5q-67 0 -139 20v113z" />
<glyph unicode="&#xb9;" horiz-adv-x="722" d="M96 746v123h215v606h-205v123h343v-729h184v-123h-537z" />
<glyph unicode="&#xba;" horiz-adv-x="825" d="M78 815q0 92 44 167t120.5 119t169.5 44q90 0 167.5 -44t123 -119t45.5 -167t-45.5 -167t-123 -119t-167.5 -44q-93 0 -169.5 44t-120.5 119t-44 167zM213 815q0 -92 55.5 -150.5t143.5 -58.5t144 59.5t56 149.5q0 92 -56 150.5t-144 58.5t-143.5 -58.5t-55.5 -150.5z " />
<glyph unicode="&#xbb;" horiz-adv-x="1032" d="M80 233l291 322l-291 317l104 93l363 -387v-48l-363 -385zM486 233l291 322l-291 317l104 93l363 -387v-48l-363 -385z" />
<glyph unicode="&#xbc;" horiz-adv-x="1814" d="M96 500v123h215v606h-205v123h343v-729h184v-123h-537zM508 0l774 1352h141l-774 -1352h-141zM1118 149v37l266 666h137l-237 -590h258v266h125v-266h114v-113h-114v-149h-125v149h-424z" />
<glyph unicode="&#xbd;" horiz-adv-x="1892" d="M96 500v123h215v606h-205v123h343v-729h184v-123h-537zM508 0l774 1352h141l-774 -1352h-141zM1209 0v30l303 326q66 70 98.5 122t32.5 114q0 63 -39 106t-102 43q-66 0 -106 -43t-40 -113q0 -16 4 -65h-133q-8 33 -8 74q0 70 35 132t99.5 101t148.5 39 q121 0 199.5 -74.5t78.5 -189.5q0 -86 -45 -158t-137 -168l-146 -153h359v-123h-602z" />
<glyph unicode="&#xbe;" horiz-adv-x="1744" d="M39 670l94 67q78 -127 199 -127q76 0 124 45t48 119q0 72 -50.5 111t-144.5 39h-84v37l199 268h-326v123h527v-39l-205 -277q90 -18 156.5 -84.5t66.5 -177.5q0 -86 -42 -151.5t-111.5 -101.5t-153.5 -36q-102 0 -178 51.5t-119 133.5zM438 0l774 1352h141l-774 -1352 h-141zM1049 149v37l266 666h137l-237 -590h258v266h125v-266h114v-113h-114v-149h-125v149h-424z" />
<glyph unicode="&#xbf;" horiz-adv-x="911" d="M90 -37q0 135 85 229.5t226 116.5v260h160v-399h-84q-100 0 -164.5 -57.5t-64.5 -147.5q0 -92 57 -153.5t146 -61.5q78 0 136 49t93 142l135 -60q-41 -131 -134 -203.5t-220 -72.5q-104 0 -189.5 47t-133.5 129t-48 182zM352 891q0 53 37 91t92 38q53 0 91 -38t38 -91 q0 -55 -36.5 -92t-92.5 -37q-55 0 -92 36t-37 93z" />
<glyph unicode="&#xc0;" horiz-adv-x="1357" d="M63 0l586 1374h60l585 -1374h-170l-114 274h-664l-115 -274h-168zM375 1835v29h192l174 -381h-121zM408 418h540l-270 665z" />
<glyph unicode="&#xc1;" horiz-adv-x="1357" d="M63 0l586 1374h60l585 -1374h-170l-114 274h-664l-115 -274h-168zM408 418h540l-270 665zM621 1483l174 381h192v-29l-245 -352h-121z" />
<glyph unicode="&#xc2;" horiz-adv-x="1357" d="M63 0l586 1374h60l585 -1374h-170l-114 274h-664l-115 -274h-168zM330 1483l301 381h96l301 -381h-123l-225 221l-227 -221h-123zM408 418h540l-270 665z" />
<glyph unicode="&#xc3;" horiz-adv-x="1357" d="M63 0l586 1374h60l585 -1374h-170l-114 274h-664l-115 -274h-168zM342 1591q0 90 49 148.5t129 58.5q70 0 144 -47l69 -45q6 -4 25.5 -17.5t35 -18.5t29.5 -5q29 0 45.5 21.5t16.5 54.5v37h131q2 -16 2 -54q0 -88 -48 -146t-126 -58q-70 0 -150 49l-67 41q-6 4 -25.5 16 t-35 18.5t-27.5 6.5q-29 0 -45.5 -22.5t-16.5 -55.5v-33h-131q-4 29 -4 51zM408 418h540l-270 665z" />
<glyph unicode="&#xc4;" horiz-adv-x="1357" d="M63 0l586 1374h60l585 -1374h-170l-114 274h-664l-115 -274h-168zM328 1659q0 45 33.5 76.5t78.5 31.5q47 0 80 -31.5t33 -76.5t-33 -77t-80 -32q-45 0 -78.5 32t-33.5 77zM408 418h540l-270 665zM805 1657q0 45 34 77.5t79 32.5q47 0 79.5 -32.5t32.5 -77.5t-32.5 -77 t-79.5 -32q-45 0 -79 32t-34 77z" />
<glyph unicode="&#xc5;" horiz-adv-x="1357" d="M63 0l586 1374h60l585 -1374h-170l-114 274h-664l-115 -274h-168zM408 418h540l-270 665zM453 1651q0 92 64.5 156.5t160.5 64.5q98 0 162.5 -64.5t64.5 -156.5t-64.5 -156.5t-162.5 -64.5q-96 0 -160.5 64.5t-64.5 156.5zM576 1651q0 -43 30.5 -73t73.5 -30t72.5 30 t29.5 73q0 45 -29.5 74.5t-72.5 29.5q-45 0 -74.5 -29.5t-29.5 -74.5z" />
<glyph unicode="&#xc6;" horiz-adv-x="1681" d="M27 0l704 1352h844v-144h-660l70 -413h426v-144h-401l86 -508h503v-143h-643l-47 274h-565l-145 -274h-172zM420 418h465l-113 690z" />
<glyph unicode="&#xc7;" horiz-adv-x="1464" d="M98 676q0 195 93.5 354.5t255 251.5t354.5 92q180 0 327.5 -78.5t233.5 -212.5l-119 -94q-78 113 -189.5 175.5t-250.5 62.5q-152 0 -274.5 -72t-193.5 -198t-71 -281q0 -156 71 -282t193.5 -197.5t274.5 -71.5q139 0 250.5 62.5t189.5 174.5l119 -94 q-84 -133 -232.5 -212t-328.5 -79q-193 0 -354.5 92.5t-255 252t-93.5 354.5zM555 -258q63 -8 115 -8q72 0 116 32.5t44 100.5q0 82 -70 151l68 35q61 -31 99 -85t38 -124q0 -100 -73 -167.5t-198 -67.5q-67 0 -139 20v113z" />
<glyph unicode="&#xc8;" horiz-adv-x="1159" d="M186 0v1352h867v-144h-707v-413h541v-144h-541v-508h731v-143h-891zM316 1835v29h192l174 -381h-121z" />
<glyph unicode="&#xc9;" horiz-adv-x="1159" d="M186 0v1352h867v-144h-707v-413h541v-144h-541v-508h731v-143h-891zM561 1483l174 381h192v-29l-245 -352h-121z" />
<glyph unicode="&#xca;" horiz-adv-x="1159" d="M186 0v1352h867v-144h-707v-413h541v-144h-541v-508h731v-143h-891zM271 1483l301 381h96l301 -381h-123l-225 221l-227 -221h-123z" />
<glyph unicode="&#xcb;" horiz-adv-x="1159" d="M186 0v1352h867v-144h-707v-413h541v-144h-541v-508h731v-143h-891zM269 1659q0 45 33.5 76.5t78.5 31.5q47 0 80 -31.5t33 -76.5t-33 -77t-80 -32q-45 0 -78.5 32t-33.5 77zM746 1657q0 45 34 77.5t79 32.5q47 0 79.5 -32.5t32.5 -77.5t-32.5 -77t-79.5 -32 q-45 0 -79 32t-34 77z" />
<glyph unicode="&#xcc;" horiz-adv-x="530" d="M-37 1835v29h192l174 -381h-121zM186 0v1352h160v-1352h-160z" />
<glyph unicode="&#xcd;" horiz-adv-x="530" d="M186 0v1352h160v-1352h-160zM207 1483l174 381h192v-29l-245 -352h-121z" />
<glyph unicode="&#xce;" horiz-adv-x="530" d="M-84 1483l301 381h96l301 -381h-123l-225 221l-227 -221h-123zM186 0v1352h160v-1352h-160z" />
<glyph unicode="&#xcf;" horiz-adv-x="530" d="M-86 1659q0 45 33.5 76.5t78.5 31.5q47 0 80 -31.5t33 -76.5t-33 -77t-80 -32q-45 0 -78.5 32t-33.5 77zM186 0v1352h160v-1352h-160zM391 1657q0 45 34 77.5t79 32.5q47 0 79.5 -32.5t32.5 -77.5t-32.5 -77t-79.5 -32q-45 0 -79 32t-34 77z" />
<glyph unicode="&#xd0;" horiz-adv-x="1421" d="M-8 561v135h194v656h402q225 0 391 -86t255 -239t89 -349q0 -195 -89 -348.5t-255 -241.5t-391 -88h-402v561h-194zM346 143h240q176 0 306 70t197.5 190.5t67.5 274.5q0 156 -67.5 275.5t-196.5 187t-307 67.5h-240v-512h266v-135h-266v-418z" />
<glyph unicode="&#xd1;" horiz-adv-x="1449" d="M186 0v1374h58l860 -1038v1016h160v-1375h-58l-860 1037v-1014h-160zM387 1591q0 90 49 148.5t129 58.5q70 0 144 -47l69 -45q6 -4 25.5 -17.5t35 -18.5t29.5 -5q29 0 45.5 21.5t16.5 54.5v37h131q2 -16 2 -54q0 -88 -48 -146t-126 -58q-70 0 -150 49l-67 41 q-6 4 -25.5 16t-35 18.5t-27.5 6.5q-29 0 -45.5 -22.5t-16.5 -55.5v-33h-131q-4 29 -4 51z" />
<glyph unicode="&#xd2;" horiz-adv-x="1599" d="M98 676q0 195 93.5 354.5t254 251.5t353.5 92q190 0 352 -92t256 -252t94 -354q0 -195 -94 -354.5t-256 -252t-352 -92.5q-193 0 -353.5 92.5t-254 253t-93.5 353.5zM264 678q0 -156 69.5 -282t192.5 -198.5t275 -72.5q149 0 272 72.5t192.5 198.5t69.5 282 q0 154 -69.5 279.5t-192.5 197.5t-272 72q-152 0 -275 -72t-192.5 -196.5t-69.5 -280.5zM496 1835v29h192l174 -381h-121z" />
<glyph unicode="&#xd3;" horiz-adv-x="1599" d="M98 676q0 195 93.5 354.5t254 251.5t353.5 92q190 0 352 -92t256 -252t94 -354q0 -195 -94 -354.5t-256 -252t-352 -92.5q-193 0 -353.5 92.5t-254 253t-93.5 353.5zM264 678q0 -156 69.5 -282t192.5 -198.5t275 -72.5q149 0 272 72.5t192.5 198.5t69.5 282 q0 154 -69.5 279.5t-192.5 197.5t-272 72q-152 0 -275 -72t-192.5 -196.5t-69.5 -280.5zM742 1483l174 381h192v-29l-245 -352h-121z" />
<glyph unicode="&#xd4;" horiz-adv-x="1599" d="M98 676q0 195 93.5 354.5t254 251.5t353.5 92q190 0 352 -92t256 -252t94 -354q0 -195 -94 -354.5t-256 -252t-352 -92.5q-193 0 -353.5 92.5t-254 253t-93.5 353.5zM264 678q0 -156 69.5 -282t192.5 -198.5t275 -72.5q149 0 272 72.5t192.5 198.5t69.5 282 q0 154 -69.5 279.5t-192.5 197.5t-272 72q-152 0 -275 -72t-192.5 -196.5t-69.5 -280.5zM451 1483l301 381h96l301 -381h-123l-225 221l-227 -221h-123z" />
<glyph unicode="&#xd5;" horiz-adv-x="1599" d="M98 676q0 195 93.5 354.5t254 251.5t353.5 92q190 0 352 -92t256 -252t94 -354q0 -195 -94 -354.5t-256 -252t-352 -92.5q-193 0 -353.5 92.5t-254 253t-93.5 353.5zM264 678q0 -156 69.5 -282t192.5 -198.5t275 -72.5q149 0 272 72.5t192.5 198.5t69.5 282 q0 154 -69.5 279.5t-192.5 197.5t-272 72q-152 0 -275 -72t-192.5 -196.5t-69.5 -280.5zM463 1591q0 90 49 148.5t129 58.5q70 0 144 -47l69 -45q6 -4 25.5 -17.5t35 -18.5t29.5 -5q29 0 45.5 21.5t16.5 54.5v37h131q2 -16 2 -54q0 -88 -48 -146t-126 -58q-70 0 -150 49 l-67 41q-6 4 -25.5 16t-35 18.5t-27.5 6.5q-29 0 -45.5 -22.5t-16.5 -55.5v-33h-131q-4 29 -4 51z" />
<glyph unicode="&#xd6;" horiz-adv-x="1599" d="M98 676q0 195 93.5 354.5t254 251.5t353.5 92q190 0 352 -92t256 -252t94 -354q0 -195 -94 -354.5t-256 -252t-352 -92.5q-193 0 -353.5 92.5t-254 253t-93.5 353.5zM264 678q0 -156 69.5 -282t192.5 -198.5t275 -72.5q149 0 272 72.5t192.5 198.5t69.5 282 q0 154 -69.5 279.5t-192.5 197.5t-272 72q-152 0 -275 -72t-192.5 -196.5t-69.5 -280.5zM449 1659q0 45 33.5 76.5t78.5 31.5q47 0 80 -31.5t33 -76.5t-33 -77t-80 -32q-45 0 -78.5 32t-33.5 77zM926 1657q0 45 34 77.5t79 32.5q47 0 79.5 -32.5t32.5 -77.5t-32.5 -77 t-79.5 -32q-45 0 -79 32t-34 77z" />
<glyph unicode="&#xd7;" d="M158 324l319 323l-319 320l96 96l319 -320l320 320l96 -96l-319 -320l319 -323l-94 -95l-322 320l-319 -320z" />
<glyph unicode="&#xd8;" horiz-adv-x="1599" d="M86 59l170 170q-76 92 -117 206t-41 241q0 195 93.5 354.5t254 251.5t353.5 92q125 0 238.5 -41t205.5 -114l172 172l98 -99l-170 -170q76 -92 117 -205.5t41 -240.5q0 -195 -94 -354.5t-256 -252t-352 -92.5q-125 0 -239 40t-206 114l-170 -170zM258 678 q0 -195 107 -340l776 776q-145 119 -340 119q-154 0 -278 -73t-194.5 -199.5t-70.5 -282.5zM459 236q145 -117 342 -117q151 0 275 73.5t194.5 201.5t70.5 284q0 193 -106 338z" />
<glyph unicode="&#xd9;" horiz-adv-x="1411" d="M168 537v815h160v-826q0 -197 105.5 -299t273.5 -102q166 0 270 102.5t104 298.5v826h160v-815q0 -176 -68.5 -302t-190.5 -192t-275 -66q-158 0 -280 66t-190.5 191.5t-68.5 302.5zM400 1835v29h192l174 -381h-121z" />
<glyph unicode="&#xda;" horiz-adv-x="1411" d="M168 537v815h160v-826q0 -197 105.5 -299t273.5 -102q166 0 270 102.5t104 298.5v826h160v-815q0 -176 -68.5 -302t-190.5 -192t-275 -66q-158 0 -280 66t-190.5 191.5t-68.5 302.5zM643 1483l174 381h192v-29l-245 -352h-121z" />
<glyph unicode="&#xdb;" horiz-adv-x="1411" d="M168 537v815h160v-826q0 -197 105.5 -299t273.5 -102q166 0 270 102.5t104 298.5v826h160v-815q0 -176 -68.5 -302t-190.5 -192t-275 -66q-158 0 -280 66t-190.5 191.5t-68.5 302.5zM355 1483l301 381h96l301 -381h-123l-225 221l-227 -221h-123z" />
<glyph unicode="&#xdc;" horiz-adv-x="1411" d="M168 537v815h160v-826q0 -197 105.5 -299t273.5 -102q166 0 270 102.5t104 298.5v826h160v-815q0 -176 -68.5 -302t-190.5 -192t-275 -66q-158 0 -280 66t-190.5 191.5t-68.5 302.5zM353 1659q0 45 33.5 76.5t78.5 31.5q47 0 80 -31.5t33 -76.5t-33 -77t-80 -32 q-45 0 -78.5 32t-33.5 77zM830 1657q0 45 34 77.5t79 32.5q47 0 79.5 -32.5t32.5 -77.5t-32.5 -77t-79.5 -32q-45 0 -79 32t-34 77z" />
<glyph unicode="&#xdd;" horiz-adv-x="1261" d="M82 1352h180l369 -635l370 635h179l-469 -793v-559h-160v559zM566 1483l174 381h192v-29l-245 -352h-121z" />
<glyph unicode="&#xde;" horiz-adv-x="1173" d="M186 0v1352h160v-242h316q131 0 229 -50t150.5 -141.5t52.5 -209.5q0 -117 -53.5 -208t-150.5 -143.5t-228 -52.5h-316v-305h-160zM346 449h311q129 0 200 70.5t71 187.5t-71 188.5t-200 71.5h-311v-518z" />
<glyph unicode="&#xdf;" horiz-adv-x="1251" d="M174 0v1106q0 211 118 332t312 121q156 0 251 -80t95 -219q0 -80 -28 -160l-86 -248q-14 -39 -24.5 -76t-10.5 -61q0 -35 19.5 -60.5t47 -44t101.5 -63.5q115 -70 170 -134.5t55 -156.5q0 -129 -99.5 -204t-248.5 -75q-203 1 -338 140l88 114q113 -109 262 -108 q80 0 128 30.5t48 94.5q0 43 -22.5 72.5t-49 46t-108.5 65.5q-111 66 -165 123t-54 133q0 27 10 73t27 89l86 237q31 84 30 148q0 80 -51 129t-143 49q-117 0 -190.5 -81t-73.5 -232v-1100h-156z" />
<glyph unicode="&#xe0;" horiz-adv-x="1081" d="M90 258q0 127 98.5 203t260.5 76h315v86q0 123 -64.5 187t-177.5 64q-90 0 -159.5 -39.5t-131.5 -119.5l-104 86q68 111 174.5 165t230.5 54q177 0 283.5 -104.5t106.5 -301.5v-614h-148v129q-55 -74 -141 -113t-195 -39q-154 0 -251 76t-97 205zM224 1569v28h192 l174 -438h-121zM252 266q0 -76 59.5 -116.5t147.5 -40.5q82 0 151.5 35.5t111.5 99t42 139.5v25h-297q-104 0 -159.5 -36t-55.5 -106z" />
<glyph unicode="&#xe1;" horiz-adv-x="1081" d="M90 258q0 127 98.5 203t260.5 76h315v86q0 123 -64.5 187t-177.5 64q-90 0 -159.5 -39.5t-131.5 -119.5l-104 86q68 111 174.5 165t230.5 54q177 0 283.5 -104.5t106.5 -301.5v-614h-148v129q-55 -74 -141 -113t-195 -39q-154 0 -251 76t-97 205zM252 266 q0 -76 59.5 -116.5t147.5 -40.5q82 0 151.5 35.5t111.5 99t42 139.5v25h-297q-104 0 -159.5 -36t-55.5 -106zM473 1159l174 438h192v-28l-245 -410h-121z" />
<glyph unicode="&#xe2;" horiz-adv-x="1081" d="M90 258q0 127 98.5 203t260.5 76h315v86q0 123 -64.5 187t-177.5 64q-90 0 -159.5 -39.5t-131.5 -119.5l-104 86q68 111 174.5 165t230.5 54q177 0 283.5 -104.5t106.5 -301.5v-614h-148v129q-55 -74 -141 -113t-195 -39q-154 0 -251 76t-97 205zM204 1159l279 438h96 l277 -438h-119l-205 262l-207 -262h-121zM252 266q0 -76 59.5 -116.5t147.5 -40.5q82 0 151.5 35.5t111.5 99t42 139.5v25h-297q-104 0 -159.5 -36t-55.5 -106z" />
<glyph unicode="&#xe3;" horiz-adv-x="1081" d="M90 258q0 127 98.5 203t260.5 76h315v86q0 123 -64.5 187t-177.5 64q-90 0 -159.5 -39.5t-131.5 -119.5l-104 86q68 111 174.5 165t230.5 54q177 0 283.5 -104.5t106.5 -301.5v-614h-148v129q-55 -74 -141 -113t-195 -39q-154 0 -251 76t-97 205zM208 1298 q0 92 47.5 152.5t127.5 60.5q76 0 139 -53l53 -45q53 -47 86 -47q57 0 57 84v35h131q2 -18 3 -51q0 -92 -47.5 -152.5t-127.5 -60.5q-34 0 -71 14t-68 39l-53 45q-8 6 -24.5 20.5t-31 20.5t-30.5 6q-57 0 -57 -84v-35h-131q-2 18 -3 51zM252 266q0 -76 59.5 -116.5 t147.5 -40.5q82 0 151.5 35.5t111.5 99t42 139.5v25h-297q-104 0 -159.5 -36t-55.5 -106z" />
<glyph unicode="&#xe4;" horiz-adv-x="1081" d="M90 258q0 127 98.5 203t260.5 76h315v86q0 123 -64.5 187t-177.5 64q-90 0 -159.5 -39.5t-131.5 -119.5l-104 86q68 111 174.5 165t230.5 54q177 0 283.5 -104.5t106.5 -301.5v-614h-148v129q-55 -74 -141 -113t-195 -39q-154 0 -251 76t-97 205zM198 1378q0 45 35 78 t78 33q47 0 81 -33t34 -78t-34 -76.5t-81 -31.5q-43 0 -78 32.5t-35 75.5zM252 266q0 -76 59.5 -116.5t147.5 -40.5q82 0 151.5 35.5t111.5 99t42 139.5v25h-297q-104 0 -159.5 -36t-55.5 -106zM632 1378q0 45 35 78t80 33q47 0 80 -33t33 -78t-33 -76.5t-80 -31.5 q-45 0 -80 32.5t-35 75.5z" />
<glyph unicode="&#xe5;" horiz-adv-x="1081" d="M90 258q0 127 98.5 203t260.5 76h315v86q0 123 -64.5 187t-177.5 64q-90 0 -159.5 -39.5t-131.5 -119.5l-104 86q68 111 174.5 165t230.5 54q177 0 283.5 -104.5t106.5 -301.5v-614h-148v129q-55 -74 -141 -113t-195 -39q-154 0 -251 76t-97 205zM252 266 q0 -76 59.5 -116.5t147.5 -40.5q82 0 151.5 35.5t111.5 99t42 139.5v25h-297q-104 0 -159.5 -36t-55.5 -106zM303 1368q0 94 64.5 157.5t160.5 63.5t161.5 -63.5t65.5 -157.5t-65.5 -158.5t-161.5 -64.5q-94 0 -159.5 64.5t-65.5 158.5zM426 1368q0 -45 29.5 -73.5 t74.5 -28.5q43 0 72.5 28.5t29.5 73.5t-30.5 76t-71.5 31q-43 0 -73.5 -31t-30.5 -76z" />
<glyph unicode="&#xe6;" horiz-adv-x="1832" d="M90 266q0 133 98.5 214t260.5 81h315v62q0 123 -65.5 187t-174.5 64q-88 0 -158.5 -40.5t-129.5 -118.5l-105 86q68 109 174.5 164t229.5 55q121 0 210 -53.5t132 -155.5q68 98 172 153.5t229 55.5t228.5 -57.5t163 -161t59.5 -234.5q0 -39 -4.5 -77.5t-10.5 -57.5h-782 q20 -141 120.5 -225t241.5 -84q168 0 301 133l95 -104q-76 -84 -178.5 -129.5t-219.5 -45.5q-139 0 -253.5 66t-182.5 176q-53 -115 -163.5 -178.5t-250.5 -63.5q-158 0 -255 79t-97 210zM252 283q0 -82 59.5 -127t149.5 -45q80 0 149.5 35.5t111.5 97t42 137.5v51h-297 q-215 0 -215 -149zM932 561h633q6 96 -33 168t-107.5 110t-154.5 38q-133 0 -226.5 -87.5t-111.5 -228.5z" />
<glyph unicode="&#xe7;" horiz-adv-x="1128" d="M102 500q0 143 70 262t189.5 188.5t263.5 69.5q131 0 237.5 -58.5t173.5 -158.5l-112 -90q-121 162 -297 161q-102 0 -185.5 -50t-130.5 -136t-47 -188q0 -104 47 -190.5t130 -136.5t186 -50q176 0 295 160l112 -88q-68 -100 -173 -159t-236 -59q-144 0 -263.5 70 t-189.5 189.5t-70 263.5zM356 -258q63 -8 115 -8q72 0 116 32.5t44 100.5q0 82 -70 151l68 35q61 -31 99 -85t38 -124q0 -100 -73 -167.5t-198 -67.5q-67 0 -139 20v113z" />
<glyph unicode="&#xe8;" horiz-adv-x="1169" d="M102 498q0 143 68 263t184.5 189.5t257.5 69.5q127 0 231.5 -57.5t164 -160t59.5 -233.5q0 -57 -12 -118h-789q14 -147 116.5 -237.5t250.5 -90.5q170 0 305 135l92 -106q-78 -82 -179 -128.5t-220 -46.5q-147 0 -268 69t-191 187.5t-70 264.5zM272 590h633 q-2 133 -87 210t-210 77t-217 -79t-119 -208zM301 1569v28h192l174 -438h-121z" />
<glyph unicode="&#xe9;" horiz-adv-x="1169" d="M102 498q0 143 68 263t184.5 189.5t257.5 69.5q127 0 231.5 -57.5t164 -160t59.5 -233.5q0 -57 -12 -118h-789q14 -147 116.5 -237.5t250.5 -90.5q170 0 305 135l92 -106q-78 -82 -179 -128.5t-220 -46.5q-147 0 -268 69t-191 187.5t-70 264.5zM272 590h633 q-2 133 -87 210t-210 77t-217 -79t-119 -208zM551 1159l174 438h192v-28l-245 -410h-121z" />
<glyph unicode="&#xea;" horiz-adv-x="1169" d="M102 498q0 143 68 263t184.5 189.5t257.5 69.5q127 0 231.5 -57.5t164 -160t59.5 -233.5q0 -57 -12 -118h-789q14 -147 116.5 -237.5t250.5 -90.5q170 0 305 135l92 -106q-78 -82 -179 -128.5t-220 -46.5q-147 0 -268 69t-191 187.5t-70 264.5zM272 590h633 q-2 133 -87 210t-210 77t-217 -79t-119 -208zM282 1159l279 438h96l277 -438h-119l-205 262l-207 -262h-121z" />
<glyph unicode="&#xeb;" horiz-adv-x="1169" d="M102 498q0 143 68 263t184.5 189.5t257.5 69.5q127 0 231.5 -57.5t164 -160t59.5 -233.5q0 -57 -12 -118h-789q14 -147 116.5 -237.5t250.5 -90.5q170 0 305 135l92 -106q-78 -82 -179 -128.5t-220 -46.5q-147 0 -268 69t-191 187.5t-70 264.5zM272 590h633 q-2 133 -87 210t-210 77t-217 -79t-119 -208zM276 1378q0 45 35 78t78 33q47 0 81 -33t34 -78t-34 -76.5t-81 -31.5q-43 0 -78 32.5t-35 75.5zM710 1378q0 45 35 78t80 33q47 0 80 -33t33 -78t-33 -76.5t-80 -31.5q-45 0 -80 32.5t-35 75.5z" />
<glyph unicode="&#xec;" horiz-adv-x="503" d="M10 1569v28h193l113 -438h-121zM174 0v997h158v-997h-158z" />
<glyph unicode="&#xed;" horiz-adv-x="503" d="M174 0v997h158v-997h-158zM190 1159l113 438h193v-28l-185 -410h-121z" />
<glyph unicode="&#xee;" horiz-adv-x="503" d="M-72 1159l279 438h96l277 -438h-119l-205 262l-207 -262h-121zM174 0v997h158v-997h-158z" />
<glyph unicode="&#xef;" horiz-adv-x="503" d="M-47 1378q0 45 34 78t79 33q47 0 80.5 -33t33.5 -78t-33.5 -76.5t-80.5 -31.5q-45 0 -79 31.5t-34 76.5zM174 0v997h158v-997h-158zM326 1378q0 45 34.5 78t79.5 33q47 0 80 -33t33 -78t-33 -76.5t-80 -31.5q-45 0 -79.5 32.5t-34.5 75.5z" />
<glyph unicode="&#xf0;" horiz-adv-x="1165" d="M102 444q0 129 61.5 234.5t167 166t232.5 60.5q63 0 123 -16l-207 287l-305 -148l-55 117l282 135l-137 190l119 89l158 -213l315 151l57 -113l-297 -143l224 -301q82 -113 124 -178.5t69.5 -142t27.5 -164.5q0 -133 -61.5 -243t-171 -172.5t-246.5 -62.5t-247 61.5 t-171.5 169t-61.5 236.5zM264 442q0 -139 90 -229t228 -90q90 0 162.5 42t113.5 114.5t41 164.5q0 90 -41 164t-113.5 115t-162.5 41t-163 -42t-114 -114.5t-41 -165.5z" />
<glyph unicode="&#xf1;" horiz-adv-x="1159" d="M174 0v997h148v-106q55 61 134 95t173 34q174 0 272 -108.5t98 -284.5v-627h-157v608q0 119 -66.5 192.5t-181.5 73.5t-188.5 -74.5t-73.5 -191.5v-608h-158zM262 1298q0 92 47.5 152.5t127.5 60.5q76 0 139 -53l53 -45q53 -47 86 -47q57 0 57 84v35h131q2 -18 3 -51 q0 -92 -47.5 -152.5t-127.5 -60.5q-34 0 -71 14t-68 39l-53 45q-8 6 -24.5 20.5t-31 20.5t-30.5 6q-57 0 -57 -84v-35h-131q-2 18 -3 51z" />
<glyph unicode="&#xf2;" horiz-adv-x="1249" d="M102 500q0 143 70 263t189.5 188.5t263.5 68.5q143 0 263 -69.5t189.5 -188.5t69.5 -262q0 -141 -69.5 -261t-190.5 -189.5t-264 -69.5q-144 0 -262.5 69.5t-188.5 189t-70 261.5zM264 498q0 -104 47 -189.5t129 -134.5t183 -49q100 0 183 49t131 134t48 190 q0 106 -47 192t-130 135t-183 49q-102 0 -184.5 -49t-129.5 -135t-47 -192zM318 1569v28h192l174 -438h-121z" />
<glyph unicode="&#xf3;" horiz-adv-x="1249" d="M102 500q0 143 70 263t189.5 188.5t263.5 68.5q143 0 263 -69.5t189.5 -188.5t69.5 -262q0 -141 -69.5 -261t-190.5 -189.5t-264 -69.5q-144 0 -262.5 69.5t-188.5 189t-70 261.5zM264 498q0 -104 47 -189.5t129 -134.5t183 -49q100 0 183 49t131 134t48 190 q0 106 -47 192t-130 135t-183 49q-102 0 -184.5 -49t-129.5 -135t-47 -192zM570 1159l174 438h192v-28l-245 -410h-121z" />
<glyph unicode="&#xf4;" horiz-adv-x="1249" d="M102 500q0 143 70 263t189.5 188.5t263.5 68.5q143 0 263 -69.5t189.5 -188.5t69.5 -262q0 -141 -69.5 -261t-190.5 -189.5t-264 -69.5q-144 0 -262.5 69.5t-188.5 189t-70 261.5zM264 498q0 -104 47 -189.5t129 -134.5t183 -49q100 0 183 49t131 134t48 190 q0 106 -47 192t-130 135t-183 49q-102 0 -184.5 -49t-129.5 -135t-47 -192zM299 1159l279 438h96l277 -438h-119l-205 262l-207 -262h-121z" />
<glyph unicode="&#xf5;" horiz-adv-x="1249" d="M102 500q0 143 70 263t189.5 188.5t263.5 68.5q143 0 263 -69.5t189.5 -188.5t69.5 -262q0 -141 -69.5 -261t-190.5 -189.5t-264 -69.5q-144 0 -262.5 69.5t-188.5 189t-70 261.5zM264 498q0 -104 47 -189.5t129 -134.5t183 -49q100 0 183 49t131 134t48 190 q0 106 -47 192t-130 135t-183 49q-102 0 -184.5 -49t-129.5 -135t-47 -192zM303 1298q0 92 47.5 152.5t127.5 60.5q76 0 139 -53l53 -45q53 -47 86 -47q57 0 57 84v35h131q2 -18 3 -51q0 -92 -47.5 -152.5t-127.5 -60.5q-34 0 -71 14t-68 39l-53 45q-8 6 -24.5 20.5 t-31 20.5t-30.5 6q-57 0 -57 -84v-35h-131q-2 18 -3 51z" />
<glyph unicode="&#xf6;" horiz-adv-x="1249" d="M102 500q0 143 70 263t189.5 188.5t263.5 68.5q143 0 263 -69.5t189.5 -188.5t69.5 -262q0 -141 -69.5 -261t-190.5 -189.5t-264 -69.5q-144 0 -262.5 69.5t-188.5 189t-70 261.5zM264 498q0 -104 47 -189.5t129 -134.5t183 -49q100 0 183 49t131 134t48 190 q0 106 -47 192t-130 135t-183 49q-102 0 -184.5 -49t-129.5 -135t-47 -192zM293 1378q0 45 35 78t78 33q47 0 81 -33t34 -78t-34 -76.5t-81 -31.5q-43 0 -78 32.5t-35 75.5zM727 1378q0 45 35 78t80 33q47 0 80 -33t33 -78t-33 -76.5t-80 -31.5q-45 0 -80 32.5t-35 75.5z " />
<glyph unicode="&#xf7;" d="M115 575v140h915v-140h-915zM457 276q0 47 32.5 78t79.5 31t80 -30.5t33 -78.5q0 -45 -33 -76.5t-80 -31.5t-79.5 31.5t-32.5 76.5zM457 1006q0 47 32.5 78.5t79.5 31.5t80 -31.5t33 -78.5q0 -45 -33 -77t-80 -32t-79.5 32t-32.5 77z" />
<glyph unicode="&#xf8;" horiz-adv-x="1269" d="M100 59l121 121q-106 139 -106 318q0 143 69.5 263t188.5 189.5t262 69.5q178 0 317 -107l121 119l98 -94l-120 -123q106 -139 106 -317q0 -141 -70.5 -261t-191.5 -190t-262 -70q-176 0 -316 107l-118 -123zM266 498q0 -123 62 -219l528 532q-100 70 -221 70 q-107 0 -191 -50.5t-131 -137.5t-47 -195zM414 186q92 -74 219 -73q104 0 189 51t134.5 139t49.5 195q0 123 -62 219z" />
<glyph unicode="&#xf9;" d="M162 397v600h155v-610q0 -121 74 -192.5t184 -71.5q109 0 181.5 72.5t72.5 191.5v610h158v-600q0 -125 -54 -220t-148.5 -147.5t-209.5 -52.5q-116 0 -210.5 52.5t-148.5 147.5t-54 220zM267 1569v28h192l174 -438h-121z" />
<glyph unicode="&#xfa;" d="M162 397v600h155v-610q0 -121 74 -192.5t184 -71.5q109 0 181.5 72.5t72.5 191.5v610h158v-600q0 -125 -54 -220t-148.5 -147.5t-209.5 -52.5q-116 0 -210.5 52.5t-148.5 147.5t-54 220zM516 1159l174 438h192v-28l-245 -410h-121z" />
<glyph unicode="&#xfb;" d="M162 397v600h155v-610q0 -121 74 -192.5t184 -71.5q109 0 181.5 72.5t72.5 191.5v610h158v-600q0 -125 -54 -220t-148.5 -147.5t-209.5 -52.5q-116 0 -210.5 52.5t-148.5 147.5t-54 220zM247 1159l279 438h96l277 -438h-119l-205 262l-207 -262h-121z" />
<glyph unicode="&#xfc;" d="M162 397v600h155v-610q0 -121 74 -192.5t184 -71.5q109 0 181.5 72.5t72.5 191.5v610h158v-600q0 -125 -54 -220t-148.5 -147.5t-209.5 -52.5q-116 0 -210.5 52.5t-148.5 147.5t-54 220zM241 1378q0 45 35 78t78 33q47 0 81 -33t34 -78t-34 -76.5t-81 -31.5 q-43 0 -78 32.5t-35 75.5zM675 1378q0 45 35 78t80 33q47 0 80 -33t33 -78t-33 -76.5t-80 -31.5q-45 0 -80 32.5t-35 75.5z" />
<glyph unicode="&#xfd;" horiz-adv-x="1103" d="M53 997h170l330 -794l330 794h168l-492 -1136q-57 -131 -140 -191.5t-198 -60.5q-76 0 -153 20v133q78 -10 120 -10q78 0 132.5 35t93.5 125l53 119zM490 1159l174 438h192v-28l-245 -410h-121z" />
<glyph unicode="&#xfe;" horiz-adv-x="1294" d="M174 -369v1905h158v-684q59 78 156.5 123t209.5 45q142 0 254.5 -68.5t176 -187.5t63.5 -264t-64.5 -265t-177 -189t-252.5 -69q-111 0 -208 44.5t-158 121.5v-512h-158zM330 500q0 -125 48 -210t127 -126t171 -41q100 0 181 48t127 134t46 193q0 106 -46 192t-127 135 t-181 49q-90 0 -169 -40.5t-128 -124.5t-49 -209z" />
<glyph unicode="&#xff;" horiz-adv-x="1103" d="M53 997h170l330 -794l330 794h168l-492 -1136q-57 -131 -140 -191.5t-198 -60.5q-76 0 -153 20v133q78 -10 120 -10q78 0 132.5 35t93.5 125l53 119zM215 1378q0 45 35 78t78 33q47 0 81 -33t34 -78t-34 -76.5t-81 -31.5q-43 0 -78 32.5t-35 75.5zM649 1378q0 45 35 78 t80 33q47 0 80 -33t33 -78t-33 -76.5t-80 -31.5q-45 0 -80 32.5t-35 75.5z" />
<glyph unicode="&#x152;" horiz-adv-x="2308" d="M98 676q0 195 93.5 354.5t253 251.5t354.5 92q172 0 313 -74.5t223 -201.5v254h867v-144h-707v-413h541v-144h-541v-508h731v-143h-891v256q-84 -131 -226 -205t-312 -74q-195 0 -354.5 92.5t-252 252t-92.5 354.5zM264 676q0 -156 69.5 -282t191.5 -197.5t274 -71.5 q151 0 274 72.5t192.5 198.5t69.5 280t-69.5 279.5t-192.5 198.5t-274 73q-152 0 -274 -72t-191.5 -198t-69.5 -281z" />
<glyph unicode="&#x153;" horiz-adv-x="2009" d="M102 498q0 145 70 265t188.5 188.5t260.5 68.5q139 0 248.5 -67.5t170.5 -184.5q66 115 176.5 182.5t243.5 67.5q121 0 223.5 -57.5t163 -161t60.5 -232.5q-1 -57 -13 -118h-774q14 -147 112.5 -236.5t244.5 -89.5q168 0 297 133l96 -104q-78 -84 -181.5 -129.5 t-215.5 -45.5q-137 0 -252 68t-181 182q-63 -117 -172.5 -183.5t-249.5 -66.5q-141 0 -259.5 69t-187.5 188.5t-69 263.5zM264 498q0 -104 46 -190.5t127 -135.5t181 -49q101 0 180 49t123 135t44 191q0 106 -43 192t-122 135t-179 49q-102 0 -183.5 -49t-127.5 -136 t-46 -191zM1126 588h619q-2 133 -87 209.5t-208 76.5q-121 0 -210 -77.5t-114 -208.5z" />
<glyph unicode="&#x178;" horiz-adv-x="1261" d="M82 1352h180l369 -635l370 635h179l-469 -793v-559h-160v559zM273 1659q0 45 33.5 76.5t78.5 31.5q47 0 80 -31.5t33 -76.5t-33 -77t-80 -32q-45 0 -78.5 32t-33.5 77zM750 1657q0 45 34 77.5t79 32.5q47 0 79.5 -32.5t32.5 -77.5t-32.5 -77t-79.5 -32q-45 0 -79 32 t-34 77z" />
<glyph unicode="&#x2c6;" horiz-adv-x="1228" d="M288 1159l279 438h96l277 -438h-119l-205 262l-207 -262h-121z" />
<glyph unicode="&#x2dc;" horiz-adv-x="1228" d="M292 1298q0 92 47.5 152.5t127.5 60.5q76 0 139 -53l53 -45q53 -47 86 -47q57 0 57 84v35h131q2 -18 3 -51q0 -92 -47.5 -152.5t-127.5 -60.5q-34 0 -71 14t-68 39l-53 45q-8 6 -24.5 20.5t-31 20.5t-30.5 6q-57 0 -57 -84v-35h-131q-2 18 -3 51z" />
<glyph unicode="&#x2000;" horiz-adv-x="936" />
<glyph unicode="&#x2001;" horiz-adv-x="1872" />
<glyph unicode="&#x2002;" horiz-adv-x="936" />
<glyph unicode="&#x2003;" horiz-adv-x="1872" />
<glyph unicode="&#x2004;" horiz-adv-x="624" />
<glyph unicode="&#x2005;" horiz-adv-x="468" />
<glyph unicode="&#x2006;" horiz-adv-x="312" />
<glyph unicode="&#x2007;" horiz-adv-x="312" />
<glyph unicode="&#x2008;" horiz-adv-x="234" />
<glyph unicode="&#x2009;" horiz-adv-x="374" />
<glyph unicode="&#x200a;" horiz-adv-x="104" />
<glyph unicode="&#x2010;" horiz-adv-x="708" d="M109 578v133h489v-133h-489z" />
<glyph unicode="&#x2011;" horiz-adv-x="708" d="M109 578v133h489v-133h-489z" />
<glyph unicode="&#x2012;" horiz-adv-x="708" d="M109 578v133h489v-133h-489z" />
<glyph unicode="&#x2013;" horiz-adv-x="1036" d="M88 578v133h858v-133h-858z" />
<glyph unicode="&#x2014;" horiz-adv-x="2048" d="M102 578v133h1844v-133h-1844z" />
<glyph unicode="&#x2018;" horiz-adv-x="573" d="M170 825l86 527h125l-27 -527h-184z" />
<glyph unicode="&#x2019;" horiz-adv-x="573" d="M193 825l28 527h185l-89 -527h-124z" />
<glyph unicode="&#x201a;" horiz-adv-x="573" d="M193 -342l28 526h185l-89 -526h-124z" />
<glyph unicode="&#x201c;" horiz-adv-x="948" d="M170 825l86 527h125l-27 -527h-184zM545 825l86 527h125l-27 -527h-184z" />
<glyph unicode="&#x201d;" horiz-adv-x="948" d="M193 825l28 527h185l-89 -527h-124zM568 825l28 527h185l-89 -527h-124z" />
<glyph unicode="&#x201e;" horiz-adv-x="948" d="M193 -342l28 526h185l-89 -526h-124zM568 -342l28 526h185l-89 -526h-124z" />
<glyph unicode="&#x2022;" horiz-adv-x="772" d="M117 547q0 76 38 137t99 95t133 34t133.5 -34t98 -95t36.5 -137t-36.5 -136.5t-98 -94t-133.5 -33.5t-133 33.5t-99 94t-38 136.5z" />
<glyph unicode="&#x2026;" horiz-adv-x="1595" d="M158 106q0 55 37.5 92.5t91.5 37.5q53 0 91 -37t38 -93q0 -55 -38 -92t-91 -37q-54 0 -91.5 37t-37.5 92zM670 106q0 55 37.5 92.5t91.5 37.5q53 0 91 -37t38 -93q0 -55 -38 -92t-91 -37q-54 0 -91.5 37t-37.5 92zM1180 106q0 55 37.5 92.5t91.5 37.5q53 0 91 -37t38 -93 q0 -55 -38 -92t-91 -37q-54 0 -91.5 37t-37.5 92z" />
<glyph unicode="&#x202f;" horiz-adv-x="374" />
<glyph unicode="&#x2039;" horiz-adv-x="626" d="M78 530v48l364 387l103 -93l-289 -317l289 -322l-103 -88z" />
<glyph unicode="&#x203a;" horiz-adv-x="626" d="M80 233l291 322l-291 317l104 93l363 -387v-48l-363 -385z" />
<glyph unicode="&#x205f;" horiz-adv-x="468" />
<glyph unicode="&#x20ac;" horiz-adv-x="1394" d="M10 444v140h195q-4 61 -4 92t4 84h-191v139h215q57 215 218 345t387 130q150 0 269.5 -58.5t190.5 -162.5l-114 -92q-57 78 -143.5 122t-196.5 44q-162 0 -275.5 -88t-165.5 -240h598l-32 -139h-594q-4 -53 -4 -84q0 -45 6 -92h538l-34 -140h-474q51 -147 164 -233 t273 -86q110 0 196 44t144 122l114 -92q-72 -104 -191.5 -163t-268.5 -59q-223 0 -382 127t-221 340h-221z" />
<glyph unicode="&#x2122;" horiz-adv-x="1945" d="M27 1227v125h766v-125h-316v-795h-135v795h-315zM948 432v934h49l385 -520l387 520h46v-934h-138v602l-272 -366h-47l-271 366v-602h-139z" />
<glyph unicode="&#x25fc;" horiz-adv-x="993" d="M0 0v993h993v-993h-993z" />
</font>
</defs>
</svg>
